  0
SECTION
  2
HEADER
  9
$ACADVER
  1
AC1018
  9
$ACADMAINTVER
 70
   104
  9
$DWGCODEPAGE
  3
ANSI_1252
  9
$LASTSAVEDBY
  1
w.koehlhoff
  9
$INSBASE
 10
0.0
 20
0.0
 30
0.0
  9
$EXTMIN
 10
-0.0064041928749248
 20
-0.0090573584946014
 30
-0.0000000000112498
  9
$EXTMAX
 10
420.0064100605654
 20
594.0090656570857
 30
0.0000000000002956
  9
$LIMMIN
 10
0.0
 20
0.0
  9
$LIMMAX
 10
419.9999999999999
 20
594.0
  9
$ORTHOMODE
 70
     1
  9
$REGENMODE
 70
     1
  9
$FILLMODE
 70
     1
  9
$QTEXTMODE
 70
     0
  9
$MIRRTEXT
 70
     1
  9
$LTSCALE
 40
20.0
  9
$ATTMODE
 70
     1
  9
$TEXTSIZE
 40
3.5
  9
$TRACEWID
 40
1.0
  9
$TEXTSTYLE
  7
STANDARD
  9
$CLAYER
  8
BEM
  9
$CELTYPE
  6
ByLayer
  9
$CECOLOR
 62
   256
  9
$CELTSCALE
 40
1.0
  9
$DISPSILH
 70
     0
  9
$DIMSCALE
 40
2.0
  9
$DIMASZ
 40
3.5
  9
$DIMEXO
 40
1.0
  9
$DIMDLI
 40
7.0
  9
$DIMRND
 40
0.0
  9
$DIMDLE
 40
0.0
  9
$DIMEXE
 40
1.0
  9
$DIMTP
 40
0.0
  9
$DIMTM
 40
0.0
  9
$DIMTXT
 40
3.5
  9
$DIMCEN
 40
1.5
  9
$DIMTSZ
 40
0.0
  9
$DIMTOL
 70
     0
  9
$DIMLIM
 70
     0
  9
$DIMTIH
 70
     0
  9
$DIMTOH
 70
     0
  9
$DIMSE1
 70
     0
  9
$DIMSE2
 70
     0
  9
$DIMTAD
 70
     1
  9
$DIMZIN
 70
     8
  9
$DIMBLK
  1

  9
$DIMASO
 70
     1
  9
$DIMSHO
 70
     0
  9
$DIMPOST
  1

  9
$DIMAPOST
  1

  9
$DIMALT
 70
     0
  9
$DIMALTD
 70
     2
  9
$DIMALTF
 40
25.4
  9
$DIMLFAC
 40
1.0
  9
$DIMTOFL
 70
     1
  9
$DIMTVP
 40
0.0
  9
$DIMTIX
 70
     0
  9
$DIMSOXD
 70
     0
  9
$DIMSAH
 70
     0
  9
$DIMBLK1
  1

  9
$DIMBLK2
  1

  9
$DIMSTYLE
  2
Standard
  9
$DIMCLRD
 70
     0
  9
$DIMCLRE
 70
     0
  9
$DIMCLRT
 70
     1
  9
$DIMTFAC
 40
0.5142857142857144
  9
$DIMGAP
 40
1.5
  9
$DIMJUST
 70
     0
  9
$DIMSD1
 70
     0
  9
$DIMSD2
 70
     0
  9
$DIMTOLJ
 70
     1
  9
$DIMTZIN
 70
     8
  9
$DIMALTZ
 70
     8
  9
$DIMALTTZ
 70
     8
  9
$DIMUPT
 70
     0
  9
$DIMDEC
 70
     2
  9
$DIMTDEC
 70
     2
  9
$DIMALTU
 70
     2
  9
$DIMALTTD
 70
     2
  9
$DIMTXSTY
  7
STANDARD
  9
$DIMAUNIT
 70
     0
  9
$DIMADEC
 70
     3
  9
$DIMALTRND
 40
0.0
  9
$DIMAZIN
 70
     2
  9
$DIMDSEP
 70
    46
  9
$DIMATFIT
 70
     3
  9
$DIMFRAC
 70
     0
  9
$DIMLDRBLK
  1

  9
$DIMLUNIT
 70
     2
  9
$DIMLWD
 70
    -2
  9
$DIMLWE
 70
    -2
  9
$DIMTMOVE
 70
     0
  9
$LUNITS
 70
     2
  9
$LUPREC
 70
     2
  9
$SKETCHINC
 40
1.0
  9
$FILLETRAD
 40
2.0
  9
$AUNITS
 70
     0
  9
$AUPREC
 70
     0
  9
$MENU
  1
ACAD
  9
$ELEVATION
 40
0.0
  9
$PELEVATION
 40
0.0
  9
$THICKNESS
 40
0.0
  9
$LIMCHECK
 70
     0
  9
$CHAMFERA
 40
0.0
  9
$CHAMFERB
 40
0.0
  9
$CHAMFERC
 40
0.0
  9
$CHAMFERD
 40
0.0
  9
$SKPOLY
 70
     0
  9
$TDCREATE
 40
2455397.825393172
  9
$TDUCREATE
 40
2455397.783726505
  9
$TDUPDATE
 40
2456352.573863819
  9
$TDUUPDATE
 40
2456352.532197153
  9
$TDINDWG
 40
0.2389176620
  9
$TDUSRTIMER
 40
0.2389176620
  9
$USRTIMER
 70
     1
  9
$ANGBASE
 50
0.0
  9
$ANGDIR
 70
     0
  9
$PDMODE
 70
     0
  9
$PDSIZE
 40
0.0
  9
$PLINEWID
 40
0.0
  9
$SPLFRAME
 70
     0
  9
$SPLINETYPE
 70
     6
  9
$SPLINESEGS
 70
     8
  9
$HANDSEED
  5
1BA0
  9
$SURFTAB1
 70
     6
  9
$SURFTAB2
 70
     6
  9
$SURFTYPE
 70
     6
  9
$SURFU
 70
     6
  9
$SURFV
 70
     6
  9
$UCSBASE
  2

  9
$UCSNAME
  2

  9
$UCSORG
 10
0.0
 20
0.0
 30
0.0
  9
$UCSXDIR
 10
1.0
 20
0.0
 30
0.0
  9
$UCSYDIR
 10
0.0
 20
1.0
 30
0.0
  9
$UCSORTHOREF
  2

  9
$UCSORTHOVIEW
 70
     0
  9
$UCSORGTOP
 10
0.0
 20
0.0
 30
0.0
  9
$UCSORGBOTTOM
 10
0.0
 20
0.0
 30
0.0
  9
$UCSORGLEFT
 10
0.0
 20
0.0
 30
0.0
  9
$UCSORGRIGHT
 10
0.0
 20
0.0
 30
0.0
  9
$UCSORGFRONT
 10
0.0
 20
0.0
 30
0.0
  9
$UCSORGBACK
 10
0.0
 20
0.0
 30
0.0
  9
$PUCSBASE
  2

  9
$PUCSNAME
  2

  9
$PUCSORG
 10
0.0
 20
0.0
 30
0.0
  9
$PUCSXDIR
 10
1.0
 20
0.0
 30
0.0
  9
$PUCSYDIR
 10
0.0
 20
1.0
 30
0.0
  9
$PUCSORTHOREF
  2

  9
$PUCSORTHOVIEW
 70
     0
  9
$PUCSORGTOP
 10
0.0
 20
0.0
 30
0.0
  9
$PUCSORGBOTTOM
 10
0.0
 20
0.0
 30
0.0
  9
$PUCSORGLEFT
 10
0.0
 20
0.0
 30
0.0
  9
$PUCSORGRIGHT
 10
0.0
 20
0.0
 30
0.0
  9
$PUCSORGFRONT
 10
0.0
 20
0.0
 30
0.0
  9
$PUCSORGBACK
 10
0.0
 20
0.0
 30
0.0
  9
$USERI1
 70
     0
  9
$USERI2
 70
     0
  9
$USERI3
 70
     0
  9
$USERI4
 70
     0
  9
$USERI5
 70
     0
  9
$USERR1
 40
0.0
  9
$USERR2
 40
0.0
  9
$USERR3
 40
0.0
  9
$USERR4
 40
0.0
  9
$USERR5
 40
0.0
  9
$WORLDVIEW
 70
     1
  9
$SHADEDGE
 70
     3
  9
$SHADEDIF
 70
    70
  9
$TILEMODE
 70
     1
  9
$MAXACTVP
 70
    16
  9
$PINSBASE
 10
0.0
 20
0.0
 30
0.0
  9
$PLIMCHECK
 70
     0
  9
$PEXTMIN
 10
1.000000000000000E+20
 20
1.000000000000000E+20
 30
1.000000000000000E+20
  9
$PEXTMAX
 10
-1.000000000000000E+20
 20
-1.000000000000000E+20
 30
-1.000000000000000E+20
  9
$PLIMMIN
 10
0.0
 20
0.0
  9
$PLIMMAX
 10
12.0
 20
9.0
  9
$UNITMODE
 70
     0
  9
$VISRETAIN
 70
     0
  9
$PLINEGEN
 70
     0
  9
$PSLTSCALE
 70
     0
  9
$TREEDEPTH
 70
  3020
  9
$CMLSTYLE
  2
Standard
  9
$CMLJUST
 70
     0
  9
$CMLSCALE
 40
1.0
  9
$PROXYGRAPHICS
 70
     1
  9
$MEASUREMENT
 70
     0
  9
$CELWEIGHT
370
    -1
  9
$ENDCAPS
280
     0
  9
$JOINSTYLE
280
     0
  9
$LWDISPLAY
290
     0
  9
$INSUNITS
 70
     0
  9
$HYPERLINKBASE
  1

  9
$STYLESHEET
  1
monochrome1.ctb
  9
$XEDIT
290
     1
  9
$CEPSNTYPE
380
     0
  9
$PSTYLEMODE
290
     1
  9
$FINGERPRINTGUID
  2
{D68B0D0D-A558-11D7-B632-000102183313}
  9
$VERSIONGUID
  2
{84A339B0-E3E2-42C2-B331-5D980A71A690}
  9
$EXTNAMES
290
     1
  9
$PSVPSCALE
 40
0.0
  9
$OLESTARTUP
290
     0
  9
$SORTENTS
280
   127
  9
$INDEXCTL
280
     0
  9
$HIDETEXT
280
     0
  9
$XCLIPFRAME
290
     0
  9
$HALOGAP
280
     0
  9
$OBSCOLOR
 70
   257
  9
$OBSLTYPE
280
     0
  9
$INTERSECTIONDISPLAY
280
     0
  9
$INTERSECTIONCOLOR
 70
   257
  9
$DIMASSOC
280
     1
  9
$PROJECTNAME
  1

  0
ENDSEC
  0
SECTION
  2
CLASSES
  0
CLASS
  1
ACDBDICTIONARYWDFLT
  2
AcDbDictionaryWithDefault
  3
ObjectDBX Classes
 90
        0
 91
        1
280
     0
281
     0
  0
CLASS
  1
DICTIONARYVAR
  2
AcDbDictionaryVar
  3
ObjectDBX Classes
 90
        0
 91
        7
280
     0
281
     0
  0
CLASS
  1
DIMASSOC
  2
AcDbDimAssoc
  3
"AcDbDimAssoc|Product Desc:     AcDim ARX App For Dimension|Company:          Autodesk, Inc.|WEB Address:      www.autodesk.com"
 90
        0
 91
        0
280
     0
281
     0
  0
CLASS
  1
MATERIAL
  2
AcDbMaterial
  3
ObjectDBX Classes
 90
     1153
 91
        3
280
     0
281
     0
  0
CLASS
  1
VISUALSTYLE
  2
AcDbVisualStyle
  3
ObjectDBX Classes
 90
     4095
 91
       24
280
     0
281
     0
  0
CLASS
  1
TABLESTYLE
  2
AcDbTableStyle
  3
ObjectDBX Classes
 90
     4095
 91
        1
280
     0
281
     0
  0
CLASS
  1
SCALE
  2
AcDbScale
  3
ObjectDBX Classes
 90
     1153
 91
       17
280
     0
281
     0
  0
CLASS
  1
MLEADERSTYLE
  2
AcDbMLeaderStyle
  3
ACDB_MLEADERSTYLE_CLASS
 90
     4095
 91
        1
280
     0
281
     0
  0
CLASS
  1
ACDBSECTIONVIEWSTYLE
  2
AcDbSectionViewStyle
  3
ObjectDBX Classes
 90
     1025
 91
        1
280
     0
281
     0
  0
CLASS
  1
ACDBDETAILVIEWSTYLE
  2
AcDbDetailViewStyle
  3
ObjectDBX Classes
 90
     1025
 91
        1
280
     0
281
     0
  0
CLASS
  1
SORTENTSTABLE
  2
AcDbSortentsTable
  3
ObjectDBX Classes
 90
        0
 91
        1
280
     0
281
     0
  0
CLASS
  1
CELLSTYLEMAP
  2
AcDbCellStyleMap
  3
ObjectDBX Classes
 90
     1152
 91
        4
280
     0
281
     0
  0
ENDSEC
  0
SECTION
  2
TABLES
  0
TABLE
  2
VPORT
  5
8
102
{ACAD_XDICTIONARY
360
1330
102
}
330
0
100
AcDbSymbolTable
 70
     1
  0
VPORT
  5
1177
330
8
100
AcDbSymbolTableRecord
100
AcDbViewportTableRecord
  2
*Active
 70
     0
 10
0.0
 20
0.0
 11
1.0
 21
1.0
 12
210.0000029338453
 22
297.0000041492955
 13
0.0
 23
0.0
 14
1.0
 24
1.0
 15
10.0
 25
10.0
 16
0.0
 26
0.0
 36
1.0
 17
0.0
 27
0.0
 37
0.0
 40
598.0272442057867
 41
1.699324324324324
 42
50.0
 43
0.0
 44
0.0
 50
0.0
 51
0.0
 71
     0
 72
  1500
 73
     1
 74
     0
 75
     0
 76
     0
 77
     0
 78
     0
281
     0
 65
     1
110
0.0
120
0.0
130
0.0
111
1.0
121
0.0
131
0.0
112
0.0
122
1.0
132
0.0
 79
     0
146
0.0
1001
ACAD_NAV_VCDISPLAY
1070
     3
  0
ENDTAB
  0
TABLE
  2
LTYPE
  5
5
330
0
100
AcDbSymbolTable
 70
     5
  0
LTYPE
  5
13
330
5
100
AcDbSymbolTableRecord
100
AcDbLinetypeTableRecord
  2
ByBlock
 70
     0
  3

 72
    65
 73
     0
 40
0.0
  0
LTYPE
  5
14
330
5
100
AcDbSymbolTableRecord
100
AcDbLinetypeTableRecord
  2
ByLayer
 70
     0
  3

 72
    65
 73
     0
 40
0.0
  0
LTYPE
  5
15
330
5
100
AcDbSymbolTableRecord
100
AcDbLinetypeTableRecord
  2
Continuous
 70
     0
  3
Solid line
 72
    65
 73
     0
 40
0.0
  0
LTYPE
  5
25
330
5
100
AcDbSymbolTableRecord
100
AcDbLinetypeTableRecord
  2
STRICHPUNKT
 70
     0
  3
__ . __ . __ . __ . __ . __ . __ . __ . __ . __
 72
    65
 73
     4
 40
1.0
 49
0.5
 74
     0
 49
-0.25
 74
     0
 49
0.0
 74
     0
 49
-0.25
 74
     0
  0
LTYPE
  5
34
330
5
100
AcDbSymbolTableRecord
100
AcDbLinetypeTableRecord
  2
AUSGEZOGEN
 70
     0
  3
Ausgezogene Linie
 72
    65
 73
     0
 40
0.0
  0
LTYPE
  5
11C1
330
5
100
AcDbSymbolTableRecord
100
AcDbLinetypeTableRecord
  2
PHANTOM2
 70
     0
  3
Phantom (.5x) ___ _ _ ___ _ _ ___ _ _ ___ _ _
 72
    65
 73
     6
 40
1.25
 49
0.625
 74
     0
 49
-0.125
 74
     0
 49
0.125
 74
     0
 49
-0.125
 74
     0
 49
0.125
 74
     0
 49
-0.125
 74
     0
  0
ENDTAB
  0
TABLE
  2
LAYER
  5
2
102
{ACAD_XDICTIONARY
360
1371
102
}
330
0
100
AcDbSymbolTable
 70
     8
  0
LAYER
  5
10
102
{ACAD_XDICTIONARY
360
131F
102
}
330
2
100
AcDbSymbolTableRecord
100
AcDbLayerTableRecord
  2
0
 70
     0
 62
     7
  6
Continuous
370
    -3
390
F
  0
LAYER
  5
2B
102
{ACAD_XDICTIONARY
360
1321
102
}
330
2
100
AcDbSymbolTableRecord
100
AcDbLayerTableRecord
  2
VOLL
 70
     0
 62
     1
  6
Continuous
370
    -3
390
F
  0
LAYER
  5
2C
102
{ACAD_XDICTIONARY
360
1323
102
}
330
2
100
AcDbSymbolTableRecord
100
AcDbLayerTableRecord
  2
HILF
 70
     0
 62
     2
  6
Continuous
370
    -3
390
F
  0
LAYER
  5
2D
102
{ACAD_XDICTIONARY
360
1325
102
}
330
2
100
AcDbSymbolTableRecord
100
AcDbLayerTableRecord
  2
MITTEL
 70
     0
 62
     2
  6
STRICHPUNKT
370
    -3
390
F
  0
LAYER
  5
2F
102
{ACAD_XDICTIONARY
360
1327
102
}
330
2
100
AcDbSymbolTableRecord
100
AcDbLayerTableRecord
  2
BEM
 70
     0
 62
     7
  6
Continuous
370
    -3
390
F
  0
LAYER
  5
30
102
{ACAD_XDICTIONARY
360
1329
102
}
330
2
100
AcDbSymbolTableRecord
100
AcDbLayerTableRecord
  2
STEMPEL
 70
     0
 62
     3
  6
Continuous
370
    -3
390
F
  0
LAYER
  5
33
102
{ACAD_XDICTIONARY
360
132B
102
}
330
2
100
AcDbSymbolTableRecord
100
AcDbLayerTableRecord
  2
TEXT
 70
     0
 62
     7
  6
Continuous
370
    -3
390
F
  0
LAYER
  5
1B2
330
2
100
AcDbSymbolTableRecord
100
AcDbLayerTableRecord
  2
DEFPOINTS
 70
     0
 62
     7
  6
AUSGEZOGEN
290
     0
370
    -3
390
F
  0
ENDTAB
  0
TABLE
  2
STYLE
  5
3
330
0
100
AcDbSymbolTable
 70
     4
  0
STYLE
  5
11
330
3
100
AcDbSymbolTableRecord
100
AcDbTextStyleTableRecord
  2
STANDARD
 70
     0
 40
0.0
 41
0.8
 50
0.0
 71
     0
 42
3.5
  3
simplex.shx
  4

  0
STYLE
  5
24
330
3
100
AcDbSymbolTableRecord
100
AcDbTextStyleTableRecord
  2
GREEKS
 70
     0
 40
0.0
 41
0.8
 50
0.0
 71
     0
 42
2.5
  3
SIMPLEX.shx
  4

  0
ENDTAB
  0
TABLE
  2
VIEW
  5
6
330
0
100
AcDbSymbolTable
 70
     1
  0
ENDTAB
  0
TABLE
  2
UCS
  5
7
330
0
100
AcDbSymbolTable
 70
     0
  0
ENDTAB
  0
TABLE
  2
APPID
  5
9
330
0
100
AcDbSymbolTable
 70
     6
  0
APPID
  5
12
330
9
100
AcDbSymbolTableRecord
100
AcDbRegAppTableRecord
  2
ACAD
 70
     0
  0
APPID
  5
1216
330
9
100
AcDbSymbolTableRecord
100
AcDbRegAppTableRecord
  2
ACAD_NAV_VCDISPLAY
 70
     0
  0
APPID
  5
1217
330
9
100
AcDbSymbolTableRecord
100
AcDbRegAppTableRecord
  2
ACAD_MLEADERVER
 70
     0
  0
APPID
  5
1263
330
9
100
AcDbSymbolTableRecord
100
AcDbRegAppTableRecord
  2
ACAD_DSTYLE_DIMJAG
 70
     0
  0
APPID
  5
1264
330
9
100
AcDbSymbolTableRecord
100
AcDbRegAppTableRecord
  2
ACAD_DSTYLE_DIMTALN
 70
     0
  0
APPID
  5
131D
330
9
100
AcDbSymbolTableRecord
100
AcDbRegAppTableRecord
  2
ACAD_EXEMPT_FROM_CAD_STANDARDS
 70
     0
  0
ENDTAB
  0
TABLE
  2
DIMSTYLE
  5
A
330
0
100
AcDbSymbolTable
 70
     3
100
AcDbDimStyleTable
 71
     1
340
A2
  0
DIMSTYLE
105
A2
102
{ACAD_REACTORS
330
1A07
330
1A14
330
1A21
330
1A3B
330
1A48
102
}
330
A
100
AcDbSymbolTableRecord
100
AcDbDimStyleTableRecord
  2
Standard
 70
     0
340
11
  0
ENDTAB
  0
TABLE
  2
BLOCK_RECORD
  5
1
330
0
100
AcDbSymbolTable
 70
     8
  0
BLOCK_RECORD
  5
1E
102
{ACAD_XDICTIONARY
360
DB
102
}
330
1
100
AcDbSymbolTableRecord
100
AcDbBlockTableRecord
  2
*Model_Space
340
21
  0
BLOCK_RECORD
  5
1A
102
{ACAD_XDICTIONARY
360
DD
102
}
330
1
100
AcDbSymbolTableRecord
100
AcDbBlockTableRecord
  2
*Paper_Space
340
1D
  0
BLOCK_RECORD
  5
22
330
1
100
AcDbSymbolTableRecord
100
AcDbBlockTableRecord
  2
LOGO
340
0
102
{BLKREFS
331
12F6
102
}
  0
BLOCK_RECORD
  5
1A08
330
1
100
AcDbSymbolTableRecord
100
AcDbBlockTableRecord
  2
*D1
340
0
  0
BLOCK_RECORD
  5
1A15
330
1
100
AcDbSymbolTableRecord
100
AcDbBlockTableRecord
  2
*D2
340
0
  0
BLOCK_RECORD
  5
1A22
330
1
100
AcDbSymbolTableRecord
100
AcDbBlockTableRecord
  2
*D3
340
0
  0
BLOCK_RECORD
  5
1A3C
330
1
100
AcDbSymbolTableRecord
100
AcDbBlockTableRecord
  2
*D4
340
0
  0
BLOCK_RECORD
  5
1A49
330
1
100
AcDbSymbolTableRecord
100
AcDbBlockTableRecord
  2
*D5
340
0
  0
ENDTAB
  0
ENDSEC
  0
SECTION
  2
BLOCKS
  0
BLOCK
  5
37
330
1E
100
AcDbEntity
  8
0
100
AcDbBlockBegin
  2
*Model_Space
 70
     0
 10
0.0
 20
0.0
 30
0.0
  3
*Model_Space
  1

  0
ENDBLK
  5
38
330
1E
100
AcDbEntity
  8
0
100
AcDbBlockEnd
  0
BLOCK
  5
35
330
1A
100
AcDbEntity
 67
     1
  8
0
100
AcDbBlockBegin
  2
*Paper_Space
 70
     0
 10
0.0
 20
0.0
 30
0.0
  3
*Paper_Space
  1

  0
ENDBLK
  5
36
330
1A
100
AcDbEntity
 67
     1
  8
0
100
AcDbBlockEnd
  0
BLOCK
  5
39
330
22
100
AcDbEntity
  8
0
100
AcDbBlockBegin
  2
LOGO
 70
     0
 10
0.0
 20
0.0
 30
0.0
  3
LOGO
  1

  0
ARC
  5
3A
330
22
100
AcDbEntity
  8
0
100
AcDbCircle
 10
11.59973089678112
 20
-9.271599258481501
 30
0.0
 40
4.5
100
AcDbArc
 50
270.0
 51
231.0575587310159
  0
LINE
  5
3B
330
22
100
AcDbEntity
  8
0
100
AcDbLine
 10
3.599730896781125
 20
-4.771599258481529
 30
0.0
 11
3.599730896781153
 21
-11.77159925848133
 31
0.0
  0
LINE
  5
3C
330
22
100
AcDbEntity
  8
0
100
AcDbLine
 10
2.599730896781125
 20
-4.771599258481529
 30
0.0
 11
2.599730896781153
 21
-11.77159925848133
 31
0.0
  0
CIRCLE
  5
3D
330
22
100
AcDbEntity
  8
0
100
AcDbCircle
 10
11.59973089678112
 20
-9.271599258481501
 30
0.0
 40
3.5
  0
ARC
  5
3E
330
22
100
AcDbEntity
  8
0
100
AcDbCircle
 10
31.59973089678115
 20
-9.271599258481472
 30
0.0
 40
4.5
100
AcDbArc
 50
270.0
 51
231.0575587310182
  0
LINE
  5
3F
330
22
100
AcDbEntity
  8
0
100
AcDbLine
 10
17.59973089678112
 20
-4.771599258481472
 30
0.0
 11
17.59973089678115
 21
-13.77159925848147
 31
0.0
  0
ARC
  5
40
330
22
100
AcDbEntity
  8
0
100
AcDbCircle
 10
22.59973089678116
 20
-7.271599258481472
 30
0.0
 40
2.5
100
AcDbArc
 50
293.1161887722295
 51
90.0
  0
CIRCLE
  5
41
330
22
100
AcDbEntity
  8
0
100
AcDbCircle
 10
31.59973089678115
 20
-9.271599258481472
 30
0.0
 40
3.5
  0
ARC
  5
42
330
22
100
AcDbEntity
  8
0
100
AcDbCircle
 10
4.599730896781153
 20
-11.77159925848133
 30
0.0
 40
1.0
100
AcDbArc
 50
180.0
 51
270.0
  0
ARC
  5
43
330
22
100
AcDbEntity
  8
0
100
AcDbCircle
 10
4.599730896781153
 20
-11.77159925848133
 30
0.0
 40
2.0
100
AcDbArc
 50
179.9999999999992
 51
270.0
  0
LINE
  5
44
330
22
100
AcDbEntity
  8
0
100
AcDbLine
 10
11.59973089678115
 20
-13.77159925848144
 30
0.0
 11
4.599730896781153
 21
-13.77159925848147
 31
0.0
  0
LINE
  5
45
330
22
100
AcDbEntity
  8
0
100
AcDbLine
 10
8.771303772034769
 20
-12.77159925848136
 30
0.0
 11
4.599730896781153
 21
-12.77159925848133
 31
0.0
  0
LINE
  5
46
330
22
100
AcDbEntity
  8
0
100
AcDbLine
 10
31.59973089678115
 20
-13.77159925848147
 30
0.0
 11
23.6715276665056
 21
-13.77159925848144
 31
0.0
  0
LINE
  5
47
330
22
100
AcDbEntity
  8
0
100
AcDbLine
 10
23.56565672307022
 20
-9.51278021337896
 30
0.0
 11
24.4388546544846
 21
-12.77159925848144
 31
0.0
  0
LINE
  5
48
330
22
100
AcDbEntity
  8
0
100
AcDbLine
 10
22.59973089678116
 20
-9.771599258481472
 30
0.0
 11
18.59973089678112
 21
-9.771599258481472
 31
0.0
  0
LINE
  5
49
330
22
100
AcDbEntity
  8
0
100
AcDbLine
 10
18.59973089678115
 20
-13.77159925848144
 30
0.0
 11
17.59973089678115
 21
-13.77159925848144
 31
0.0
  0
LINE
  5
4A
330
22
100
AcDbEntity
  8
0
100
AcDbLine
 10
18.59973089678115
 20
-9.771599258481472
 30
0.0
 11
18.59973089678115
 21
-13.77159925848144
 31
0.0
  0
LINE
  5
4B
330
22
100
AcDbEntity
  8
0
100
AcDbLine
 10
22.59973089678116
 20
-9.771599258481472
 30
0.0
 11
23.67152766650562
 21
-13.77159925848147
 31
0.0
  0
ARC
  5
4C
330
22
100
AcDbEntity
  8
0
100
AcDbCircle
 10
22.59973089678116
 20
-7.271599258481472
 30
0.0
 40
2.5
100
AcDbArc
 50
270.0
 51
270.0000000000007
  0
LINE
  5
4D
330
22
100
AcDbEntity
  8
0
100
AcDbLine
 10
28.77130377203494
 20
-12.77159925848147
 30
0.0
 11
24.43885465448463
 21
-12.77159925848144
 31
0.0
  0
LINE
  5
4E
330
22
100
AcDbEntity
  8
0
100
AcDbLine
 10
3.599730896781125
 20
-4.771599258481472
 30
0.0
 11
2.599730896781125
 21
-4.771599258481472
 31
0.0
  0
LINE
  5
4F
330
22
100
AcDbEntity
  8
0
100
AcDbLine
 10
22.59973089678116
 20
-8.771599258481472
 30
0.0
 11
18.59973089678115
 21
-8.771599258481472
 31
0.0
  0
LINE
  5
50
330
22
100
AcDbEntity
  8
0
100
AcDbLine
 10
22.59973089678116
 20
-5.771599258481472
 30
0.0
 11
18.59973089678115
 21
-5.771599258481472
 31
0.0
  0
LINE
  5
51
330
22
100
AcDbEntity
  8
0
100
AcDbLine
 10
22.59973089678116
 20
-4.771599258481472
 30
0.0
 11
17.59973089678115
 21
-4.771599258481472
 31
0.0
  0
LINE
  5
52
330
22
100
AcDbEntity
  8
0
100
AcDbLine
 10
18.59973089678115
 20
-5.771599258481472
 30
0.0
 11
18.59973089678115
 21
-8.771599258481472
 31
0.0
  0
ARC
  5
53
330
22
100
AcDbEntity
  8
0
100
AcDbCircle
 10
22.59973089678116
 20
-7.271599258481472
 30
0.0
 40
1.5
100
AcDbArc
 50
270.0
 51
90.0
  0
ENDBLK
  5
54
330
22
100
AcDbEntity
  8
0
100
AcDbBlockEnd
  0
BLOCK
  5
1A09
330
1A08
100
AcDbEntity
  8
0
100
AcDbBlockBegin
  2
*D1
 70
     1
 10
0.0
 20
0.0
 30
0.0
  3
*D1
  1

  0
LINE
  5
1A55
330
1A08
100
AcDbEntity
  8
BEM
 62
     0
440
 16777216
370
    -2
100
AcDbLine
 10
329.6074225839588
 20
412.9574178207013
 30
0.0
 11
329.6074225839588
 21
388.0712428721654
 31
0.0
  0
LINE
  5
1A56
330
1A08
100
AcDbEntity
  8
BEM
 62
     0
440
 16777216
370
    -2
100
AcDbLine
 10
380.6074225839591
 20
412.9574178207015
 30
0.0
 11
380.6074225839591
 21
388.0712428721654
 31
0.0
  0
LINE
  5
1A57
330
1A08
100
AcDbEntity
  8
BEM
 62
     0
440
 16777216
370
    -2
100
AcDbLine
 10
336.6074225839588
 20
390.0712428721654
 30
0.0
 11
373.6074225839591
 21
390.0712428721654
 31
0.0
  0
SOLID
  5
1A58
330
1A08
100
AcDbEntity
  8
BEM
 62
     0
440
 16777216
100
AcDbTrace
 10
336.6074225839588
 20
391.2379095388321
 30
0.0
 11
336.6074225839588
 21
388.9045762054987
 31
0.0
 12
329.6074225839588
 22
390.0712428721654
 32
0.0
 13
329.6074225839588
 23
390.0712428721654
 33
0.0
  0
SOLID
  5
1A59
330
1A08
100
AcDbEntity
  8
BEM
 62
     0
440
 16777216
100
AcDbTrace
 10
373.6074225839591
 20
391.2379095388321
 30
0.0
 11
373.6074225839591
 21
388.9045762054987
 31
0.0
 12
380.6074225839591
 22
390.0712428721654
 32
0.0
 13
380.6074225839591
 23
390.0712428721654
 33
0.0
  0
MTEXT
  5
1A5A
330
1A08
100
AcDbEntity
  8
BEM
 62
     1
440
 16777216
100
AcDbMText
 10
355.1074225839589
 20
396.5712428721654
 30
0.0
 40
7.0
 41
0.0
 71
     5
 72
     1
  1
\A1;51
 73
     1
 44
1.0
  0
POINT
  5
1A5B
330
1A08
100
AcDbEntity
  8
DEFPOINTS
 62
     0
440
 16777216
100
AcDbPoint
 10
329.6074225839588
 20
414.9574178207013
 30
0.0
  0
POINT
  5
1A5C
330
1A08
100
AcDbEntity
  8
DEFPOINTS
 62
     0
440
 16777216
100
AcDbPoint
 10
380.6074225839591
 20
414.9574178207014
 30
0.0
  0
POINT
  5
1A5D
330
1A08
100
AcDbEntity
  8
DEFPOINTS
 62
     0
440
 16777216
100
AcDbPoint
 10
380.6074225839591
 20
390.0712428721654
 30
0.0
  0
ENDBLK
  5
1A0A
330
1A08
100
AcDbEntity
  8
0
100
AcDbBlockEnd
  0
BLOCK
  5
1A16
330
1A15
100
AcDbEntity
  8
0
100
AcDbBlockBegin
  2
*D2
 70
     1
 10
0.0
 20
0.0
 30
0.0
  3
*D2
  1

  0
LINE
  5
1A5E
330
1A15
100
AcDbEntity
  8
BEM
 62
     0
440
 16777216
370
    -2
100
AcDbLine
 10
329.6074225839589
 20
497.9574178207014
 30
0.0
 11
329.6074225839589
 21
515.6194610725852
 31
0.0
  0
LINE
  5
1A5F
330
1A15
100
AcDbEntity
  8
BEM
 62
     0
440
 16777216
370
    -2
100
AcDbLine
 10
388.6074225839589
 20
491.2229190168056
 30
0.0
 11
388.6074225839589
 21
515.6194610725852
 31
0.0
  0
LINE
  5
1A60
330
1A15
100
AcDbEntity
  8
BEM
 62
     0
440
 16777216
370
    -2
100
AcDbLine
 10
336.6074225839589
 20
513.6194610725851
 30
0.0
 11
381.6074225839589
 21
513.6194610725851
 31
0.0
  0
SOLID
  5
1A61
330
1A15
100
AcDbEntity
  8
BEM
 62
     0
440
 16777216
100
AcDbTrace
 10
336.6074225839589
 20
514.7861277392518
 30
0.0
 11
336.6074225839589
 21
512.4527944059185
 31
0.0
 12
329.6074225839589
 22
513.6194610725851
 32
0.0
 13
329.6074225839589
 23
513.6194610725851
 33
0.0
  0
SOLID
  5
1A62
330
1A15
100
AcDbEntity
  8
BEM
 62
     0
440
 16777216
100
AcDbTrace
 10
381.6074225839589
 20
514.7861277392518
 30
0.0
 11
381.6074225839589
 21
512.4527944059185
 31
0.0
 12
388.6074225839589
 22
513.6194610725851
 32
0.0
 13
388.6074225839589
 23
513.6194610725851
 33
0.0
  0
MTEXT
  5
1A63
330
1A15
100
AcDbEntity
  8
BEM
 62
     1
440
 16777216
100
AcDbMText
 10
359.1074225839589
 20
520.1194610725852
 30
0.0
 40
7.0
 41
0.0
 71
     5
 72
     1
  1
\A1;59
 73
     1
 44
1.0
  0
POINT
  5
1A64
330
1A15
100
AcDbEntity
  8
DEFPOINTS
 62
     0
440
 16777216
100
AcDbPoint
 10
329.6074225839589
 20
495.9574178207015
 30
0.0
  0
POINT
  5
1A65
330
1A15
100
AcDbEntity
  8
DEFPOINTS
 62
     0
440
 16777216
100
AcDbPoint
 10
388.6074225839589
 20
489.2229190168056
 30
0.0
  0
POINT
  5
1A66
330
1A15
100
AcDbEntity
  8
DEFPOINTS
 62
     0
440
 16777216
100
AcDbPoint
 10
388.6074225839589
 20
513.6194610725851
 30
0.0
  0
ENDBLK
  5
1A17
330
1A15
100
AcDbEntity
  8
0
100
AcDbBlockEnd
  0
BLOCK
  5
1A23
330
1A22
100
AcDbEntity
  8
0
100
AcDbBlockBegin
  2
*D3
 70
     1
 10
0.0
 20
0.0
 30
0.0
  3
*D3
  1

  0
LINE
  5
1A67
330
1A22
100
AcDbEntity
  8
BEM
 62
     0
440
 16777216
370
    -2
100
AcDbLine
 10
55.38081895650418
 20
473.9574178207013
 30
0.0
 11
55.38081895650418
 21
513.1847930416122
 31
0.0
  0
LINE
  5
1A68
330
1A22
100
AcDbEntity
  8
BEM
 62
     0
440
 16777216
370
    -2
100
AcDbLine
 10
240.3808189565042
 20
473.9574178207013
 30
0.0
 11
240.3808189565042
 21
513.1847930416122
 31
0.0
  0
LINE
  5
1A69
330
1A22
100
AcDbEntity
  8
BEM
 62
     0
440
 16777216
370
    -2
100
AcDbLine
 10
62.38081895650418
 20
511.1847930416122
 30
0.0
 11
233.3808189565042
 21
511.1847930416122
 31
0.0
  0
SOLID
  5
1A6A
330
1A22
100
AcDbEntity
  8
BEM
 62
     0
440
 16777216
100
AcDbTrace
 10
62.38081895650418
 20
512.3514597082788
 30
0.0
 11
62.38081895650418
 21
510.0181263749455
 31
0.0
 12
55.38081895650418
 22
511.1847930416122
 32
0.0
 13
55.38081895650418
 23
511.1847930416122
 33
0.0
  0
SOLID
  5
1A6B
330
1A22
100
AcDbEntity
  8
BEM
 62
     0
440
 16777216
100
AcDbTrace
 10
233.3808189565042
 20
512.3514597082788
 30
0.0
 11
233.3808189565042
 21
510.0181263749455
 31
0.0
 12
240.3808189565042
 22
511.1847930416122
 32
0.0
 13
240.3808189565042
 23
511.1847930416122
 33
0.0
  0
MTEXT
  5
1A6C
330
1A22
100
AcDbEntity
  8
BEM
 62
     1
440
 16777216
100
AcDbMText
 10
147.8808189565041
 20
517.6847930416122
 30
0.0
 40
7.0
 41
0.0
 71
     5
 72
     1
  1
\A1;185
 73
     1
 44
1.0
  0
POINT
  5
1A6D
330
1A22
100
AcDbEntity
  8
DEFPOINTS
 62
     0
440
 16777216
100
AcDbPoint
 10
55.38081895650418
 20
471.9574178207014
 30
0.0
  0
POINT
  5
1A6E
330
1A22
100
AcDbEntity
  8
DEFPOINTS
 62
     0
440
 16777216
100
AcDbPoint
 10
240.3808189565042
 20
471.9574178207014
 30
0.0
  0
POINT
  5
1A6F
330
1A22
100
AcDbEntity
  8
DEFPOINTS
 62
     0
440
 16777216
100
AcDbPoint
 10
240.3808189565042
 20
511.1847930416122
 30
0.0
  0
ENDBLK
  5
1A24
330
1A22
100
AcDbEntity
  8
0
100
AcDbBlockEnd
  0
BLOCK
  5
1A3D
330
1A3C
100
AcDbEntity
  8
0
100
AcDbBlockBegin
  2
*D4
 70
     1
 10
0.0
 20
0.0
 30
0.0
  3
*D4
  1

  0
LINE
  5
1A70
330
1A3C
100
AcDbEntity
  8
BEM
 62
     0
440
 16777216
370
    -2
100
AcDbLine
 10
62.88081895650418
 20
428.9574178207013
 30
0.0
 11
62.88081895650418
 21
392.1427230738907
 31
0.0
  0
LINE
  5
1A71
330
1A3C
100
AcDbEntity
  8
BEM
 62
     0
440
 16777216
370
    -2
100
AcDbLine
 10
232.8808189565042
 20
428.9574178207013
 30
0.0
 11
232.8808189565042
 21
392.1427230738907
 31
0.0
  0
LINE
  5
1A72
330
1A3C
100
AcDbEntity
  8
BEM
 62
     0
440
 16777216
370
    -2
100
AcDbLine
 10
69.88081895650418
 20
394.1427230738907
 30
0.0
 11
225.8808189565042
 21
394.1427230738907
 31
0.0
  0
SOLID
  5
1A73
330
1A3C
100
AcDbEntity
  8
BEM
 62
     0
440
 16777216
100
AcDbTrace
 10
69.88081895650418
 20
395.3093897405574
 30
0.0
 11
69.88081895650418
 21
392.976056407224
 31
0.0
 12
62.88081895650418
 22
394.1427230738907
 32
0.0
 13
62.88081895650418
 23
394.1427230738907
 33
0.0
  0
SOLID
  5
1A74
330
1A3C
100
AcDbEntity
  8
BEM
 62
     0
440
 16777216
100
AcDbTrace
 10
225.8808189565042
 20
395.3093897405574
 30
0.0
 11
225.8808189565042
 21
392.976056407224
 31
0.0
 12
232.8808189565042
 22
394.1427230738907
 32
0.0
 13
232.8808189565042
 23
394.1427230738907
 33
0.0
  0
MTEXT
  5
1A75
330
1A3C
100
AcDbEntity
  8
BEM
 62
     1
440
 16777216
100
AcDbMText
 10
147.8808189565041
 20
400.6427230738906
 30
0.0
 40
7.0
 41
0.0
 71
     5
 72
     1
  1
\A1;170
 73
     1
 44
1.0
  0
POINT
  5
1A76
330
1A3C
100
AcDbEntity
  8
DEFPOINTS
 62
     0
440
 16777216
100
AcDbPoint
 10
62.88081895650418
 20
430.9574178207014
 30
0.0
  0
POINT
  5
1A77
330
1A3C
100
AcDbEntity
  8
DEFPOINTS
 62
     0
440
 16777216
100
AcDbPoint
 10
232.8808189565042
 20
430.9574178207014
 30
0.0
  0
POINT
  5
1A78
330
1A3C
100
AcDbEntity
  8
DEFPOINTS
 62
     0
440
 16777216
100
AcDbPoint
 10
232.8808189565042
 20
394.1427230738907
 30
0.0
  0
ENDBLK
  5
1A3E
330
1A3C
100
AcDbEntity
  8
0
100
AcDbBlockEnd
  0
BLOCK
  5
1A4A
330
1A49
100
AcDbEntity
  8
0
100
AcDbBlockBegin
  2
*D5
 70
     1
 10
0.0
 20
0.0
 30
0.0
  3
*D5
  1

  0
LINE
  5
1A79
330
1A49
100
AcDbEntity
  8
BEM
 62
     0
440
 16777216
370
    -2
100
AcDbLine
 10
223.3513817049813
 20
495.9574178207012
 30
0.0
 11
258.7290971072562
 21
495.9574178207012
 31
0.0
  0
LINE
  5
1A7A
330
1A49
100
AcDbEntity
  8
BEM
 62
     0
440
 16777216
370
    -2
100
AcDbLine
 10
218.8808189565042
 20
414.9574178207013
 30
0.0
 11
258.7290971072562
 21
414.9574178207013
 31
0.0
  0
LINE
  5
1A7B
330
1A49
100
AcDbEntity
  8
BEM
 62
     0
440
 16777216
370
    -2
100
AcDbLine
 10
256.7290971072562
 20
488.9574178207012
 30
0.0
 11
256.7290971072562
 21
421.9574178207014
 31
0.0
  0
SOLID
  5
1A7C
330
1A49
100
AcDbEntity
  8
BEM
 62
     0
440
 16777216
100
AcDbTrace
 10
255.5624304405895
 20
488.9574178207012
 30
0.0
 11
257.8957637739228
 21
488.9574178207012
 31
0.0
 12
256.7290971072562
 22
495.9574178207012
 32
0.0
 13
256.7290971072562
 23
495.9574178207012
 33
0.0
  0
SOLID
  5
1A7D
330
1A49
100
AcDbEntity
  8
BEM
 62
     0
440
 16777216
100
AcDbTrace
 10
255.5624304405895
 20
421.9574178207014
 30
0.0
 11
257.8957637739228
 21
421.9574178207014
 31
0.0
 12
256.7290971072562
 22
414.9574178207013
 32
0.0
 13
256.7290971072562
 23
414.9574178207013
 33
0.0
  0
MTEXT
  5
1A7E
330
1A49
100
AcDbEntity
  8
BEM
 62
     1
440
 16777216
100
AcDbMText
 10
250.2290971072561
 20
455.4574178207014
 30
0.0
 40
7.0
 41
0.0
 71
     5
 72
     1
  1
\A1;81
 11
0.0000000000000001
 21
1.0
 31
0.0
 73
     1
 44
1.0
  0
POINT
  5
1A7F
330
1A49
100
AcDbEntity
  8
DEFPOINTS
 62
     0
440
 16777216
100
AcDbPoint
 10
221.3513817049813
 20
495.9574178207012
 30
0.0
  0
POINT
  5
1A80
330
1A49
100
AcDbEntity
  8
DEFPOINTS
 62
     0
440
 16777216
100
AcDbPoint
 10
216.8808189565042
 20
414.9574178207013
 30
0.0
  0
POINT
  5
1A81
330
1A49
100
AcDbEntity
  8
DEFPOINTS
 62
     0
440
 16777216
100
AcDbPoint
 10
256.7290971072562
 20
414.9574178207013
 30
0.0
  0
ENDBLK
  5
1A4B
330
1A49
100
AcDbEntity
  8
0
100
AcDbBlockEnd
  0
ENDSEC
  0
SECTION
  2
ENTITIES
  0
TEXT
  5
3F3
330
1E
100
AcDbEntity
  8
TEXT
 62
     1
100
AcDbText
 10
140.5082395880534
 20
138.2669084256383
 30
0.0
 40
7.0
  1
Werkstoff: Feuerverzinktes Spaltband DX51D+Z 275 MA C
 41
0.8
  7
GREEKS
100
AcDbText
  0
TEXT
  5
E21
330
1E
100
AcDbEntity
  8
VOLL
100
AcDbText
 10
195.7402497691741
 20
296.1880535808031
 30
0.0
 40
1.8
  1

 50
90.0
  7
GREEKS
100
AcDbText
  0
TEXT
  5
EA0
330
1E
100
AcDbEntity
  8
VOLL
100
AcDbText
 10
231.3238984216361
 20
170.8583351821271
 30
0.0
 40
1.8
  1

  7
GREEKS
100
AcDbText
  0
LINE
  5
12B2
330
1E
100
AcDbEntity
  8
STEMPEL
100
AcDbLine
 10
410.0
 20
110.0
 30
0.0
 11
39.99999999999997
 21
110.0
 31
0.0
  0
LINE
  5
12B3
330
1E
100
AcDbEntity
  8
STEMPEL
100
AcDbLine
 10
136.0000000000001
 20
109.9999999999999
 30
0.0
 11
136.0
 21
9.999999999999971
 31
0.0
  0
LINE
  5
12B4
330
1E
100
AcDbEntity
  8
STEMPEL
100
AcDbLine
 10
220.0
 20
110.0
 30
0.0
 11
220.0
 21
9.999999999999971
 31
0.0
  0
LINE
  5
12B5
330
1E
100
AcDbEntity
  8
STEMPEL
100
AcDbLine
 10
332.0
 20
109.9999999999997
 30
0.0
 11
332.0
 21
40.0
 31
0.0
  0
LINE
  5
12B6
330
1E
100
AcDbEntity
  8
STEMPEL
100
AcDbLine
 10
135.9999999999999
 20
29.99999999999997
 30
0.0
 11
39.99999999999997
 21
29.99999999999997
 31
0.0
  0
LINE
  5
12B7
330
1E
100
AcDbEntity
  8
STEMPEL
100
AcDbLine
 10
410.0
 20
40.0
 30
0.0
 11
136.0000000000001
 21
39.99999999999997
 31
0.0
  0
LINE
  5
12B8
330
1E
100
AcDbEntity
  8
STEMPEL
100
AcDbLine
 10
410.0
 20
80.0
 30
0.0
 11
136.0000000000001
 21
79.99999999999994
 31
0.0
  0
LINE
  5
12B9
330
1E
100
AcDbEntity
  8
VOLL
100
AcDbLine
 10
54.00000000000009
 20
110.0
 30
0.0
 11
53.99999999999997
 21
9.999999999999971
 31
0.0
  0
LINE
  5
12BA
330
1E
100
AcDbEntity
  8
VOLL
100
AcDbLine
 10
94.00000000000011
 20
109.9999999999999
 30
0.0
 11
94.0
 21
9.999999999999971
 31
0.0
  0
LINE
  5
12BB
330
1E
100
AcDbEntity
  8
VOLL
100
AcDbLine
 10
114.0000000000001
 20
109.9999999999999
 30
0.0
 11
114.0
 21
9.999999999999971
 31
0.0
  0
LINE
  5
12BC
330
1E
100
AcDbEntity
  8
VOLL
100
AcDbLine
 10
154.0000000000001
 20
79.99999999999994
 30
0.0
 11
154.0000000000001
 21
39.99999999999997
 31
0.0
  0
LINE
  5
12BD
330
1E
100
AcDbEntity
  8
VOLL
100
AcDbLine
 10
180.0000000000001
 20
109.9999999999998
 30
0.0
 11
180.0
 21
39.99999999999997
 31
0.0
  0
LINE
  5
12BE
330
1E
100
AcDbEntity
  8
HILF
100
AcDbLine
 10
40.00000000000008
 20
100.0
 30
0.0
 11
136.0000000000001
 21
100.0
 31
0.0
  0
LINE
  5
12BF
330
1E
100
AcDbEntity
  8
HILF
100
AcDbLine
 10
40.00000000000008
 20
90.00000000000005
 30
0.0
 11
136.0000000000001
 21
90.00000000000005
 31
0.0
  0
LINE
  5
12C0
330
1E
100
AcDbEntity
  8
HILF
100
AcDbLine
 10
40.00000000000008
 20
79.99999999999994
 30
0.0
 11
136.0000000000001
 21
79.99999999999994
 31
0.0
  0
LINE
  5
12C1
330
1E
100
AcDbEntity
  8
HILF
100
AcDbLine
 10
40.00000000000008
 20
69.99999999999994
 30
0.0
 11
136.0000000000001
 21
69.99999999999994
 31
0.0
  0
LINE
  5
12C2
330
1E
100
AcDbEntity
  8
HILF
100
AcDbLine
 10
40.00000000000008
 20
59.99999999999997
 30
0.0
 11
136.0000000000001
 21
59.99999999999997
 31
0.0
  0
LINE
  5
12C3
330
1E
100
AcDbEntity
  8
HILF
100
AcDbLine
 10
40.00000000000008
 20
49.99999999999997
 30
0.0
 11
136.0000000000001
 21
49.99999999999997
 31
0.0
  0
LINE
  5
12C4
330
1E
100
AcDbEntity
  8
HILF
100
AcDbLine
 10
40.00000000000008
 20
39.99999999999997
 30
0.0
 11
136.0000000000001
 21
39.99999999999997
 31
0.0
  0
LINE
  5
12C5
330
1E
100
AcDbEntity
  8
HILF
100
AcDbLine
 10
136.0000000000001
 20
69.99999999999994
 30
0.0
 11
220.0
 21
69.99999999999994
 31
0.0
  0
LINE
  5
12C6
330
1E
100
AcDbEntity
  8
HILF
100
AcDbLine
 10
136.0000000000001
 20
59.99999999999997
 30
0.0
 11
220.0
 21
59.99999999999997
 31
0.0
  0
LINE
  5
12C7
330
1E
100
AcDbEntity
  8
HILF
100
AcDbLine
 10
136.0000000000001
 20
49.99999999999997
 30
0.0
 11
220.0
 21
49.99999999999997
 31
0.0
  0
LINE
  5
12C8
330
1E
100
AcDbEntity
  8
HILF
100
AcDbLine
 10
224.7736801096948
 20
84.03758247564139
 30
0.0
 11
324.8353916556311
 21
84.03758247564139
 31
0.0
  0
LINE
  5
12C9
330
1E
100
AcDbEntity
  8
HILF
100
AcDbLine
 10
224.7736801096948
 20
69.99999999999994
 30
0.0
 11
324.835391655631
 21
69.99999999999994
 31
0.0
  0
LINE
  5
12CA
330
1E
100
AcDbEntity
  8
HILF
100
AcDbLine
 10
224.7736801096948
 20
59.99999999999997
 30
0.0
 11
324.835391655631
 21
59.99999999999997
 31
0.0
  0
LINE
  5
12CB
330
1E
100
AcDbEntity
  8
HILF
100
AcDbLine
 10
224.7736801096948
 20
49.99999999999997
 30
0.0
 11
324.835391655631
 21
49.99999999999997
 31
0.0
  0
LINE
  5
12CC
330
1E
100
AcDbEntity
  8
VOLL
100
AcDbLine
 10
332.0
 20
60.0
 30
0.0
 11
410.0
 21
60.0
 31
0.0
  0
LINE
  5
12CD
330
1E
100
AcDbEntity
  8
HILF
100
AcDbLine
 10
336.7238616296993
 20
83.77983636955827
 30
0.0
 11
404.8588839326728
 21
83.77983636955827
 31
0.0
  0
LINE
  5
12CE
330
1E
100
AcDbEntity
  8
HILF
100
AcDbLine
 10
223.4909699289885
 20
14.89398258028314
 30
0.0
 11
404.8588839326728
 21
14.89398258028314
 31
0.0
  0
TEXT
  5
12CF
330
1E
100
AcDbEntity
  8
TEXT
100
AcDbText
 10
63.86165979631819
 20
18.67381894984132
 30
0.0
 40
4.0
  1
Änderung
 41
0.8
  7
GREEKS
 72
     1
 11
74.60451693917534
 21
18.67381894984132
 31
0.0
100
AcDbText
  0
TEXT
  5
12D0
330
1E
100
AcDbEntity
  8
TEXT
100
AcDbText
 10
143.5163572150377
 20
102.4620895087088
 30
0.0
 40
5.0
  1
Maßstab
 41
0.8
  7
GREEKS
100
AcDbText
  0
TEXT
  5
12D1
330
1E
100
AcDbEntity
  8
TEXT
100
AcDbText
 10
184.2858954734051
 20
102.4184168434819
 30
0.0
 40
5.0
  1
Zul. Abw.
 41
0.8
  7
GREEKS
100
AcDbText
  0
TEXT
  5
12D2
330
1E
100
AcDbEntity
  8
TEXT
100
AcDbText
 10
224.877940380901
 20
102.5489328011779
 30
0.0
 40
5.0
  1
Benennung
 41
0.8
  7
GREEKS
100
AcDbText
  0
TEXT
  5
12D3
330
1E
100
AcDbEntity
  8
TEXT
100
AcDbText
 10
336.178754957634
 20
102.3132034537136
 30
0.0
 40
5.0
  1
Zeichnungs Nr.
 41
0.8
  7
GREEKS
100
AcDbText
  0
TEXT
  5
12D4
330
1E
100
AcDbEntity
  8
TEXT
100
AcDbText
 10
224.742238391136
 20
30.84560570193057
 30
0.0
 40
5.0
  1
Bauvorhaben
 41
0.8
  7
GREEKS
100
AcDbText
  0
TEXT
  5
12D5
330
1E
100
AcDbEntity
  8
TEXT
100
AcDbText
 10
336.7238616296993
 20
73.1811823709997
 30
0.0
 40
5.0
  1
Ersatz für:
 41
0.8
  7
GREEKS
100
AcDbText
  0
TEXT
  5
12D6
330
1E
100
AcDbEntity
  8
TEXT
100
AcDbText
 10
48.26641107045756
 20
13.65465846027192
 30
0.0
 40
4.0
  1
Index
 50
90.0
 41
0.8
  7
GREEKS
100
AcDbText
  0
TEXT
  5
12D7
330
1E
100
AcDbEntity
  8
TEXT
100
AcDbText
 10
100.0934676075481
 20
18.6715626933981
 30
0.0
 40
4.0
  1
Tag
 41
0.8
  7
GREEKS
 72
     1
 11
103.8268009408814
 21
18.6715626933981
 31
0.0
100
AcDbText
  0
TEXT
  5
12D8
330
1E
100
AcDbEntity
  8
TEXT
100
AcDbText
 10
119.0122744386592
 20
18.59324216966408
 30
0.0
 40
4.0
  1
Name
 41
0.8
  7
GREEKS
 72
     1
 11
125.3360839624688
 21
18.59324216966408
 31
0.0
100
AcDbText
  0
TEXT
  5
12D9
330
1E
100
AcDbEntity
  8
TEXT
100
AcDbText
 10
162.3311673153651
 20
73.31880501229926
 30
0.0
 40
4.0
  1
Tag
 41
0.8
  7
GREEKS
100
AcDbText
  0
TEXT
  5
12DA
330
1E
100
AcDbEntity
  8
TEXT
100
AcDbText
 10
192.4626584226295
 20
73.30961091915225
 30
0.0
 40
4.0
  1
Name
 41
0.8
  7
GREEKS
100
AcDbText
  0
TEXT
  5
12DB
330
1E
100
AcDbEntity
  8
TEXT
100
AcDbText
 10
137.5836127167615
 20
63.62990369617964
 30
0.0
 40
4.0
  1
Gez.
 41
0.8
  7
GREEKS
100
AcDbText
  0
TEXT
  5
12DC
330
1E
100
AcDbEntity
  8
TEXT
100
AcDbText
 10
137.5515086571672
 20
53.68926291428377
 30
0.0
 40
4.0
  1
Gepr.
 41
0.8
  7
GREEKS
100
AcDbText
  0
TEXT
  5
12DD
330
1E
100
AcDbEntity
  8
TEXT
100
AcDbText
 10
137.6006777387304
 20
43.52946389649807
 30
0.0
 40
4.0
  1
Norm.
 41
0.8
  7
GREEKS
100
AcDbText
  0
LINE
  5
12DE
330
1E
100
AcDbEntity
  8
STEMPEL
100
AcDbLine
 10
49.99999999999989
 20
10.0
 30
0.0
 11
410.0
 21
10.0
 31
0.0
  0
TEXT
  5
12DF
330
1E
100
AcDbEntity
  8
TEXT
100
AcDbText
 10
337.2400861497006
 20
52.07416177878602
 30
0.0
 40
5.0
  1
ersetzt durch:
 41
0.8
  7
GREEKS
100
AcDbText
  0
LINE
  5
12E0
330
1E
100
AcDbEntity
  8
STEMPEL
100
AcDbLine
 10
410.0
 20
10.0
 30
0.0
 11
39.99999999999989
 21
10.0
 31
0.0
  0
LINE
  5
12E1
330
1E
100
AcDbEntity
  8
STEMPEL
100
AcDbLine
 10
410.0
 20
10.0
 30
0.0
 11
410.0
 21
584.0
 31
0.0
  0
LINE
  5
12E2
330
1E
100
AcDbEntity
  8
STEMPEL
100
AcDbLine
 10
40.0
 20
10.0
 30
0.0
 11
39.99999999999989
 21
584.0
 31
0.0
  0
LINE
  5
12E3
330
1E
100
AcDbEntity
  8
STEMPEL
100
AcDbLine
 10
410.0
 20
584.0
 30
0.0
 11
39.99999999999989
 21
584.0
 31
0.0
  0
LINE
  5
12E4
330
1E
100
AcDbEntity
  8
HILF
100
AcDbLine
 10
0.0
 20
0.0
 30
0.0
 11
-0.0000000000001137
 21
594.0
 31
0.0
  0
LINE
  5
12E5
330
1E
100
AcDbEntity
  8
HILF
100
AcDbLine
 10
419.9999999999999
 20
594.0000000000002
 30
0.0
 11
0.0
 21
594.0
 31
0.0
  0
LINE
  5
12E6
330
1E
100
AcDbEntity
  8
HILF
100
AcDbLine
 10
420.0
 20
0.0
 30
0.0
 11
0.0
 21
0.0
 31
0.0
  0
LINE
  5
12E7
330
1E
100
AcDbEntity
  8
HILF
100
AcDbLine
 10
31.08767135713856
 20
297.0
 30
0.0
 11
0.0000000000001137
 21
297.0
 31
0.0
  0
TEXT
  5
12E8
330
1E
100
AcDbEntity
  8
TEXT
100
AcDbText
 10
138.622109822104
 20
73.14025471151666
 30
0.0
 40
4.0
  1
2013
 41
0.8
  7
GREEKS
100
AcDbText
  0
LINE
  5
12E9
330
1E
100
AcDbEntity
  8
HILF
100
AcDbLine
 10
420.0
 20
-0.0000000000001137
 30
0.0
 11
419.9999999999999
 21
594.0
 31
0.0
  0
TEXT
  5
12EA
330
1E
100
AcDbEntity
  8
VOLL
100
AcDbText
 10
15.48184921861335
 20
-127.4361817384096
 30
0.0
 40
1.8
  1

  7
GREEKS
100
AcDbText
  0
TEXT
  5
12EB
330
1E
100
AcDbEntity
  8
TEXT
100
AcDbText
 10
41.85509950977674
 20
111.6719999999999
 30
0.0
 40
5.0
  1
Erstellt mit AUTOCAD 2004
 41
0.8
  7
GREEKS
100
AcDbText
  0
TEXT
  5
12EC
330
1E
100
AcDbEntity
  8
TEXT
100
AcDbText
 10
194.4216048581257
 20
63.0896391972351
 30
0.0
 40
4.0
  1
Koeh
 41
0.8
  7
GREEKS
 72
     1
 11
199.6787477152685
 21
63.0896391972351
 31
0.0
100
AcDbText
  0
TEXT
  5
12ED
330
1E
100
AcDbEntity
  8
TEXT
 62
     1
100
AcDbText
 10
343.7810507876003
 20
88.14901428913959
 30
0.0
 40
7.0
  1
00806100W
 41
0.8
  7
GREEKS
 72
     1
 11
367.247717454267
 21
88.14901428913959
 31
0.0
100
AcDbText
  0
TEXT
  5
12EE
330
1E
100
AcDbEntity
  8
TEXT
 62
     1
100
AcDbText
 10
150.5006306481887
 20
88.14901428913959
 30
0.0
 40
7.0
  1
1:2
 41
0.8
  7
GREEKS
100
AcDbText
  0
TEXT
  5
12EF
330
1E
100
AcDbEntity
  8
TEXT
100
AcDbText
 10
160.398997108236
 20
63.10765040825732
 30
0.0
 40
4.0
  1
28.02.
 41
0.8
  7
GREEKS
 72
     1
 11
167.4085209177598
 21
63.10765040825732
 31
0.0
100
AcDbText
  0
TEXT
  5
12F0
330
1E
100
AcDbEntity
  8
TEXT
 62
     1
100
AcDbText
 10
224.5180396748312
 20
87.41748789253779
 30
0.0
 40
7.0
  1
Sicherungsschelle DN100
 41
0.75
  7
GREEKS
100
AcDbText
  0
TEXT
  5
12F3
330
1E
100
AcDbEntity
  8
TEXT
100
AcDbText
 10
225.1296391125315
 20
51.64011943042158
 30
0.0
 40
5.0
  1
EDV-Art.Nr. 00806.100X
 41
0.8
  7
GREEKS
100
AcDbText
  0
TEXT
  5
12F4
330
1E
100
AcDbEntity
  8
TEXT
100
AcDbText
 10
224.9837501577827
 20
42.62974153022632
 30
0.0
 40
4.0
  1
00806100W.DWG
 41
0.8
  7
GREEKS
100
AcDbText
  0
TEXT
  5
12F5
330
1E
100
AcDbEntity
  8
TEXT
100
AcDbText
 10
182.626132208084
 20
90.76363841023022
 30
0.0
 40
4.0
  1
DIN EN1123-2
 41
0.8
  7
GREEKS
 72
     1
 11
199.6166083985602
 21
90.76363841023022
 31
0.0
100
AcDbText
  0
INSERT
  5
12F6
330
1E
100
AcDbEntity
  8
STEMPEL
100
AcDbBlockReference
  2
LOGO
 10
140.9955485457794
 20
45.02105276448321
 30
0.0
 41
2.0
 42
2.0
 43
2.0
  0
TEXT
  5
12F7
330
1E
100
AcDbEntity
  8
BEM
100
AcDbText
 10
417.3022923857165
 20
10.16790107998849
 30
0.0
 40
4.0
  1
Diese Zeichnung ist urheberrechtlich geschützt und bleibt unser Eigentum. Sie darf weder ganz noch teilweise verfielfältigt und nicht an Dritte weitergegeben werden.
 50
90.0
 41
0.8
  7
GREEKS
100
AcDbText
  0
LINE
  5
1843
330
1E
100
AcDbEntity
  8
MITTEL
100
AcDbLine
 10
50.38081895650418
 20
280.0581481394138
 30
0.0
 11
245.3808189565042
 21
280.0581481394138
 31
0.0
  0
LINE
  5
1844
330
1E
100
AcDbEntity
  8
MITTEL
100
AcDbLine
 10
147.8808189565041
 20
347.058148139414
 30
0.0
 11
147.8808189565041
 21
213.0581481394137
 31
0.0
  0
LINE
  5
1845
330
1E
100
AcDbEntity
  8
MITTEL
  6
STRICHPUNKT
100
AcDbLine
 10
326.6074225839589
 20
409.9574178207014
 30
0.0
 11
326.6074225839589
 21
500.9574178207014
 31
0.0
  0
LINE
  5
1846
330
1E
100
AcDbEntity
  8
STEMPEL
100
AcDbLine
 10
240.3808189565042
 20
283.0581481394142
 30
0.0
 11
202.4953774551316
 21
283.0581481394141
 31
0.0
  0
LINE
  5
1847
330
1E
100
AcDbEntity
  8
STEMPEL
100
AcDbLine
 10
240.3808189565042
 20
286.0581481394141
 30
0.0
 11
207.4035052997351
 21
286.058148139414
 31
0.0
  0
ARC
  5
1848
330
1E
100
AcDbEntity
  8
STEMPEL
100
AcDbCircle
 10
147.8808189565041
 20
280.0581481394141
 30
0.0
 40
51.5
100
AcDbArc
 50
6.787181735125563
 51
173.2128182648744
  0
LINE
  5
1849
330
1E
100
AcDbEntity
  8
STEMPEL
100
AcDbLine
 10
240.3808189565042
 20
286.0581481394141
 30
0.0
 11
240.3808189565042
 21
283.0581481394142
 31
0.0
  0
ARC
  5
184A
330
1E
100
AcDbEntity
  8
STEMPEL
100
AcDbCircle
 10
147.8808189565041
 20
280.0581481394141
 30
0.0
 40
61.99999999999988
100
AcDbArc
 50
5.969555350215825
 51
174.0304446497842
  0
ARC
  5
184B
330
1E
100
AcDbEntity
  8
STEMPEL
100
AcDbCircle
 10
210.0419000281844
 20
286.5581481394141
 30
0.0
 40
0.5
100
AcDbArc
 50
185.9695553502158
 51
270.0
  0
ARC
  5
184C
330
1E
100
AcDbEntity
  8
STEMPEL
100
AcDbCircle
 10
147.8808189565041
 20
280.0581481394141
 30
0.0
 40
56.65761786761038
100
AcDbArc
 50
5.772219820420336
 51
174.2277801795796
  0
ARC
  5
184D
330
1E
100
AcDbEntity
  8
STEMPEL
100
AcDbCircle
 10
147.8808189565041
 20
280.0581481394141
 30
0.0
 40
59.37654122872015
100
AcDbArc
 50
6.232122601070519
 51
173.7678773989294
  0
ARC
  5
184E
330
1E
100
AcDbEntity
  8
STEMPEL
100
AcDbCircle
 10
207.2359482179067
 20
286.0581481394141
 30
0.0
 40
3.0
100
AcDbArc
 50
185.7722198204203
 51
270.0
  0
ARC
  5
184F
330
1E
100
AcDbEntity
  8
STEMPEL
100
AcDbCircle
 10
207.4035052997352
 20
286.558148139414
 30
0.0
 40
0.5
100
AcDbArc
 50
186.2321226010721
 51
269.999999999987
  0
ARC
  5
1850
330
1E
100
AcDbEntity
  8
STEMPEL
100
AcDbCircle
 10
207.4035052997352
 20
273.5581481394137
 30
0.0
 40
0.5
100
AcDbArc
 50
90.00000000001303
 51
173.7678773989278
  0
ARC
  5
1851
330
1E
100
AcDbEntity
  8
STEMPEL
100
AcDbCircle
 10
207.2359482179067
 20
274.0581481394136
 30
0.0
 40
3.0
100
AcDbArc
 50
90.0
 51
174.2277801795796
  0
ARC
  5
1852
330
1E
100
AcDbEntity
  8
STEMPEL
100
AcDbCircle
 10
147.8808189565041
 20
280.0581481394136
 30
0.0
 40
59.37654122872015
100
AcDbArc
 50
186.2321226010705
 51
353.7678773989295
  0
ARC
  5
1853
330
1E
100
AcDbEntity
  8
STEMPEL
100
AcDbCircle
 10
147.8808189565041
 20
280.0581481394136
 30
0.0
 40
56.65761786761038
100
AcDbArc
 50
185.7722198204203
 51
354.2277801795797
  0
ARC
  5
1854
330
1E
100
AcDbEntity
  8
STEMPEL
100
AcDbCircle
 10
210.0419000281844
 20
273.5581481394136
 30
0.0
 40
0.5
100
AcDbArc
 50
90.0
 51
174.0304446497842
  0
ARC
  5
1855
330
1E
100
AcDbEntity
  8
STEMPEL
100
AcDbCircle
 10
147.8808189565041
 20
280.0581481394136
 30
0.0
 40
61.99999999999988
100
AcDbArc
 50
185.9695553502158
 51
354.0304446497842
  0
LINE
  5
1856
330
1E
100
AcDbEntity
  8
STEMPEL
100
AcDbLine
 10
240.3808189565042
 20
274.0581481394136
 30
0.0
 11
240.3808189565042
 21
277.0581481394135
 31
0.0
  0
ARC
  5
1857
330
1E
100
AcDbEntity
  8
STEMPEL
100
AcDbCircle
 10
147.8808189565041
 20
280.0581481394136
 30
0.0
 40
51.5
100
AcDbArc
 50
186.7871817351256
 51
353.2128182648744
  0
LINE
  5
1858
330
1E
100
AcDbEntity
  8
STEMPEL
100
AcDbLine
 10
240.3808189565042
 20
274.0581481394136
 30
0.0
 11
207.4035052997351
 21
274.0581481394137
 31
0.0
  0
LINE
  5
1859
330
1E
100
AcDbEntity
  8
STEMPEL
100
AcDbLine
 10
240.3808189565042
 20
277.0581481394135
 30
0.0
 11
202.4953774551316
 21
277.0581481394135
 31
0.0
  0
LINE
  5
185A
330
1E
100
AcDbEntity
  8
MITTEL
  6
STRICHPUNKT
100
AcDbLine
 10
147.8808189565041
 20
409.9574178207014
 30
0.0
 11
147.8808189565041
 21
500.9574178207014
 31
0.0
  0
ARC
  5
185B
330
1E
100
AcDbEntity
  8
STEMPEL
100
AcDbCircle
 10
216.8808189565042
 20
430.9574178207014
 30
0.0
 40
16.0
100
AcDbArc
 50
270.0
 51
2.999999999999077
  0
ARC
  5
185C
330
1E
100
AcDbEntity
  8
STEMPEL
100
AcDbCircle
 10
78.88081895650419
 20
430.9574178207014
 30
0.0
 40
16.0
100
AcDbArc
 50
177.0000000000009
 51
270.0
  0
LINE
  5
185D
330
1E
100
AcDbEntity
  8
STEMPEL
100
AcDbLine
 10
74.41025620802736
 20
495.9574178207015
 30
0.0
 11
221.3513817049813
 21
495.9574178207012
 31
0.0
  0
LINE
  5
185E
330
1E
100
AcDbEntity
  8
STEMPEL
100
AcDbLine
 10
78.88081895650419
 20
414.9574178207013
 30
0.0
 11
216.8808189565042
 21
414.9574178207013
 31
0.0
  0
ARC
  5
185F
330
1E
100
AcDbEntity
  8
STEMPEL
100
AcDbCircle
 10
91.38081895650419
 20
471.9574178207014
 30
0.0
 40
36.0
100
AcDbArc
 50
160.5287793655085
 51
214.8203898261674
  0
LINE
  5
1860
330
1E
100
AcDbEntity
  8
STEMPEL
100
AcDbLine
 10
63.60359565757022
 20
445.1677935935548
 30
0.0
 11
62.902746400431
 21
431.7947931205885
 31
0.0
  0
ARC
  5
1861
330
1E
100
AcDbEntity
  8
STEMPEL
100
AcDbCircle
 10
53.61730031002446
 20
445.6911531559842
 30
0.0
 40
10.0
100
AcDbArc
 50
357.0000000000009
 51
34.82038982616744
  0
ARC
  5
1862
330
1E
100
AcDbEntity
  8
STEMPEL
100
AcDbCircle
 10
74.41025620802736
 20
477.9574178207013
 30
0.0
 40
18.0
100
AcDbArc
 50
90.0
 51
160.5287793655085
  0
ARC
  5
1863
330
1E
100
AcDbEntity
  8
STEMPEL
100
AcDbCircle
 10
204.3808189565042
 20
471.9574178207014
 30
0.0
 40
36.0
100
AcDbArc
 50
325.1796101738326
 51
19.47122063449148
  0
LINE
  5
1864
330
1E
100
AcDbEntity
  8
STEMPEL
100
AcDbLine
 10
232.1580422554382
 20
445.1677935935546
 30
0.0
 11
232.8588915125774
 21
431.7947931205885
 31
0.0
  0
ARC
  5
1865
330
1E
100
AcDbEntity
  8
STEMPEL
100
AcDbCircle
 10
242.1443376029839
 20
445.691153155984
 30
0.0
 40
10.0
100
AcDbArc
 50
145.1796101738308
 51
182.9999999999991
  0
ARC
  5
1866
330
1E
100
AcDbEntity
  8
STEMPEL
100
AcDbCircle
 10
221.3513817049813
 20
477.9574178207013
 30
0.0
 40
18.0
100
AcDbArc
 50
19.47122063449148
 51
90.0
  0
LINE
  5
1867
330
1E
100
AcDbEntity
  8
STEMPEL
  6
Continuous
100
AcDbLine
 10
216.7205649186598
 20
265.169037271869
 30
0.0
 11
217.8808189565042
 21
264.8581481394137
 31
0.0
  0
LINE
  5
1868
330
1E
100
AcDbEntity
  8
STEMPEL
  6
Continuous
100
AcDbLine
 10
232.8808189565042
 20
264.8581481394137
 30
0.0
 11
234.0410729943485
 21
265.169037271869
 31
0.0
  0
ARC
  5
1869
330
1E
100
AcDbEntity
  8
STEMPEL
  6
Continuous
100
AcDbCircle
 10
235.7808189565042
 20
273.3081481394137
 30
0.0
 40
0.7499999999999995
100
AcDbArc
 50
290.0
 51
90.0
  0
ARC
  5
186A
330
1E
100
AcDbEntity
  8
STEMPEL
  6
Continuous
100
AcDbCircle
 10
214.9808189565042
 20
273.3081481394137
 30
0.0
 40
0.7500000000000006
100
AcDbArc
 50
90.0
 51
249.9999999999999
  0
LINE
  5
186B
330
1E
100
AcDbEntity
  8
STEMPEL
  6
Continuous
100
AcDbLine
 10
214.7243038490099
 20
272.6033786738242
 30
0.0
 11
216.7205649186598
 21
271.8767990646473
 31
0.0
  0
LINE
  5
186C
330
1E
100
AcDbEntity
  8
STEMPEL
  6
Continuous
100
AcDbLine
 10
234.0410729943485
 20
271.8767990646473
 30
0.0
 11
236.0373340639985
 21
272.6033786738242
 31
0.0
  0
LINE
  5
186D
330
1E
100
AcDbEntity
  8
STEMPEL
  6
Continuous
100
AcDbLine
 10
217.8808189565042
 20
264.8581481394137
 30
0.0
 11
232.8808189565042
 21
264.8581481394137
 31
0.0
  0
LINE
  5
186E
330
1E
100
AcDbEntity
  8
STEMPEL
  6
Continuous
100
AcDbLine
 10
216.7205649186598
 20
265.169037271869
 30
0.0
 11
216.7205649186598
 21
271.8767990646473
 31
0.0
  0
LINE
  5
186F
330
1E
100
AcDbEntity
  8
STEMPEL
  6
Continuous
100
AcDbLine
 10
221.050691937582
 20
265.169037271869
 30
0.0
 11
221.050691937582
 21
271.8767990646473
 31
0.0
  0
LINE
  5
1870
330
1E
100
AcDbEntity
  8
STEMPEL
  6
Continuous
100
AcDbLine
 10
229.7109459754264
 20
265.169037271869
 30
0.0
 11
229.7109459754264
 21
271.8767990646473
 31
0.0
  0
LINE
  5
1871
330
1E
100
AcDbEntity
  8
STEMPEL
  6
Continuous
100
AcDbLine
 10
234.0410729943485
 20
265.169037271869
 30
0.0
 11
234.0410729943485
 21
271.8767990646473
 31
0.0
  0
LINE
  5
1872
330
1E
100
AcDbEntity
  8
STEMPEL
  6
Continuous
100
AcDbLine
 10
214.9808189565042
 20
274.0581481394137
 30
0.0
 11
235.7808189565042
 21
274.0581481394137
 31
0.0
  0
LINE
  5
1873
330
1E
100
AcDbEntity
  8
HILF
  6
Continuous
100
AcDbLine
 10
214.7243038490099
 20
272.6033786738242
 30
0.0
 11
236.0373340639985
 21
272.6033786738242
 31
0.0
  0
LINE
  5
1874
330
1E
100
AcDbEntity
  8
HILF
  6
Continuous
100
AcDbLine
 10
230.3808189565042
 20
278.5581481394137
 30
0.0
 11
220.3808189565042
 21
278.5581481394137
 31
0.0
  0
ARC
  5
1875
330
1E
100
AcDbEntity
  8
STEMPEL
100
AcDbCircle
 10
225.3808189565042
 20
295.1690372718692
 30
0.0
 40
30.31088913245553
100
AcDbArc
 50
261.7867892982604
 51
278.2132107017396
  0
ARC
  5
1876
330
1E
100
AcDbEntity
  8
STEMPEL
100
AcDbCircle
 10
218.8856284281209
 20
272.5524538471983
 30
0.0
 40
7.694305707784582
100
AcDbArc
 50
253.6571066940171
 51
286.3428933059829
  0
ARC
  5
1877
330
1E
100
AcDbEntity
  8
STEMPEL
100
AcDbCircle
 10
231.8760094848875
 20
272.5524538471983
 30
0.0
 40
7.694305707784634
100
AcDbArc
 50
253.6571066940171
 51
286.3428933059829
  0
ARC
  5
1878
330
1E
100
AcDbEntity
  8
HILF
100
AcDbCircle
 10
231.8760094848875
 20
277.2156417303921
 30
0.0
 40
5.761140599705702
100
AcDbArc
 50
247.9259452633198
 51
292.0740547366802
  0
ARC
  5
1879
330
1E
100
AcDbEntity
  8
HILF
100
AcDbCircle
 10
225.3808189565042
 20
293.8656166285678
 30
0.0
 40
22.41111549788147
100
AcDbArc
 50
258.8596278389342
 51
281.1403721610658
  0
ARC
  5
187A
330
1E
100
AcDbEntity
  8
HILF
100
AcDbCircle
 10
218.8856284281209
 20
277.2156417303921
 30
0.0
 40
5.761140599705708
100
AcDbArc
 50
247.9259452633198
 51
292.0740547366802
  0
LINE
  5
187B
330
1E
100
AcDbEntity
  8
MITTEL
100
AcDbLine
 10
225.3808189565042
 20
259.8581481394137
 30
0.0
 11
225.3808189565042
 21
309.0581481394137
 31
0.0
  0
LINE
  5
187C
330
1E
100
AcDbEntity
  8
STEMPEL
100
AcDbLine
 10
220.3808189565042
 20
303.1381481394137
 30
0.0
 11
230.3808189565042
 21
303.1381481394137
 31
0.0
  0
LINE
  5
187D
330
1E
100
AcDbEntity
  8
STEMPEL
100
AcDbLine
 10
230.3808189565042
 20
303.1381481394137
 30
0.0
 11
229.4608189565042
 21
304.0581481394137
 31
0.0
  0
LINE
  5
187E
330
1E
100
AcDbEntity
  8
STEMPEL
100
AcDbLine
 10
229.4608189565042
 20
304.0581481394137
 30
0.0
 11
221.3008189565042
 21
304.0581481394137
 31
0.0
  0
LINE
  5
187F
330
1E
100
AcDbEntity
  8
STEMPEL
100
AcDbLine
 10
221.3008189565042
 20
304.0581481394137
 30
0.0
 11
220.3808189565042
 21
303.1381481394137
 31
0.0
  0
LINE
  5
1880
330
1E
100
AcDbEntity
  8
STEMPEL
100
AcDbLine
 10
220.3808189565042
 20
303.1381481394137
 30
0.0
 11
220.3808189565042
 21
296.0581481394141
 31
0.0
  0
LINE
  5
1881
330
1E
100
AcDbEntity
  8
STEMPEL
100
AcDbLine
 10
230.3808189565042
 20
303.1381481394137
 30
0.0
 11
230.3808189565042
 21
296.0581481394141
 31
0.0
  0
LINE
  5
1882
330
1E
100
AcDbEntity
  8
HILF
100
AcDbLine
 10
221.3008189565042
 20
304.0581481394137
 30
0.0
 11
221.3008189565042
 21
296.058148139414
 31
0.0
  0
LINE
  5
1883
330
1E
100
AcDbEntity
  8
HILF
100
AcDbLine
 10
229.4608189565042
 20
304.0581481394137
 30
0.0
 11
229.4608189565041
 21
296.058148139414
 31
0.0
  0
LINE
  5
1884
330
1E
100
AcDbEntity
  8
HILF
100
AcDbLine
 10
221.3008189565042
 20
278.5581481394137
 30
0.0
 11
220.9941522898375
 21
277.0581481394135
 31
0.0
  0
LINE
  5
1885
330
1E
100
AcDbEntity
  8
HILF
100
AcDbLine
 10
229.4608189565042
 20
278.5581481394137
 30
0.0
 11
229.767485623171
 21
277.0581481394135
 31
0.0
  0
ARC
  5
1886
330
1E
100
AcDbEntity
  8
STEMPEL
100
AcDbCircle
 10
235.5308189565042
 20
286.8081481394141
 30
0.0
 40
0.750000000000001
100
AcDbArc
 50
269.9999991462263
 51
70.00000000000063
  0
ARC
  5
1887
330
1E
100
AcDbEntity
  8
STEMPEL
100
AcDbCircle
 10
215.2308189565042
 20
286.8081481394141
 30
0.0
 40
0.7500000000000013
100
AcDbArc
 50
109.9999999999994
 51
269.9999991462263
  0
LINE
  5
1888
330
1E
100
AcDbEntity
  8
STEMPEL
100
AcDbLine
 10
216.7205649186598
 20
288.1485046556139
 30
0.0
 11
214.97430384901
 21
287.5129176050035
 31
0.0
  0
LINE
  5
1889
330
1E
100
AcDbEntity
  8
STEMPEL
100
AcDbLine
 10
235.7873340639985
 20
287.5129176050035
 30
0.0
 11
234.0410729943485
 21
288.1485046556139
 31
0.0
  0
LINE
  5
188A
330
1E
100
AcDbEntity
  8
STEMPEL
100
AcDbLine
 10
234.0410729943485
 20
295.7472590069587
 30
0.0
 11
232.8808189565042
 21
296.0581481394141
 31
0.0
  0
LINE
  5
188B
330
1E
100
AcDbEntity
  8
STEMPEL
100
AcDbLine
 10
217.8808189565042
 20
296.0581481394141
 30
0.0
 11
216.7205649186598
 21
295.7472590069587
 31
0.0
  0
LINE
  5
188C
330
1E
100
AcDbEntity
  8
STEMPEL
100
AcDbLine
 10
216.7205649186598
 20
288.1485046556139
 30
0.0
 11
216.7205649186598
 21
295.7472590069587
 31
0.0
  0
LINE
  5
188D
330
1E
100
AcDbEntity
  8
STEMPEL
100
AcDbLine
 10
235.5308189565042
 20
286.0581481394141
 30
0.0
 11
215.2308189565042
 21
286.0581481394141
 31
0.0
  0
LINE
  5
188E
330
1E
100
AcDbEntity
  8
HILF
100
AcDbLine
 10
235.7873340639985
 20
287.5129176050035
 30
0.0
 11
214.9743038490099
 21
287.5129176050035
 31
0.0
  0
LINE
  5
188F
330
1E
100
AcDbEntity
  8
STEMPEL
100
AcDbLine
 10
221.050691937582
 20
288.1485046556139
 30
0.0
 11
221.050691937582
 21
295.7472590069587
 31
0.0
  0
LINE
  5
1890
330
1E
100
AcDbEntity
  8
STEMPEL
100
AcDbLine
 10
229.7109459754264
 20
288.1485046556139
 30
0.0
 11
229.7109459754264
 21
295.7472590069587
 31
0.0
  0
LINE
  5
1891
330
1E
100
AcDbEntity
  8
STEMPEL
100
AcDbLine
 10
234.0410729943485
 20
288.1485046556139
 30
0.0
 11
234.0410729943485
 21
295.7472590069587
 31
0.0
  0
LINE
  5
1892
330
1E
100
AcDbEntity
  8
STEMPEL
100
AcDbLine
 10
217.8808189565042
 20
296.0581481394141
 30
0.0
 11
232.8808189565042
 21
296.0581481394141
 31
0.0
  0
POINT
  5
1893
330
1E
100
AcDbEntity
  8
0
100
AcDbPoint
 10
225.3808189565042
 20
286.0581481394141
 30
0.0
210
0.0000000000000001
220
1.0
230
0.0
  0
ARC
  5
1894
330
1E
100
AcDbEntity
  8
HILF
100
AcDbCircle
 10
218.8856284281209
 20
282.8096619898844
 30
0.0
 40
5.761140599691502
100
AcDbArc
 50
67.92594526326071
 51
112.0740547367393
  0
ARC
  5
1895
330
1E
100
AcDbEntity
  8
HILF
100
AcDbCircle
 10
231.8760094848875
 20
282.8096619898844
 30
0.0
 40
5.761140599691502
100
AcDbArc
 50
67.92594526326071
 51
112.0740547367393
  0
ARC
  5
1896
330
1E
100
AcDbEntity
  8
HILF
100
AcDbCircle
 10
225.3808189565042
 20
266.1596870917529
 30
0.0
 40
22.41111549782308
100
AcDbArc
 50
78.8596278389043
 51
101.1403721610957
  0
ARC
  5
1897
330
1E
100
AcDbEntity
  8
STEMPEL
100
AcDbCircle
 10
231.8760094848875
 20
288.3638424316296
 30
0.0
 40
7.694305707784447
100
AcDbArc
 50
73.65710669401348
 51
106.3428933059837
  0
ARC
  5
1898
330
1E
100
AcDbEntity
  8
STEMPEL
100
AcDbCircle
 10
218.8856284281209
 20
288.3638424316296
 30
0.0
 40
7.694305707784447
100
AcDbArc
 50
73.65710669401625
 51
106.3428933059865
  0
ARC
  5
1899
330
1E
100
AcDbEntity
  8
STEMPEL
100
AcDbCircle
 10
225.3808189565042
 20
265.7472590069592
 30
0.0
 40
30.31088913245485
100
AcDbArc
 50
81.78678929826041
 51
98.21321070173958
  0
LINE
  5
189A
330
1E
100
AcDbEntity
  8
HILF
100
AcDbLine
 10
221.3008189565042
 20
283.0581481394141
 30
0.0
 11
221.3008189565043
 21
280.3081481394139
 31
0.0
  0
LINE
  5
189B
330
1E
100
AcDbEntity
  8
STEMPEL
100
AcDbLine
 10
220.3808189565042
 20
283.0581481394141
 30
0.0
 11
220.3808189565042
 21
280.3081481394139
 31
0.0
  0
LINE
  5
189C
330
1E
100
AcDbEntity
  8
HILF
100
AcDbLine
 10
229.4608189565041
 20
283.0581481394141
 30
0.0
 11
229.4608189565041
 21
280.3081481394139
 31
0.0
  0
LINE
  5
189D
330
1E
100
AcDbEntity
  8
STEMPEL
100
AcDbLine
 10
230.3808189565042
 20
283.0581481394141
 30
0.0
 11
230.3808189565042
 21
280.3081481394139
 31
0.0
  0
LINE
  5
189E
330
1E
100
AcDbEntity
  8
HILF
100
AcDbLine
 10
212.8008189565042
 20
304.0581481394136
 30
0.0
 11
212.8008189565042
 21
296.058148139414
 31
0.0
  0
LINE
  5
189F
330
1E
100
AcDbEntity
  8
STEMPEL
100
AcDbLine
 10
211.8808189565042
 20
303.1381481394136
 30
0.0
 11
211.8808189565042
 21
296.0581481394141
 31
0.0
  0
LINE
  5
18A0
330
1E
100
AcDbEntity
  8
STEMPEL
100
AcDbLine
 10
212.8008189565042
 20
304.0581481394136
 30
0.0
 11
211.8808189565042
 21
303.1381481394136
 31
0.0
  0
LINE
  5
18A1
330
1E
100
AcDbEntity
  8
STEMPEL
100
AcDbLine
 10
220.9608189565042
 20
304.0581481394136
 30
0.0
 11
212.8008189565042
 21
304.0581481394136
 31
0.0
  0
LINE
  5
18A2
330
1E
100
AcDbEntity
  8
STEMPEL
100
AcDbLine
 10
211.8808189565042
 20
303.1381481394136
 30
0.0
 11
221.8808189565042
 21
303.1381481394136
 31
0.0
  0
ARC
  5
18A3
330
1E
100
AcDbEntity
  8
STEMPEL
100
AcDbCircle
 10
216.8808189565042
 20
265.7472590069592
 30
0.0
 40
30.31088913245485
100
AcDbArc
 50
88.21338886278226
 51
98.21321070173958
  0
ARC
  5
18A4
330
1E
100
AcDbEntity
  8
STEMPEL
100
AcDbCircle
 10
210.3856284281209
 20
288.3638424316296
 30
0.0
 40
7.694305707784447
100
AcDbArc
 50
73.65710669401625
 51
106.3428933059865
  0
LINE
  5
18A5
330
1E
100
AcDbEntity
  8
STEMPEL
100
AcDbLine
 10
209.3808189565042
 20
296.058148139414
 30
0.0
 11
217.8808189565039
 21
296.058148139414
 31
0.0
  0
LINE
  5
18A6
330
1E
100
AcDbEntity
  8
STEMPEL
100
AcDbLine
 10
212.550691937582
 20
288.1485046556139
 30
0.0
 11
212.550691937582
 21
295.7472590069587
 31
0.0
  0
LINE
  5
18A7
330
1E
100
AcDbEntity
  8
STEMPEL
100
AcDbLine
 10
208.2205649186598
 20
294.3099921331753
 30
0.0
 11
208.2205649186598
 21
295.7472590069587
 31
0.0
  0
LINE
  5
18A8
330
1E
100
AcDbEntity
  8
STEMPEL
100
AcDbLine
 10
209.3808189565042
 20
296.058148139414
 30
0.0
 11
208.2205649186598
 21
295.7472590069587
 31
0.0
  0
ARC
  5
18A9
330
1E
100
AcDbEntity
  8
HILF
100
AcDbCircle
 10
210.3856284281209
 20
282.8096619898844
 30
0.0
 40
5.761140599691502
100
AcDbArc
 50
67.92594526326071
 51
100.7842011382661
  0
POINT
  5
18AA
330
1E
100
AcDbEntity
  8
0
100
AcDbPoint
 10
216.8808189565042
 20
286.058148139414
 30
0.0
210
0.0000000000000001
220
1.0
230
0.0
  0
ARC
  5
18AB
330
1E
100
AcDbEntity
  8
HILF
100
AcDbCircle
 10
216.8808189565042
 20
266.1596870917528
 30
0.0
 40
22.41111549782308
100
AcDbArc
 50
90.40970554405287
 51
101.1403721610957
  0
LINE
  5
18AC
330
1E
100
AcDbEntity
  8
HILF
100
AcDbLine
 10
214.9743038490098
 20
287.5129176050034
 30
0.0
 11
209.4310132065218
 21
287.5129176050034
 31
0.0
  0
ARC
  5
18AD
330
1E
100
AcDbEntity
  8
HILF
100
AcDbCircle
 10
210.3856284281209
 20
277.2156417303921
 30
0.0
 40
5.761140599705708
100
AcDbArc
 50
259.092217530809
 51
292.0740547366802
  0
ARC
  5
18AE
330
1E
100
AcDbEntity
  8
HILF
100
AcDbCircle
 10
216.8808189565042
 20
293.8656166285678
 30
0.0
 40
22.41111549788147
100
AcDbArc
 50
258.8596278389342
 51
269.590294455948
  0
ARC
  5
18AF
330
1E
100
AcDbEntity
  8
STEMPEL
100
AcDbCircle
 10
210.3856284281209
 20
272.5524538471982
 30
0.0
 40
7.694305707784582
100
AcDbArc
 50
253.6571066940171
 51
286.3428933059829
  0
ARC
  5
18B0
330
1E
100
AcDbEntity
  8
STEMPEL
100
AcDbCircle
 10
216.8808189565042
 20
295.1690372718692
 30
0.0
 40
30.31088913245553
100
AcDbArc
 50
261.7867892982604
 51
271.7866111372194
  0
LINE
  5
18B1
330
1E
100
AcDbEntity
  8
HILF
  6
Continuous
100
AcDbLine
 10
209.4310132065218
 20
272.6033786738242
 30
0.0
 11
214.7243038490102
 21
272.6033786738242
 31
0.0
  0
LINE
  5
18B2
330
1E
100
AcDbEntity
  8
STEMPEL
  6
Continuous
100
AcDbLine
 10
212.550691937582
 20
265.169037271869
 30
0.0
 11
212.550691937582
 21
271.8767990646473
 31
0.0
  0
LINE
  5
18B3
330
1E
100
AcDbEntity
  8
STEMPEL
  6
Continuous
100
AcDbLine
 10
208.2205649186598
 20
265.169037271869
 30
0.0
 11
208.2205649186598
 21
265.8063041456523
 31
0.0
  0
LINE
  5
18B4
330
1E
100
AcDbEntity
  8
STEMPEL
  6
Continuous
100
AcDbLine
 10
209.3808189565042
 20
264.8581481394136
 30
0.0
 11
217.8808189565046
 21
264.8581481394136
 31
0.0
  0
LINE
  5
18B5
330
1E
100
AcDbEntity
  8
STEMPEL
  6
Continuous
100
AcDbLine
 10
208.2205649186598
 20
265.169037271869
 30
0.0
 11
209.3808189565042
 21
264.8581481394136
 31
0.0
  0
LINE
  5
18B6
330
1E
100
AcDbEntity
  8
STEMPEL
100
AcDbLine
 10
211.8808189565042
 20
283.0581481394141
 30
0.0
 11
211.8808189565042
 21
280.3081481394139
 31
0.0
  0
LINE
  5
18B7
330
1E
100
AcDbEntity
  8
HILF
100
AcDbLine
 10
212.8008189565042
 20
283.058148139414
 30
0.0
 11
212.8008189565043
 21
280.3081481394139
 31
0.0
  0
LINE
  5
18B8
330
1E
100
AcDbEntity
  8
HILF
100
AcDbLine
 10
212.8008189565042
 20
278.5581481394136
 30
0.0
 11
212.4941522898375
 21
277.0581481394135
 31
0.0
  0
LINE
  5
18B9
330
1E
100
AcDbEntity
  8
HILF
  6
Continuous
100
AcDbLine
 10
220.3808189565042
 20
278.5581481394136
 30
0.0
 11
211.8808189565042
 21
278.5581481394136
 31
0.0
  0
LINE
  5
18BA
330
1E
100
AcDbEntity
  8
MITTEL
100
AcDbLine
 10
216.8808189565042
 20
259.8581481394136
 30
0.0
 11
216.8808189565042
 21
309.0581481394136
 31
0.0
  0
LINE
  5
18BB
330
1E
100
AcDbEntity
  8
STEMPEL
100
AcDbLine
 10
221.1308189565041
 20
303.8881481394136
 30
0.0
 11
220.9608189565042
 21
304.0581481394136
 31
0.0
  0
LINE
  5
18BC
330
1E
100
AcDbEntity
  8
HILF
100
AcDbLine
 10
220.9608189565042
 20
304.0581481394136
 30
0.0
 11
220.9608189565042
 21
303.7181481394136
 31
0.0
  0
LINE
  5
18BD
330
1E
100
AcDbEntity
  8
HILF
100
AcDbLine
 10
74.8008189565042
 20
304.0581481394136
 30
0.0
 11
74.8008189565042
 21
303.7181481394136
 31
0.0
  0
LINE
  5
18BE
330
1E
100
AcDbEntity
  8
STEMPEL
100
AcDbLine
 10
74.63081895650424
 20
303.8881481394136
 30
0.0
 11
74.8008189565042
 21
304.0581481394136
 31
0.0
  0
LINE
  5
18BF
330
1E
100
AcDbEntity
  8
MITTEL
100
AcDbLine
 10
78.88081895650419
 20
259.8581481394136
 30
0.0
 11
78.88081895650419
 21
309.0581481394136
 31
0.0
  0
LINE
  5
18C0
330
1E
100
AcDbEntity
  8
HILF
  6
Continuous
100
AcDbLine
 10
75.38081895650418
 20
278.5581481394136
 30
0.0
 11
83.88081895650419
 21
278.5581481394136
 31
0.0
  0
LINE
  5
18C1
330
1E
100
AcDbEntity
  8
HILF
100
AcDbLine
 10
82.96081895650416
 20
278.5581481394136
 30
0.0
 11
83.2674856231709
 21
277.0581481394135
 31
0.0
  0
LINE
  5
18C2
330
1E
100
AcDbEntity
  8
HILF
100
AcDbLine
 10
82.96081895650416
 20
283.058148139414
 30
0.0
 11
82.96081895650416
 21
278.5581481394136
 31
0.0
  0
LINE
  5
18C3
330
1E
100
AcDbEntity
  8
STEMPEL
100
AcDbLine
 10
83.88081895650419
 20
283.0581481394141
 30
0.0
 11
83.88081895650413
 21
277.0581481394135
 31
0.0
  0
LINE
  5
18C4
330
1E
100
AcDbEntity
  8
STEMPEL
  6
Continuous
100
AcDbLine
 10
87.54107299434854
 20
265.169037271869
 30
0.0
 11
86.38081895650419
 21
264.8581481394136
 31
0.0
  0
LINE
  5
18C5
330
1E
100
AcDbEntity
  8
STEMPEL
  6
Continuous
100
AcDbLine
 10
86.38081895650419
 20
264.8581481394136
 30
0.0
 11
77.88081895650378
 21
264.8581481394136
 31
0.0
  0
LINE
  5
18C6
330
1E
100
AcDbEntity
  8
STEMPEL
  6
Continuous
100
AcDbLine
 10
87.54107299434854
 20
265.169037271869
 30
0.0
 11
87.54107299434854
 21
265.8063041456523
 31
0.0
  0
LINE
  5
18C7
330
1E
100
AcDbEntity
  8
STEMPEL
  6
Continuous
100
AcDbLine
 10
83.21094597542639
 20
265.169037271869
 30
0.0
 11
83.21094597542639
 21
271.8767990646473
 31
0.0
  0
LINE
  5
18C8
330
1E
100
AcDbEntity
  8
HILF
  6
Continuous
100
AcDbLine
 10
86.33062470648656
 20
272.6033786738242
 30
0.0
 11
81.03733406399816
 21
272.6033786738242
 31
0.0
  0
ARC
  5
18C9
330
1E
100
AcDbEntity
  8
STEMPEL
100
AcDbCircle
 10
78.88081895650419
 20
295.1690372718692
 30
0.0
 40
30.31088913245553
100
AcDbArc
 50
268.2133888627806
 51
278.2132107017396
  0
ARC
  5
18CA
330
1E
100
AcDbEntity
  8
STEMPEL
100
AcDbCircle
 10
85.3760094848875
 20
272.5524538471982
 30
0.0
 40
7.694305707784582
100
AcDbArc
 50
253.6571066940171
 51
286.3428933059829
  0
ARC
  5
18CB
330
1E
100
AcDbEntity
  8
HILF
100
AcDbCircle
 10
78.88081895650419
 20
293.8656166285678
 30
0.0
 40
22.41111549788147
100
AcDbArc
 50
270.409705544052
 51
281.1403721610658
  0
ARC
  5
18CC
330
1E
100
AcDbEntity
  8
HILF
100
AcDbCircle
 10
85.3760094848875
 20
277.2156417303921
 30
0.0
 40
5.761140599705708
100
AcDbArc
 50
247.9259452633198
 51
280.9077824691911
  0
LINE
  5
18CD
330
1E
100
AcDbEntity
  8
HILF
100
AcDbLine
 10
80.78733406399857
 20
287.5129176050034
 30
0.0
 11
86.33062470648656
 21
287.5129176050034
 31
0.0
  0
ARC
  5
18CE
330
1E
100
AcDbEntity
  8
HILF
100
AcDbCircle
 10
78.88081895650419
 20
266.1596870917528
 30
0.0
 40
22.41111549782308
100
AcDbArc
 50
78.8596278389043
 51
89.59029445594714
  0
POINT
  5
18CF
330
1E
100
AcDbEntity
  8
0
100
AcDbPoint
 10
78.88081895650419
 20
286.058148139414
 30
0.0
210
-0.0000000000000001
220
1.0
230
0.0
  0
ARC
  5
18D0
330
1E
100
AcDbEntity
  8
HILF
100
AcDbCircle
 10
85.37600948488744
 20
282.8096619898844
 30
0.0
 40
5.761140599691502
100
AcDbArc
 50
79.21579886173384
 51
112.0740547367393
  0
LINE
  5
18D1
330
1E
100
AcDbEntity
  8
STEMPEL
100
AcDbLine
 10
86.38081895650419
 20
296.058148139414
 30
0.0
 11
87.54107299434854
 21
295.7472590069587
 31
0.0
  0
LINE
  5
18D2
330
1E
100
AcDbEntity
  8
STEMPEL
100
AcDbLine
 10
87.54107299434854
 20
294.3099921331753
 30
0.0
 11
87.54107299434854
 21
295.7472590069587
 31
0.0
  0
LINE
  5
18D3
330
1E
100
AcDbEntity
  8
STEMPEL
100
AcDbLine
 10
83.21094597542639
 20
288.1485046556139
 30
0.0
 11
83.21094597542639
 21
295.7472590069587
 31
0.0
  0
LINE
  5
18D4
330
1E
100
AcDbEntity
  8
STEMPEL
100
AcDbLine
 10
86.38081895650419
 20
296.058148139414
 30
0.0
 11
77.88081895650447
 21
296.058148139414
 31
0.0
  0
ARC
  5
18D5
330
1E
100
AcDbEntity
  8
STEMPEL
100
AcDbCircle
 10
85.37600948488744
 20
288.3638424316296
 30
0.0
 40
7.694305707784447
100
AcDbArc
 50
73.65710669401348
 51
106.3428933059837
  0
ARC
  5
18D6
330
1E
100
AcDbEntity
  8
STEMPEL
100
AcDbCircle
 10
78.88081895650419
 20
265.7472590069592
 30
0.0
 40
30.31088913245485
100
AcDbArc
 50
81.78678929826041
 51
91.78661113721771
  0
LINE
  5
18D7
330
1E
100
AcDbEntity
  8
STEMPEL
100
AcDbLine
 10
83.88081895650419
 20
303.1381481394136
 30
0.0
 11
73.88081895650419
 21
303.1381481394136
 31
0.0
  0
LINE
  5
18D8
330
1E
100
AcDbEntity
  8
STEMPEL
100
AcDbLine
 10
74.8008189565042
 20
304.0581481394136
 30
0.0
 11
82.96081895650416
 21
304.0581481394136
 31
0.0
  0
LINE
  5
18D9
330
1E
100
AcDbEntity
  8
STEMPEL
100
AcDbLine
 10
82.96081895650416
 20
304.0581481394136
 30
0.0
 11
83.88081895650419
 21
303.1381481394136
 31
0.0
  0
LINE
  5
18DA
330
1E
100
AcDbEntity
  8
STEMPEL
100
AcDbLine
 10
83.88081895650419
 20
303.1381481394136
 30
0.0
 11
83.88081895650419
 21
296.0581481394141
 31
0.0
  0
LINE
  5
18DB
330
1E
100
AcDbEntity
  8
HILF
100
AcDbLine
 10
82.96081895650416
 20
304.0581481394136
 30
0.0
 11
82.96081895650416
 21
296.058148139414
 31
0.0
  0
LINE
  5
18DC
330
1E
100
AcDbEntity
  8
STEMPEL
100
AcDbLine
 10
65.38081895650418
 20
283.0581481394141
 30
0.0
 11
65.38081895650418
 21
277.0581481394135
 31
0.0
  0
LINE
  5
18DD
330
1E
100
AcDbEntity
  8
HILF
100
AcDbLine
 10
66.30081895650426
 20
283.0581481394141
 30
0.0
 11
66.3008189565042
 21
278.5581481394137
 31
0.0
  0
LINE
  5
18DE
330
1E
100
AcDbEntity
  8
STEMPEL
100
AcDbLine
 10
75.38081895650418
 20
283.0581481394141
 30
0.0
 11
75.38081895650413
 21
277.0581481394135
 31
0.0
  0
LINE
  5
18DF
330
1E
100
AcDbEntity
  8
HILF
100
AcDbLine
 10
74.46081895650417
 20
283.0581481394141
 30
0.0
 11
74.46081895650417
 21
278.5581481394137
 31
0.0
  0
ARC
  5
18E0
330
1E
100
AcDbEntity
  8
STEMPEL
100
AcDbCircle
 10
70.38081895650418
 20
265.7472590069592
 30
0.0
 40
30.31088913245485
100
AcDbArc
 50
81.78678929826041
 51
98.21321070173958
  0
ARC
  5
18E1
330
1E
100
AcDbEntity
  8
STEMPEL
100
AcDbCircle
 10
76.87600948488745
 20
288.3638424316296
 30
0.0
 40
7.694305707784447
100
AcDbArc
 50
73.65710669401348
 51
106.3428933059837
  0
ARC
  5
18E2
330
1E
100
AcDbEntity
  8
STEMPEL
100
AcDbCircle
 10
63.88562842812087
 20
288.3638424316296
 30
0.0
 40
7.694305707784447
100
AcDbArc
 50
73.65710669401625
 51
106.3428933059865
  0
ARC
  5
18E3
330
1E
100
AcDbEntity
  8
HILF
100
AcDbCircle
 10
70.38081895650418
 20
266.1596870917529
 30
0.0
 40
22.41111549782308
100
AcDbArc
 50
78.8596278389043
 51
101.1403721610957
  0
ARC
  5
18E4
330
1E
100
AcDbEntity
  8
HILF
100
AcDbCircle
 10
63.88562842812087
 20
282.8096619898844
 30
0.0
 40
5.761140599691502
100
AcDbArc
 50
67.92594526326071
 51
112.0740547367393
  0
ARC
  5
18E5
330
1E
100
AcDbEntity
  8
HILF
100
AcDbCircle
 10
76.87600948488745
 20
282.8096619898844
 30
0.0
 40
5.761140599691502
100
AcDbArc
 50
67.92594526326071
 51
112.0740547367393
  0
POINT
  5
18E6
330
1E
100
AcDbEntity
  8
0
100
AcDbPoint
 10
70.38081895650418
 20
286.0581481394141
 30
0.0
210
-0.0000000000000001
220
1.0
230
0.0
  0
LINE
  5
18E7
330
1E
100
AcDbEntity
  8
STEMPEL
100
AcDbLine
 10
77.88081895650418
 20
296.0581481394141
 30
0.0
 11
62.88081895650418
 21
296.0581481394141
 31
0.0
  0
LINE
  5
18E8
330
1E
100
AcDbEntity
  8
STEMPEL
100
AcDbLine
 10
61.72056491865982
 20
288.1485046556139
 30
0.0
 11
61.72056491865982
 21
295.7472590069587
 31
0.0
  0
LINE
  5
18E9
330
1E
100
AcDbEntity
  8
STEMPEL
100
AcDbLine
 10
66.05069193758197
 20
288.1485046556139
 30
0.0
 11
66.05069193758197
 21
295.7472590069587
 31
0.0
  0
LINE
  5
18EA
330
1E
100
AcDbEntity
  8
STEMPEL
100
AcDbLine
 10
74.7109459754264
 20
288.1485046556139
 30
0.0
 11
74.7109459754264
 21
295.7472590069587
 31
0.0
  0
LINE
  5
18EB
330
1E
100
AcDbEntity
  8
HILF
100
AcDbLine
 10
59.97430384900991
 20
287.5129176050035
 30
0.0
 11
80.78733406399846
 21
287.5129176050035
 31
0.0
  0
LINE
  5
18EC
330
1E
100
AcDbEntity
  8
STEMPEL
100
AcDbLine
 10
60.2308189565042
 20
286.0581481394141
 30
0.0
 11
80.53081895650416
 21
286.0581481394141
 31
0.0
  0
LINE
  5
18ED
330
1E
100
AcDbEntity
  8
STEMPEL
100
AcDbLine
 10
79.04107299434855
 20
288.1485046556139
 30
0.0
 11
79.04107299434855
 21
295.7472590069587
 31
0.0
  0
LINE
  5
18EE
330
1E
100
AcDbEntity
  8
STEMPEL
100
AcDbLine
 10
77.88081895650418
 20
296.0581481394141
 30
0.0
 11
79.04107299434855
 21
295.7472590069587
 31
0.0
  0
LINE
  5
18EF
330
1E
100
AcDbEntity
  8
STEMPEL
100
AcDbLine
 10
61.72056491865982
 20
295.7472590069587
 30
0.0
 11
62.88081895650418
 21
296.0581481394141
 31
0.0
  0
LINE
  5
18F0
330
1E
100
AcDbEntity
  8
STEMPEL
100
AcDbLine
 10
59.97430384900991
 20
287.5129176050035
 30
0.0
 11
61.72056491865982
 21
288.1485046556139
 31
0.0
  0
LINE
  5
18F1
330
1E
100
AcDbEntity
  8
STEMPEL
100
AcDbLine
 10
79.04107299434855
 20
288.1485046556139
 30
0.0
 11
80.78733406399839
 21
287.5129176050035
 31
0.0
  0
ARC
  5
18F2
330
1E
100
AcDbEntity
  8
STEMPEL
100
AcDbCircle
 10
80.53081895650416
 20
286.8081481394141
 30
0.0
 40
0.7500000000000013
100
AcDbArc
 50
270.0000008537736
 51
70.00000000000063
  0
ARC
  5
18F3
330
1E
100
AcDbEntity
  8
STEMPEL
100
AcDbCircle
 10
60.2308189565042
 20
286.8081481394141
 30
0.0
 40
0.750000000000001
100
AcDbArc
 50
109.9999999999994
 51
270.0000008537736
  0
LINE
  5
18F4
330
1E
100
AcDbEntity
  8
HILF
100
AcDbLine
 10
66.3008189565042
 20
278.5581481394137
 30
0.0
 11
65.99415228983741
 21
277.0581481394135
 31
0.0
  0
LINE
  5
18F5
330
1E
100
AcDbEntity
  8
HILF
100
AcDbLine
 10
74.46081895650417
 20
278.5581481394137
 30
0.0
 11
74.7674856231709
 21
277.0581481394135
 31
0.0
  0
LINE
  5
18F6
330
1E
100
AcDbEntity
  8
HILF
100
AcDbLine
 10
66.3008189565042
 20
304.0581481394137
 30
0.0
 11
66.30081895650426
 21
296.058148139414
 31
0.0
  0
LINE
  5
18F7
330
1E
100
AcDbEntity
  8
HILF
100
AcDbLine
 10
74.46081895650417
 20
304.0581481394137
 30
0.0
 11
74.46081895650417
 21
296.058148139414
 31
0.0
  0
LINE
  5
18F8
330
1E
100
AcDbEntity
  8
STEMPEL
100
AcDbLine
 10
65.38081895650418
 20
303.1381481394137
 30
0.0
 11
65.38081895650413
 21
296.0581481394141
 31
0.0
  0
LINE
  5
18F9
330
1E
100
AcDbEntity
  8
STEMPEL
100
AcDbLine
 10
75.38081895650418
 20
303.1381481394137
 30
0.0
 11
75.38081895650418
 21
296.0581481394141
 31
0.0
  0
LINE
  5
18FA
330
1E
100
AcDbEntity
  8
STEMPEL
100
AcDbLine
 10
74.46081895650417
 20
304.0581481394137
 30
0.0
 11
75.38081895650418
 21
303.1381481394137
 31
0.0
  0
LINE
  5
18FB
330
1E
100
AcDbEntity
  8
STEMPEL
100
AcDbLine
 10
66.3008189565042
 20
304.0581481394137
 30
0.0
 11
74.46081895650417
 21
304.0581481394137
 31
0.0
  0
LINE
  5
18FC
330
1E
100
AcDbEntity
  8
STEMPEL
100
AcDbLine
 10
65.38081895650418
 20
303.1381481394137
 30
0.0
 11
66.3008189565042
 21
304.0581481394137
 31
0.0
  0
LINE
  5
18FD
330
1E
100
AcDbEntity
  8
STEMPEL
100
AcDbLine
 10
75.38081895650418
 20
303.1381481394137
 30
0.0
 11
65.38081895650418
 21
303.1381481394137
 31
0.0
  0
LINE
  5
18FE
330
1E
100
AcDbEntity
  8
MITTEL
100
AcDbLine
 10
70.38081895650418
 20
259.8581481394137
 30
0.0
 11
70.38081895650418
 21
309.0581481394137
 31
0.0
  0
ARC
  5
18FF
330
1E
100
AcDbEntity
  8
HILF
100
AcDbCircle
 10
76.8760094848875
 20
277.2156417303921
 30
0.0
 40
5.761140599705708
100
AcDbArc
 50
247.9259452633198
 51
292.0740547366802
  0
ARC
  5
1900
330
1E
100
AcDbEntity
  8
HILF
100
AcDbCircle
 10
70.38081895650418
 20
293.8656166285678
 30
0.0
 40
22.41111549788147
100
AcDbArc
 50
258.8596278389342
 51
281.1403721610658
  0
ARC
  5
1901
330
1E
100
AcDbEntity
  8
HILF
100
AcDbCircle
 10
63.88562842812092
 20
277.2156417303921
 30
0.0
 40
5.761140599705702
100
AcDbArc
 50
247.9259452633198
 51
292.0740547366802
  0
ARC
  5
1902
330
1E
100
AcDbEntity
  8
STEMPEL
100
AcDbCircle
 10
63.88562842812092
 20
272.5524538471983
 30
0.0
 40
7.694305707784634
100
AcDbArc
 50
253.6571066940171
 51
286.3428933059829
  0
ARC
  5
1903
330
1E
100
AcDbEntity
  8
STEMPEL
100
AcDbCircle
 10
76.8760094848875
 20
272.5524538471983
 30
0.0
 40
7.694305707784582
100
AcDbArc
 50
253.6571066940171
 51
286.3428933059829
  0
ARC
  5
1904
330
1E
100
AcDbEntity
  8
STEMPEL
100
AcDbCircle
 10
70.38081895650418
 20
295.1690372718692
 30
0.0
 40
30.31088913245553
100
AcDbArc
 50
261.7867892982604
 51
278.2132107017396
  0
LINE
  5
1905
330
1E
100
AcDbEntity
  8
HILF
  6
Continuous
100
AcDbLine
 10
65.38081895650418
 20
278.5581481394137
 30
0.0
 11
75.38081895650418
 21
278.5581481394137
 31
0.0
  0
LINE
  5
1906
330
1E
100
AcDbEntity
  8
HILF
  6
Continuous
100
AcDbLine
 10
81.03733406399845
 20
272.6033786738242
 30
0.0
 11
59.72430384900992
 21
272.6033786738242
 31
0.0
  0
LINE
  5
1907
330
1E
100
AcDbEntity
  8
STEMPEL
  6
Continuous
100
AcDbLine
 10
80.78081895650417
 20
274.0581481394137
 30
0.0
 11
59.98081895650421
 21
274.0581481394137
 31
0.0
  0
LINE
  5
1908
330
1E
100
AcDbEntity
  8
STEMPEL
  6
Continuous
100
AcDbLine
 10
61.72056491865982
 20
265.169037271869
 30
0.0
 11
61.72056491865982
 21
271.8767990646473
 31
0.0
  0
LINE
  5
1909
330
1E
100
AcDbEntity
  8
STEMPEL
  6
Continuous
100
AcDbLine
 10
66.05069193758197
 20
265.169037271869
 30
0.0
 11
66.05069193758197
 21
271.8767990646473
 31
0.0
  0
LINE
  5
190A
330
1E
100
AcDbEntity
  8
STEMPEL
  6
Continuous
100
AcDbLine
 10
74.7109459754264
 20
265.169037271869
 30
0.0
 11
74.7109459754264
 21
271.8767990646473
 31
0.0
  0
LINE
  5
190B
330
1E
100
AcDbEntity
  8
STEMPEL
  6
Continuous
100
AcDbLine
 10
79.04107299434855
 20
265.169037271869
 30
0.0
 11
79.04107299434855
 21
271.8767990646473
 31
0.0
  0
LINE
  5
190C
330
1E
100
AcDbEntity
  8
STEMPEL
  6
Continuous
100
AcDbLine
 10
77.88081895650418
 20
264.8581481394137
 30
0.0
 11
62.88081895650418
 21
264.8581481394137
 31
0.0
  0
LINE
  5
190D
330
1E
100
AcDbEntity
  8
STEMPEL
  6
Continuous
100
AcDbLine
 10
61.72056491865982
 20
271.8767990646473
 30
0.0
 11
59.72430384900992
 21
272.6033786738242
 31
0.0
  0
LINE
  5
190E
330
1E
100
AcDbEntity
  8
STEMPEL
  6
Continuous
100
AcDbLine
 10
81.03733406399845
 20
272.6033786738242
 30
0.0
 11
79.04107299434855
 21
271.8767990646473
 31
0.0
  0
ARC
  5
190F
330
1E
100
AcDbEntity
  8
STEMPEL
  6
Continuous
100
AcDbCircle
 10
80.78081895650417
 20
273.3081481394137
 30
0.0
 40
0.7500000000000006
100
AcDbArc
 50
290.0
 51
90.0
  0
ARC
  5
1910
330
1E
100
AcDbEntity
  8
STEMPEL
  6
Continuous
100
AcDbCircle
 10
59.98081895650421
 20
273.3081481394137
 30
0.0
 40
0.7499999999999995
100
AcDbArc
 50
90.0
 51
249.9999999999999
  0
LINE
  5
1911
330
1E
100
AcDbEntity
  8
STEMPEL
  6
Continuous
100
AcDbLine
 10
62.88081895650418
 20
264.8581481394137
 30
0.0
 11
61.72056491865982
 21
265.169037271869
 31
0.0
  0
LINE
  5
1912
330
1E
100
AcDbEntity
  8
STEMPEL
  6
Continuous
100
AcDbLine
 10
79.04107299434855
 20
265.169037271869
 30
0.0
 11
77.88081895650418
 21
264.8581481394137
 31
0.0
  0
LINE
  5
1913
330
1E
100
AcDbEntity
  8
STEMPEL
100
AcDbLine
 10
55.38081895650418
 20
277.0581481394135
 30
0.0
 11
93.26626045787667
 21
277.0581481394135
 31
0.0
  0
LINE
  5
1914
330
1E
100
AcDbEntity
  8
STEMPEL
100
AcDbLine
 10
55.38081895650418
 20
274.0581481394136
 30
0.0
 11
88.35813261327325
 21
274.0581481394137
 31
0.0
  0
LINE
  5
1915
330
1E
100
AcDbEntity
  8
STEMPEL
100
AcDbLine
 10
55.38081895650418
 20
274.0581481394136
 30
0.0
 11
55.38081895650418
 21
277.0581481394135
 31
0.0
  0
ARC
  5
1916
330
1E
100
AcDbEntity
  8
STEMPEL
100
AcDbCircle
 10
85.71973788482399
 20
273.5581481394136
 30
0.0
 40
0.5
100
AcDbArc
 50
5.969555350215825
 51
90.0
  0
ARC
  5
1917
330
1E
100
AcDbEntity
  8
STEMPEL
100
AcDbCircle
 10
88.52568969510162
 20
274.0581481394136
 30
0.0
 40
3.0
100
AcDbArc
 50
5.772219820420336
 51
90.0
  0
ARC
  5
1918
330
1E
100
AcDbEntity
  8
STEMPEL
100
AcDbCircle
 10
88.35813261327315
 20
273.5581481394137
 30
0.0
 40
0.5
100
AcDbArc
 50
6.232122601072155
 51
89.99999999998697
  0
ARC
  5
1919
330
1E
100
AcDbEntity
  8
STEMPEL
100
AcDbCircle
 10
88.35813261327315
 20
286.558148139414
 30
0.0
 40
0.5
100
AcDbArc
 50
270.000000000013
 51
353.7678773989278
  0
ARC
  5
191A
330
1E
100
AcDbEntity
  8
STEMPEL
100
AcDbCircle
 10
88.52568969510162
 20
286.0581481394141
 30
0.0
 40
3.0
100
AcDbArc
 50
270.0
 51
354.2277801795797
  0
ARC
  5
191B
330
1E
100
AcDbEntity
  8
STEMPEL
100
AcDbCircle
 10
85.71973788482399
 20
286.5581481394141
 30
0.0
 40
0.5
100
AcDbArc
 50
270.0
 51
354.0304446497842
  0
LINE
  5
191C
330
1E
100
AcDbEntity
  8
STEMPEL
100
AcDbLine
 10
55.38081895650418
 20
286.0581481394141
 30
0.0
 11
55.38081895650418
 21
283.0581481394142
 31
0.0
  0
LINE
  5
191D
330
1E
100
AcDbEntity
  8
STEMPEL
100
AcDbLine
 10
55.38081895650418
 20
286.0581481394141
 30
0.0
 11
88.35813261327325
 21
286.058148139414
 31
0.0
  0
LINE
  5
191E
330
1E
100
AcDbEntity
  8
STEMPEL
100
AcDbLine
 10
55.38081895650418
 20
283.0581481394142
 30
0.0
 11
93.26626045787667
 21
283.0581481394141
 31
0.0
  0
LWPOLYLINE
  5
191F
330
1E
100
AcDbEntity
  8
STEMPEL
100
AcDbPolyline
 90
        6
 70
     1
 43
0.0
 10
234.0410729943486
 20
474.9574178207013
 10
229.7109459754264
 20
482.4574178207013
 10
221.050691937582
 20
482.4574178207013
 10
216.7205649186598
 20
474.9574178207013
 10
221.050691937582
 20
467.4574178207013
 10
229.7109459754264
 20
467.4574178207013
  0
LINE
  5
1920
330
1E
100
AcDbEntity
  8
MITTEL
100
AcDbLine
 10
225.3808189565042
 20
458.8074178207014
 30
0.0
 11
225.3808189565042
 21
491.1074178207013
 31
0.0
  0
LINE
  5
1921
330
1E
100
AcDbEntity
  8
MITTEL
100
AcDbLine
 10
209.2308189565041
 20
474.9574178207013
 30
0.0
 11
241.5308189565042
 21
474.9574178207013
 31
0.0
  0
CIRCLE
  5
1922
330
1E
100
AcDbEntity
  8
STEMPEL
  6
Continuous
100
AcDbCircle
 10
225.3808189565042
 20
474.9574178207013
 30
0.0
 40
11.15
  0
CIRCLE
  5
1923
330
1E
100
AcDbEntity
  8
HILF
100
AcDbCircle
 10
225.3808189565042
 20
474.9574178207013
 30
0.0
 40
9.800000000000002
  0
CIRCLE
  5
1924
330
1E
100
AcDbEntity
  8
STEMPEL
 62
     3
100
AcDbCircle
 10
225.3808189565043
 20
474.9574178207013
 30
0.0
 40
7.500000000000013
  0
LWPOLYLINE
  5
1925
330
1E
100
AcDbEntity
  8
STEMPEL
100
AcDbPolyline
 90
        6
 70
     1
 43
0.0
 10
225.5410729943485
 20
434.9574178207014
 10
221.2109459754263
 20
442.4574178207014
 10
212.5506919375819
 20
442.4574178207013
 10
208.2205649186597
 20
434.9574178207013
 10
212.5506919375819
 20
427.4574178207013
 10
221.2109459754263
 20
427.4574178207013
  0
LINE
  5
1926
330
1E
100
AcDbEntity
  8
MITTEL
100
AcDbLine
 10
216.8808189565041
 20
418.8074178207013
 30
0.0
 11
216.8808189565041
 21
451.1074178207014
 31
0.0
  0
LINE
  5
1927
330
1E
100
AcDbEntity
  8
MITTEL
100
AcDbLine
 10
200.730818956504
 20
434.9574178207014
 30
0.0
 11
233.0308189565041
 21
434.9574178207014
 31
0.0
  0
CIRCLE
  5
1928
330
1E
100
AcDbEntity
  8
STEMPEL
  6
Continuous
100
AcDbCircle
 10
216.8808189565041
 20
434.9574178207014
 30
0.0
 40
11.15
  0
CIRCLE
  5
1929
330
1E
100
AcDbEntity
  8
HILF
100
AcDbCircle
 10
216.8808189565041
 20
434.9574178207014
 30
0.0
 40
9.800000000000002
  0
CIRCLE
  5
192A
330
1E
100
AcDbEntity
  8
STEMPEL
 62
     3
100
AcDbCircle
 10
216.8808189565041
 20
434.9574178207014
 30
0.0
 40
7.500000000000013
  0
LWPOLYLINE
  5
192B
330
1E
100
AcDbEntity
  8
STEMPEL
100
AcDbPolyline
 90
        6
 70
     1
 43
0.0
 10
79.04107299434861
 20
474.9574178207013
 10
74.7109459754264
 20
482.4574178207013
 10
66.05069193758203
 20
482.4574178207013
 10
61.72056491865982
 20
474.9574178207013
 10
66.05069193758203
 20
467.4574178207013
 10
74.7109459754264
 20
467.4574178207013
  0
LINE
  5
192C
330
1E
100
AcDbEntity
  8
MITTEL
100
AcDbLine
 10
70.38081895650418
 20
458.8074178207014
 30
0.0
 11
70.38081895650418
 21
491.1074178207013
 31
0.0
  0
LINE
  5
192D
330
1E
100
AcDbEntity
  8
MITTEL
100
AcDbLine
 10
54.23081895650415
 20
474.9574178207013
 30
0.0
 11
86.53081895650416
 21
474.9574178207013
 31
0.0
  0
CIRCLE
  5
192E
330
1E
100
AcDbEntity
  8
STEMPEL
  6
Continuous
100
AcDbCircle
 10
70.38081895650418
 20
474.9574178207013
 30
0.0
 40
11.15
  0
CIRCLE
  5
192F
330
1E
100
AcDbEntity
  8
HILF
100
AcDbCircle
 10
70.38081895650418
 20
474.9574178207013
 30
0.0
 40
9.800000000000002
  0
CIRCLE
  5
1930
330
1E
100
AcDbEntity
  8
STEMPEL
 62
     3
100
AcDbCircle
 10
70.38081895650424
 20
474.9574178207013
 30
0.0
 40
7.500000000000013
  0
LWPOLYLINE
  5
1931
330
1E
100
AcDbEntity
  8
STEMPEL
100
AcDbPolyline
 90
        6
 70
     1
 43
0.0
 10
87.54107299434862
 20
434.9574178207014
 10
83.21094597542639
 20
442.4574178207014
 10
74.55069193758203
 20
442.4574178207013
 10
70.22056491865981
 20
434.9574178207013
 10
74.55069193758203
 20
427.4574178207013
 10
83.21094597542639
 20
427.4574178207013
  0
LINE
  5
1932
330
1E
100
AcDbEntity
  8
MITTEL
100
AcDbLine
 10
78.88081895650419
 20
418.8074178207013
 30
0.0
 11
78.88081895650419
 21
451.1074178207014
 31
0.0
  0
LINE
  5
1933
330
1E
100
AcDbEntity
  8
MITTEL
100
AcDbLine
 10
62.73081895650415
 20
434.9574178207014
 30
0.0
 11
95.03081895650415
 21
434.9574178207014
 31
0.0
  0
CIRCLE
  5
1934
330
1E
100
AcDbEntity
  8
STEMPEL
  6
Continuous
100
AcDbCircle
 10
78.88081895650419
 20
434.9574178207014
 30
0.0
 40
11.15
  0
CIRCLE
  5
1935
330
1E
100
AcDbEntity
  8
HILF
100
AcDbCircle
 10
78.88081895650419
 20
434.9574178207014
 30
0.0
 40
9.800000000000002
  0
CIRCLE
  5
1936
330
1E
100
AcDbEntity
  8
STEMPEL
 62
     3
100
AcDbCircle
 10
78.88081895650424
 20
434.9574178207014
 30
0.0
 40
7.500000000000013
  0
LINE
  5
1937
330
1E
100
AcDbEntity
  8
STEMPEL
100
AcDbLine
 10
385.9839638126792
 20
495.9574178207015
 30
0.0
 11
329.6074225839589
 21
495.9574178207015
 31
0.0
  0
LINE
  5
1938
330
1E
100
AcDbEntity
  8
STEMPEL
100
AcDbLine
 10
329.6074225839589
 20
495.9574178207015
 30
0.0
 11
329.6074225839588
 21
414.9574178207013
 31
0.0
  0
LINE
  5
1939
330
1E
100
AcDbEntity
  8
STEMPEL
100
AcDbLine
 10
329.6074225839588
 20
414.9574178207013
 30
0.0
 11
380.6074225839591
 21
414.9574178207014
 31
0.0
  0
LINE
  5
193A
330
1E
100
AcDbEntity
  8
STEMPEL
100
AcDbLine
 10
332.6074225839589
 20
495.9574178207015
 30
0.0
 11
332.6074225839588
 21
414.9574178207013
 31
0.0
  0
LINE
  5
193B
330
1E
100
AcDbEntity
  8
HILF
100
AcDbLine
 10
388.4865607108776
 20
490.3156271839062
 30
0.0
 11
332.6074225839589
 21
490.3156271839062
 31
0.0
  0
LINE
  5
193C
330
1E
100
AcDbEntity
  8
STEMPEL
100
AcDbLine
 10
320.6074225839589
 20
495.9574178207015
 30
0.0
 11
320.607422583959
 21
414.9574178207013
 31
0.0
  0
LINE
  5
193D
330
1E
100
AcDbEntity
  8
STEMPEL
100
AcDbLine
 10
323.607422583959
 20
414.9574178207013
 30
0.0
 11
272.6074225839588
 21
414.9574178207014
 31
0.0
  0
LINE
  5
193E
330
1E
100
AcDbEntity
  8
STEMPEL
100
AcDbLine
 10
323.6074225839589
 20
495.9574178207015
 30
0.0
 11
323.607422583959
 21
414.9574178207013
 31
0.0
  0
LINE
  5
193F
330
1E
100
AcDbEntity
  8
STEMPEL
100
AcDbLine
 10
267.2308813552386
 20
495.9574178207015
 30
0.0
 11
323.6074225839589
 21
495.9574178207015
 31
0.0
  0
ARC
  5
1940
330
1E
100
AcDbEntity
  8
STEMPEL
  6
Continuous
100
AcDbCircle
 10
333.3574225839588
 20
485.3574178207013
 30
0.0
 40
0.7499999999999995
100
AcDbArc
 50
20.00000000000004
 51
180.0
  0
ARC
  5
1941
330
1E
100
AcDbEntity
  8
STEMPEL
  6
Continuous
100
AcDbCircle
 10
333.3574225839588
 20
464.5574178207014
 30
0.0
 40
0.7500000000000006
100
AcDbArc
 50
180.0
 51
339.9999999999999
  0
LINE
  5
1942
330
1E
100
AcDbEntity
  8
STEMPEL
  6
Continuous
100
AcDbLine
 10
334.0621920495483
 20
464.300902713207
 30
0.0
 11
335.2110695926878
 21
467.4574178207014
 31
0.0
  0
LINE
  5
1943
330
1E
100
AcDbEntity
  8
STEMPEL
  6
Continuous
100
AcDbLine
 10
335.2110695926878
 20
482.4574178207013
 30
0.0
 11
334.0621920495483
 21
485.6139329281957
 31
0.0
  0
LINE
  5
1944
330
1E
100
AcDbEntity
  8
STEMPEL
  6
Continuous
100
AcDbLine
 10
341.8074225839589
 20
467.4574178207014
 30
0.0
 11
341.8074225839589
 21
482.4574178207013
 31
0.0
  0
LINE
  5
1945
330
1E
100
AcDbEntity
  8
STEMPEL
  6
Continuous
100
AcDbLine
 10
332.6074225839589
 20
464.5574178207014
 30
0.0
 11
332.6074225839589
 21
485.3574178207013
 31
0.0
  0
LINE
  5
1946
330
1E
100
AcDbEntity
  8
HILF
  6
Continuous
100
AcDbLine
 10
334.0621920495483
 20
464.300902713207
 30
0.0
 11
334.0621920495483
 21
485.6139329281957
 31
0.0
  0
LINE
  5
1947
330
1E
100
AcDbEntity
  8
HILF
  6
Continuous
100
AcDbLine
 10
328.1074225839589
 20
479.9574178207014
 30
0.0
 11
328.1074225839589
 21
469.9574178207013
 31
0.0
  0
LINE
  5
1948
330
1E
100
AcDbEntity
  8
MITTEL
100
AcDbLine
 10
346.8074225839588
 20
474.9574178207013
 30
0.0
 11
297.6074225839589
 21
474.9574178207013
 31
0.0
  0
LINE
  5
1949
330
1E
100
AcDbEntity
  8
STEMPEL
100
AcDbLine
 10
303.5274225839589
 20
469.9574178207013
 30
0.0
 11
303.5274225839589
 21
479.9574178207014
 31
0.0
  0
LINE
  5
194A
330
1E
100
AcDbEntity
  8
STEMPEL
100
AcDbLine
 10
303.5274225839589
 20
479.9574178207014
 30
0.0
 11
302.6074225839589
 21
479.0374178207013
 31
0.0
  0
LINE
  5
194B
330
1E
100
AcDbEntity
  8
STEMPEL
100
AcDbLine
 10
302.6074225839589
 20
479.0374178207013
 30
0.0
 11
302.6074225839589
 21
470.8774178207014
 31
0.0
  0
LINE
  5
194C
330
1E
100
AcDbEntity
  8
STEMPEL
100
AcDbLine
 10
302.6074225839589
 20
470.8774178207014
 30
0.0
 11
303.5274225839589
 21
469.9574178207013
 31
0.0
  0
LINE
  5
194D
330
1E
100
AcDbEntity
  8
STEMPEL
100
AcDbLine
 10
303.5274225839589
 20
469.9574178207013
 30
0.0
 11
310.607422583959
 21
469.9574178207013
 31
0.0
  0
LINE
  5
194E
330
1E
100
AcDbEntity
  8
STEMPEL
100
AcDbLine
 10
303.5274225839589
 20
479.9574178207014
 30
0.0
 11
310.607422583959
 21
479.9574178207014
 31
0.0
  0
LINE
  5
194F
330
1E
100
AcDbEntity
  8
HILF
100
AcDbLine
 10
302.6074225839589
 20
470.8774178207014
 30
0.0
 11
310.607422583959
 21
470.8774178207014
 31
0.0
  0
LINE
  5
1950
330
1E
100
AcDbEntity
  8
HILF
100
AcDbLine
 10
302.6074225839589
 20
479.0374178207013
 30
0.0
 11
310.607422583959
 21
479.0374178207014
 31
0.0
  0
LINE
  5
1951
330
1E
100
AcDbEntity
  8
HILF
100
AcDbLine
 10
328.1074225839589
 20
470.8774178207014
 30
0.0
 11
329.6074225839589
 21
470.5707511540348
 31
0.0
  0
LINE
  5
1952
330
1E
100
AcDbEntity
  8
HILF
100
AcDbLine
 10
328.1074225839589
 20
479.0374178207013
 30
0.0
 11
329.6074225839589
 21
479.344084487368
 31
0.0
  0
LINE
  5
1953
330
1E
100
AcDbEntity
  8
STEMPEL
100
AcDbLine
 10
341.8074225839589
 20
482.4574178207013
 30
0.0
 11
334.7887716587252
 21
482.4574178207013
 31
0.0
  0
LINE
  5
1954
330
1E
100
AcDbEntity
  8
STEMPEL
  6
Continuous
100
AcDbLine
 10
341.4965334515035
 20
474.9574178207013
 30
0.0
 11
334.7887716587252
 21
474.9574178207013
 31
0.0
  0
LINE
  5
1955
330
1E
100
AcDbEntity
  8
STEMPEL
100
AcDbLine
 10
341.8074225839589
 20
467.4574178207014
 30
0.0
 11
334.7887716587252
 21
467.4574178207014
 31
0.0
  0
ARC
  5
1956
330
1E
100
AcDbEntity
  8
STEMPEL
100
AcDbCircle
 10
319.0353945930603
 20
478.7074178207014
 30
0.0
 40
22.77202799089855
100
AcDbArc
 50
350.5216033605196
 51
9.478396639480399
  0
ARC
  5
1957
330
1E
100
AcDbEntity
  8
STEMPEL
100
AcDbCircle
 10
319.0353945930603
 20
471.2074178207013
 30
0.0
 40
22.77202799089855
100
AcDbArc
 50
350.5216033605196
 51
9.478396639480399
  0
ARC
  5
1958
330
1E
100
AcDbEntity
  8
STEMPEL
100
AcDbCircle
 10
318.3499457275299
 20
478.7074178207014
 30
0.0
 40
16.8611238651562
100
AcDbArc
 50
347.1496643135757
 51
12.85033568642427
  0
ARC
  5
1959
330
1E
100
AcDbEntity
  8
STEMPEL
100
AcDbCircle
 10
318.3499457275299
 20
471.2074178207013
 30
0.0
 40
16.8611238651562
100
AcDbArc
 50
347.1496643135757
 51
12.85033568642427
  0
ARC
  5
195A
330
1E
100
AcDbEntity
  8
STEMPEL
100
AcDbCircle
 10
318.3499457275299
 20
431.2074178207013
 30
0.0
 40
16.8611238651562
100
AcDbArc
 50
347.1496643135757
 51
12.85033568642427
  0
ARC
  5
195B
330
1E
100
AcDbEntity
  8
STEMPEL
100
AcDbCircle
 10
318.3499457275299
 20
438.7074178207013
 30
0.0
 40
16.8611238651562
100
AcDbArc
 50
347.1496643135757
 51
12.85033568642427
  0
ARC
  5
195C
330
1E
100
AcDbEntity
  8
STEMPEL
100
AcDbCircle
 10
319.0353945930603
 20
431.2074178207013
 30
0.0
 40
22.77202799089855
100
AcDbArc
 50
350.5216033605196
 51
9.478396639480399
  0
ARC
  5
195D
330
1E
100
AcDbEntity
  8
STEMPEL
100
AcDbCircle
 10
319.0353945930603
 20
438.7074178207013
 30
0.0
 40
22.77202799089855
100
AcDbArc
 50
350.5216033605196
 51
9.478396639480399
  0
LINE
  5
195E
330
1E
100
AcDbEntity
  8
STEMPEL
100
AcDbLine
 10
341.8074225839589
 20
427.4574178207013
 30
0.0
 11
334.7887716587252
 21
427.4574178207013
 31
0.0
  0
LINE
  5
195F
330
1E
100
AcDbEntity
  8
STEMPEL
  6
Continuous
100
AcDbLine
 10
341.4965334515035
 20
434.9574178207014
 30
0.0
 11
334.7887716587252
 21
434.9574178207014
 31
0.0
  0
LINE
  5
1960
330
1E
100
AcDbEntity
  8
STEMPEL
100
AcDbLine
 10
341.8074225839589
 20
442.4574178207014
 30
0.0
 11
334.7887716587252
 21
442.4574178207014
 31
0.0
  0
LINE
  5
1961
330
1E
100
AcDbEntity
  8
HILF
100
AcDbLine
 10
328.1074225839589
 20
439.0374178207014
 30
0.0
 11
329.6074225839589
 21
439.344084487368
 31
0.0
  0
LINE
  5
1962
330
1E
100
AcDbEntity
  8
HILF
100
AcDbLine
 10
328.1074225839589
 20
430.8774178207014
 30
0.0
 11
329.6074225839588
 21
430.5707511540347
 31
0.0
  0
LINE
  5
1963
330
1E
100
AcDbEntity
  8
HILF
100
AcDbLine
 10
302.6074225839589
 20
439.0374178207014
 30
0.0
 11
310.6074225839591
 21
439.0374178207014
 31
0.0
  0
LINE
  5
1964
330
1E
100
AcDbEntity
  8
HILF
100
AcDbLine
 10
302.6074225839589
 20
430.8774178207014
 30
0.0
 11
310.6074225839591
 21
430.8774178207014
 31
0.0
  0
LINE
  5
1965
330
1E
100
AcDbEntity
  8
STEMPEL
100
AcDbLine
 10
303.5274225839589
 20
439.9574178207013
 30
0.0
 11
310.607422583959
 21
439.9574178207013
 31
0.0
  0
LINE
  5
1966
330
1E
100
AcDbEntity
  8
STEMPEL
100
AcDbLine
 10
303.5274225839589
 20
429.9574178207014
 30
0.0
 11
310.607422583959
 21
429.9574178207012
 31
0.0
  0
LINE
  5
1967
330
1E
100
AcDbEntity
  8
STEMPEL
100
AcDbLine
 10
302.6074225839589
 20
430.8774178207014
 30
0.0
 11
303.5274225839589
 21
429.9574178207014
 31
0.0
  0
LINE
  5
1968
330
1E
100
AcDbEntity
  8
STEMPEL
100
AcDbLine
 10
302.6074225839589
 20
439.0374178207014
 30
0.0
 11
302.6074225839589
 21
430.8774178207014
 31
0.0
  0
LINE
  5
1969
330
1E
100
AcDbEntity
  8
STEMPEL
100
AcDbLine
 10
303.5274225839589
 20
439.9574178207013
 30
0.0
 11
302.6074225839589
 21
439.0374178207014
 31
0.0
  0
LINE
  5
196A
330
1E
100
AcDbEntity
  8
STEMPEL
100
AcDbLine
 10
303.5274225839589
 20
429.9574178207014
 30
0.0
 11
303.5274225839589
 21
439.9574178207013
 31
0.0
  0
LINE
  5
196B
330
1E
100
AcDbEntity
  8
MITTEL
100
AcDbLine
 10
346.8074225839588
 20
434.9574178207014
 30
0.0
 11
297.6074225839589
 21
434.9574178207014
 31
0.0
  0
LINE
  5
196C
330
1E
100
AcDbEntity
  8
HILF
  6
Continuous
100
AcDbLine
 10
328.1074225839589
 20
439.9574178207013
 30
0.0
 11
328.1074225839589
 21
429.9574178207014
 31
0.0
  0
LINE
  5
196D
330
1E
100
AcDbEntity
  8
HILF
  6
Continuous
100
AcDbLine
 10
334.0621920495483
 20
424.3009027132071
 30
0.0
 11
334.0621920495483
 21
445.6139329281956
 31
0.0
  0
LINE
  5
196E
330
1E
100
AcDbEntity
  8
STEMPEL
  6
Continuous
100
AcDbLine
 10
332.6074225839589
 20
424.5574178207013
 30
0.0
 11
332.6074225839589
 21
445.3574178207013
 31
0.0
  0
LINE
  5
196F
330
1E
100
AcDbEntity
  8
STEMPEL
  6
Continuous
100
AcDbLine
 10
341.8074225839589
 20
427.4574178207013
 30
0.0
 11
341.8074225839589
 21
442.4574178207014
 31
0.0
  0
LINE
  5
1970
330
1E
100
AcDbEntity
  8
STEMPEL
  6
Continuous
100
AcDbLine
 10
335.2110695926878
 20
442.4574178207014
 30
0.0
 11
334.0621920495483
 21
445.6139329281956
 31
0.0
  0
LINE
  5
1971
330
1E
100
AcDbEntity
  8
STEMPEL
  6
Continuous
100
AcDbLine
 10
334.0621920495483
 20
424.3009027132071
 30
0.0
 11
335.2110695926878
 21
427.4574178207013
 31
0.0
  0
ARC
  5
1972
330
1E
100
AcDbEntity
  8
STEMPEL
  6
Continuous
100
AcDbCircle
 10
333.3574225839588
 20
424.5574178207013
 30
0.0
 40
0.7500000000000006
100
AcDbArc
 50
180.0
 51
339.9999999999999
  0
ARC
  5
1973
330
1E
100
AcDbEntity
  8
STEMPEL
  6
Continuous
100
AcDbCircle
 10
333.3574225839588
 20
445.3574178207013
 30
0.0
 40
0.7499999999999995
100
AcDbArc
 50
20.00000000000004
 51
180.0
  0
ARC
  5
1974
330
1E
100
AcDbEntity
  8
STEMPEL
100
AcDbCircle
 10
319.857422583959
 20
445.1074178207013
 30
0.0
 40
0.750000000000001
100
AcDbArc
 50
359.9999991462263
 51
159.9999999999999
  0
ARC
  5
1975
330
1E
100
AcDbEntity
  8
STEMPEL
100
AcDbCircle
 10
319.857422583959
 20
424.8074178207014
 30
0.0
 40
0.7500000000000013
100
AcDbArc
 50
200.0
 51
359.9999991462263
  0
LINE
  5
1976
330
1E
100
AcDbEntity
  8
STEMPEL
100
AcDbLine
 10
318.0947681337967
 20
427.4574178207013
 30
0.0
 11
319.1526531183696
 21
424.5509027132071
 31
0.0
  0
LINE
  5
1977
330
1E
100
AcDbEntity
  8
STEMPEL
100
AcDbLine
 10
319.1526531183696
 20
445.3639329281956
 30
0.0
 11
318.0947681337967
 21
442.4574178207014
 31
0.0
  0
LINE
  5
1978
330
1E
100
AcDbEntity
  8
STEMPEL
100
AcDbLine
 10
320.607422583959
 20
445.1074178207013
 30
0.0
 11
320.607422583959
 21
424.8074178207014
 31
0.0
  0
LINE
  5
1979
330
1E
100
AcDbEntity
  8
STEMPEL
100
AcDbLine
 10
319.1526531183696
 20
445.3639329281956
 30
0.0
 11
319.1526531183696
 21
424.5509027132071
 31
0.0
  0
LINE
  5
197A
330
1E
100
AcDbEntity
  8
STEMPEL
100
AcDbLine
 10
310.607422583959
 20
427.4574178207014
 30
0.0
 11
310.607422583959
 21
442.4574178207014
 31
0.0
  0
POINT
  5
197B
330
1E
100
AcDbEntity
  8
0
100
AcDbPoint
 10
320.607422583959
 20
434.9574178207014
 30
0.0
210
-1.0
220
0.0000000000000001
230
0.0
  0
LINE
  5
197C
330
1E
100
AcDbEntity
  8
STEMPEL
100
AcDbLine
 10
318.5170660677592
 20
442.4574178207014
 30
0.0
 11
310.607422583959
 21
442.4574178207014
 31
0.0
  0
LINE
  5
197D
330
1E
100
AcDbEntity
  8
STEMPEL
100
AcDbLine
 10
318.5170660677592
 20
434.9574178207014
 30
0.0
 11
310.9183117164144
 21
434.9574178207014
 31
0.0
  0
LINE
  5
197E
330
1E
100
AcDbEntity
  8
STEMPEL
100
AcDbLine
 10
318.5170660677592
 20
427.4574178207013
 30
0.0
 11
310.607422583959
 21
427.4574178207013
 31
0.0
  0
LWPOLYLINE
  5
197F
330
1E
100
AcDbEntity
  8
HILF
100
AcDbPolyline
 90
       23
 70
     0
 43
0.0
 10
318.5170660677592
 20
427.4574178207013
 10
318.4683261108408
 20
427.695099171794
 10
318.3812594223489
 20
428.154571252433
 10
318.3071807094281
 20
428.5957274436166
 10
318.2747230163325
 20
428.810422399094
 10
318.2451883087406
 20
429.0216792284279
 10
318.194553782213
 20
429.435227376629
 10
318.1546995480913
 20
429.8389288466125
 10
318.1251818617186
 20
430.2351532323148
 10
318.1056781785865
 20
430.6261315106858
 10
318.0959782115321
 20
431.0139992871531
 10
318.0947681337972
 20
431.207417820701
 10
318.0959782115321
 20
431.4008363542488
 10
318.1056781785865
 20
431.7887041307161
 10
318.1251818617186
 20
432.1796824090871
 10
318.1546995480913
 20
432.5759067947894
 10
318.194553782213
 20
432.9796082647731
 10
318.2451883087406
 20
433.3931564129742
 10
318.2747230163325
 20
433.6044132423082
 10
318.3071807094281
 20
433.8191081977858
 10
318.3812594223489
 20
434.2602643889693
 10
318.4683261108408
 20
434.7197364696087
 10
318.5170660677592
 20
434.9574178207014
  0
LWPOLYLINE
  5
1980
330
1E
100
AcDbEntity
  8
HILF
100
AcDbPolyline
 90
       23
 70
     0
 43
0.0
 10
318.5170660677592
 20
434.9574178207014
 10
318.4683261108408
 20
435.195099171794
 10
318.3812594223489
 20
435.654571252433
 10
318.3071807094281
 20
436.0957274436166
 10
318.2747230163325
 20
436.310422399094
 10
318.2451883087406
 20
436.5216792284279
 10
318.194553782213
 20
436.935227376629
 10
318.1546995480913
 20
437.3389288466126
 10
318.1251818617186
 20
437.7351532323148
 10
318.1056781785865
 20
438.1261315106858
 10
318.0959782115321
 20
438.513999287153
 10
318.0947681337972
 20
438.707417820701
 10
318.0959782115321
 20
438.9008363542489
 10
318.1056781785865
 20
439.2887041307161
 10
318.1251818617186
 20
439.6796824090871
 10
318.1546995480913
 20
440.0759067947895
 10
318.194553782213
 20
440.4796082647731
 10
318.2451883087406
 20
440.8931564129742
 10
318.2747230163325
 20
441.1044132423082
 10
318.3071807094281
 20
441.3191081977857
 10
318.3812594223489
 20
441.7602643889694
 10
318.4683261108408
 20
442.2197364696087
 10
318.5170660677592
 20
442.4574178207014
  0
ARC
  5
1981
330
1E
100
AcDbEntity
  8
STEMPEL
100
AcDbCircle
 10
333.3794505748571
 20
431.2074178207013
 30
0.0
 40
22.77202799089803
100
AcDbArc
 50
170.5216033605196
 51
189.4783966394804
  0
ARC
  5
1982
330
1E
100
AcDbEntity
  8
STEMPEL
100
AcDbCircle
 10
333.3794505748571
 20
438.7074178207013
 30
0.0
 40
22.77202799089803
100
AcDbArc
 50
170.5216033605196
 51
189.4783966394804
  0
ARC
  5
1983
330
1E
100
AcDbEntity
  8
STEMPEL
100
AcDbCircle
 10
333.379450574857
 20
478.7074178207014
 30
0.0
 40
22.77202799089803
100
AcDbArc
 50
170.5216033605196
 51
189.4783966394804
  0
ARC
  5
1984
330
1E
100
AcDbEntity
  8
STEMPEL
100
AcDbCircle
 10
333.379450574857
 20
471.2074178207013
 30
0.0
 40
22.77202799089803
100
AcDbArc
 50
170.5216033605196
 51
189.4783966394804
  0
LWPOLYLINE
  5
1985
330
1E
100
AcDbEntity
  8
HILF
100
AcDbPolyline
 90
       23
 70
     0
 43
0.0
 10
318.5170660677591
 20
474.9574178207013
 10
318.4683261108408
 20
475.195099171794
 10
318.3812594223488
 20
475.6545712524331
 10
318.3071807094281
 20
476.0957274436165
 10
318.2747230163324
 20
476.310422399094
 10
318.2451883087405
 20
476.5216792284279
 10
318.194553782213
 20
476.935227376629
 10
318.1546995480912
 20
477.3389288466126
 10
318.1251818617186
 20
477.7351532323148
 10
318.1056781785865
 20
478.1261315106858
 10
318.0959782115321
 20
478.513999287153
 10
318.0947681337971
 20
478.7074178207009
 10
318.0959782115321
 20
478.9008363542489
 10
318.1056781785865
 20
479.2887041307161
 10
318.1251818617186
 20
479.6796824090871
 10
318.1546995480912
 20
480.0759067947894
 10
318.194553782213
 20
480.479608264773
 10
318.2451883087405
 20
480.8931564129743
 10
318.2747230163324
 20
481.1044132423083
 10
318.3071807094281
 20
481.3191081977858
 10
318.3812594223488
 20
481.7602643889694
 10
318.4683261108408
 20
482.2197364696086
 10
318.5170660677591
 20
482.4574178207013
  0
LWPOLYLINE
  5
1986
330
1E
100
AcDbEntity
  8
HILF
100
AcDbPolyline
 90
       23
 70
     0
 43
0.0
 10
318.5170660677591
 20
467.4574178207014
 10
318.4683261108408
 20
467.695099171794
 10
318.3812594223488
 20
468.154571252433
 10
318.3071807094281
 20
468.5957274436165
 10
318.2747230163324
 20
468.810422399094
 10
318.2451883087405
 20
469.0216792284279
 10
318.194553782213
 20
469.435227376629
 10
318.1546995480912
 20
469.8389288466126
 10
318.1251818617186
 20
470.2351532323148
 10
318.1056781785865
 20
470.6261315106858
 10
318.0959782115321
 20
471.013999287153
 10
318.0947681337971
 20
471.207417820701
 10
318.0959782115321
 20
471.4008363542489
 10
318.1056781785865
 20
471.7887041307161
 10
318.1251818617186
 20
472.1796824090871
 10
318.1546995480912
 20
472.5759067947895
 10
318.194553782213
 20
472.979608264773
 10
318.2451883087405
 20
473.3931564129743
 10
318.2747230163324
 20
473.6044132423082
 10
318.3071807094281
 20
473.8191081977857
 10
318.3812594223488
 20
474.2602643889694
 10
318.4683261108408
 20
474.7197364696086
 10
318.5170660677591
 20
474.9574178207013
  0
LINE
  5
1987
330
1E
100
AcDbEntity
  8
STEMPEL
100
AcDbLine
 10
318.5170660677591
 20
467.4574178207014
 30
0.0
 11
310.607422583959
 21
467.4574178207014
 31
0.0
  0
LINE
  5
1988
330
1E
100
AcDbEntity
  8
STEMPEL
100
AcDbLine
 10
318.5170660677591
 20
474.9574178207013
 30
0.0
 11
310.9183117164143
 21
474.9574178207013
 31
0.0
  0
LINE
  5
1989
330
1E
100
AcDbEntity
  8
STEMPEL
100
AcDbLine
 10
318.5170660677591
 20
482.4574178207013
 30
0.0
 11
310.607422583959
 21
482.4574178207013
 31
0.0
  0
POINT
  5
198A
330
1E
100
AcDbEntity
  8
0
100
AcDbPoint
 10
320.607422583959
 20
474.9574178207013
 30
0.0
210
-1.0
220
0.0000000000000001
230
0.0
  0
LINE
  5
198B
330
1E
100
AcDbEntity
  8
STEMPEL
100
AcDbLine
 10
310.607422583959
 20
467.4574178207014
 30
0.0
 11
310.607422583959
 21
482.4574178207013
 31
0.0
  0
LINE
  5
198C
330
1E
100
AcDbEntity
  8
STEMPEL
100
AcDbLine
 10
319.1526531183695
 20
485.3639329281956
 30
0.0
 11
319.1526531183695
 21
464.5509027132071
 31
0.0
  0
LINE
  5
198D
330
1E
100
AcDbEntity
  8
STEMPEL
100
AcDbLine
 10
320.607422583959
 20
485.1074178207013
 30
0.0
 11
320.607422583959
 21
464.8074178207013
 31
0.0
  0
LINE
  5
198E
330
1E
100
AcDbEntity
  8
STEMPEL
100
AcDbLine
 10
319.1526531183695
 20
485.3639329281956
 30
0.0
 11
318.0947681337966
 21
482.4574178207013
 31
0.0
  0
LINE
  5
198F
330
1E
100
AcDbEntity
  8
STEMPEL
100
AcDbLine
 10
318.0947681337966
 20
467.4574178207014
 30
0.0
 11
319.1526531183695
 21
464.5509027132071
 31
0.0
  0
ARC
  5
1990
330
1E
100
AcDbEntity
  8
STEMPEL
100
AcDbCircle
 10
319.8574225839589
 20
464.8074178207013
 30
0.0
 40
0.7500000000000013
100
AcDbArc
 50
200.0
 51
359.9999991462263
  0
ARC
  5
1991
330
1E
100
AcDbEntity
  8
STEMPEL
100
AcDbCircle
 10
319.8574225839589
 20
485.1074178207013
 30
0.0
 40
0.750000000000001
100
AcDbArc
 50
359.9999991462263
 51
159.9999999999999
  0
LINE
  5
1992
330
1E
100
AcDbEntity
  8
HILF
100
AcDbLine
 10
323.6074225839591
 20
439.0374178207014
 30
0.0
 11
326.357422583959
 21
439.0374178207013
 31
0.0
  0
LINE
  5
1993
330
1E
100
AcDbEntity
  8
STEMPEL
100
AcDbLine
 10
323.6074225839589
 20
439.9574178207013
 30
0.0
 11
326.357422583959
 21
439.9574178207014
 31
0.0
  0
LINE
  5
1994
330
1E
100
AcDbEntity
  8
HILF
100
AcDbLine
 10
323.6074225839591
 20
430.8774178207015
 30
0.0
 11
326.357422583959
 21
430.8774178207013
 31
0.0
  0
LINE
  5
1995
330
1E
100
AcDbEntity
  8
STEMPEL
100
AcDbLine
 10
323.607422583959
 20
429.9574178207013
 30
0.0
 11
326.357422583959
 21
429.9574178207014
 31
0.0
  0
LINE
  5
1996
330
1E
100
AcDbEntity
  8
STEMPEL
100
AcDbLine
 10
323.6074225839589
 20
479.9574178207014
 30
0.0
 11
326.357422583959
 21
479.9574178207014
 31
0.0
  0
LINE
  5
1997
330
1E
100
AcDbEntity
  8
HILF
100
AcDbLine
 10
323.607422583959
 20
479.0374178207014
 30
0.0
 11
326.3574225839589
 21
479.0374178207012
 31
0.0
  0
LINE
  5
1998
330
1E
100
AcDbEntity
  8
HILF
100
AcDbLine
 10
323.607422583959
 20
470.8774178207014
 30
0.0
 11
326.3574225839589
 21
470.8774178207012
 31
0.0
  0
LINE
  5
1999
330
1E
100
AcDbEntity
  8
STEMPEL
100
AcDbLine
 10
323.6074225839589
 20
469.9574178207013
 30
0.0
 11
326.357422583959
 21
469.9574178207013
 31
0.0
  0
ARC
  5
199A
330
1E
100
AcDbEntity
  8
STEMPEL
100
AcDbCircle
 10
202.4953774551316
 20
286.5581481394141
 30
0.0
 40
3.5
100
AcDbArc
 50
186.7871817351256
 51
270.0
  0
ARC
  5
199B
330
1E
100
AcDbEntity
  8
STEMPEL
100
AcDbCircle
 10
202.4953774551316
 20
273.5581481394135
 30
0.0
 40
3.5
100
AcDbArc
 50
90.0
 51
173.2128182648744
  0
ARC
  5
199C
330
1E
100
AcDbEntity
  8
STEMPEL
100
AcDbCircle
 10
93.26626045787675
 20
286.5581481394141
 30
0.0
 40
3.5
100
AcDbArc
 50
269.9999999999992
 51
353.212818264876
  0
ARC
  5
199D
330
1E
100
AcDbEntity
  8
STEMPEL
100
AcDbCircle
 10
93.26626045787675
 20
273.5581481394135
 30
0.0
 40
3.5
100
AcDbArc
 50
6.787181735125563
 51
90.00000000000081
  0
LINE
  5
199E
330
1E
100
AcDbEntity
  8
HILF
100
AcDbLine
 10
388.4865607108777
 20
462.0202083629464
 30
0.0
 11
332.6074225839587
 21
462.0202083629463
 31
0.0
  0
LINE
  5
199F
330
1E
100
AcDbEntity
  8
HILF
100
AcDbLine
 10
380.7733505341193
 20
444.8116025118218
 30
0.0
 11
334.3542164391548
 21
444.8116025118217
 31
0.0
  0
LINE
  5
19A0
330
1E
100
AcDbEntity
  8
STEMPEL
100
AcDbLine
 10
385.9839638126792
 20
495.9574178207015
 30
0.0
 11
388.1389615191422
 21
491.336010325509
 31
0.0
  0
LINE
  5
19A1
330
1E
100
AcDbEntity
  8
STEMPEL
100
AcDbLine
 10
388.6074225839589
 20
463.1129165300463
 30
0.0
 11
388.6074225839589
 21
489.2229190168056
 31
0.0
  0
LINE
  5
19A2
330
1E
100
AcDbEntity
  8
STEMPEL
100
AcDbLine
 10
388.1389615191421
 20
460.9998252213428
 30
0.0
 11
381.2632680747023
 21
446.2548530464401
 31
0.0
  0
LINE
  5
19A3
330
1E
100
AcDbEntity
  8
STEMPEL
100
AcDbLine
 10
380.6074225839591
 20
414.9574178207014
 30
0.0
 11
380.6074225839589
 21
443.296525214255
 31
0.0
  0
LINE
  5
19A4
330
1E
100
AcDbEntity
  8
HILF
100
AcDbLine
 10
272.4414946337983
 20
444.8116025118217
 30
0.0
 11
318.9516212873296
 21
444.8116025118217
 31
0.0
  0
LINE
  5
19A5
330
1E
100
AcDbEntity
  8
HILF
100
AcDbLine
 10
264.7282844570401
 20
462.0202083629464
 30
0.0
 11
320.6074225839591
 21
462.0202083629463
 31
0.0
  0
LINE
  5
19A6
330
1E
100
AcDbEntity
  8
HILF
100
AcDbLine
 10
264.7282844570402
 20
490.3156271839062
 30
0.0
 11
320.607422583959
 21
490.3156271839062
 31
0.0
  0
LINE
  5
19A7
330
1E
100
AcDbEntity
  8
STEMPEL
100
AcDbLine
 10
326.3574225839589
 20
426.2074178207013
 30
0.0
 11
326.8574225839589
 21
426.2074178207013
 31
0.0
  0
LINE
  5
19A8
330
1E
100
AcDbEntity
  8
STEMPEL
100
AcDbLine
 10
326.3574225839589
 20
443.7074178207013
 30
0.0
 11
326.8574225839589
 21
443.7074178207013
 31
0.0
  0
LINE
  5
19A9
330
1E
100
AcDbEntity
  8
STEMPEL
100
AcDbLine
 10
326.3574225839589
 20
443.7074178207013
 30
0.0
 11
326.3574225839589
 21
426.2074178207013
 31
0.0
  0
LINE
  5
19AA
330
1E
100
AcDbEntity
  8
STEMPEL
100
AcDbLine
 10
326.8574225839589
 20
443.7074178207013
 30
0.0
 11
326.8574225839589
 21
426.2074178207013
 31
0.0
  0
LINE
  5
19AB
330
1E
100
AcDbEntity
  8
STEMPEL
100
AcDbLine
 10
326.3574225839589
 20
466.2074178207014
 30
0.0
 11
326.8574225839589
 21
466.2074178207014
 31
0.0
  0
LINE
  5
19AC
330
1E
100
AcDbEntity
  8
STEMPEL
100
AcDbLine
 10
326.3574225839589
 20
483.7074178207013
 30
0.0
 11
326.8574225839589
 21
483.7074178207013
 31
0.0
  0
LINE
  5
19AD
330
1E
100
AcDbEntity
  8
STEMPEL
100
AcDbLine
 10
326.3574225839589
 20
483.7074178207013
 30
0.0
 11
326.3574225839589
 21
466.2074178207014
 31
0.0
  0
LINE
  5
19AE
330
1E
100
AcDbEntity
  8
STEMPEL
100
AcDbLine
 10
326.8574225839589
 20
483.7074178207013
 30
0.0
 11
326.8574225839589
 21
466.2074178207014
 31
0.0
  0
LINE
  5
19AF
330
1E
100
AcDbEntity
  8
STEMPEL
100
AcDbLine
 10
326.8574225839589
 20
479.9574178207014
 30
0.0
 11
329.6074225839589
 21
479.9574178207014
 31
0.0
  0
LINE
  5
19B0
330
1E
100
AcDbEntity
  8
HILF
100
AcDbLine
 10
326.8574225839588
 20
479.0374178207012
 30
0.0
 11
328.1074225839589
 21
479.0374178207013
 31
0.0
  0
LINE
  5
19B1
330
1E
100
AcDbEntity
  8
HILF
100
AcDbLine
 10
326.8574225839588
 20
470.8774178207012
 30
0.0
 11
328.1074225839589
 21
470.8774178207014
 31
0.0
  0
LINE
  5
19B2
330
1E
100
AcDbEntity
  8
STEMPEL
100
AcDbLine
 10
326.8574225839589
 20
469.9574178207013
 30
0.0
 11
329.6074225839589
 21
469.9574178207013
 31
0.0
  0
LINE
  5
19B3
330
1E
100
AcDbEntity
  8
STEMPEL
100
AcDbLine
 10
326.857422583959
 20
439.9574178207014
 30
0.0
 11
329.6074225839588
 21
439.9574178207014
 31
0.0
  0
LINE
  5
19B4
330
1E
100
AcDbEntity
  8
HILF
100
AcDbLine
 10
326.8574225839589
 20
439.0374178207013
 30
0.0
 11
328.1074225839589
 21
439.0374178207014
 31
0.0
  0
LINE
  5
19B5
330
1E
100
AcDbEntity
  8
HILF
100
AcDbLine
 10
326.8574225839589
 20
430.8774178207013
 30
0.0
 11
328.1074225839589
 21
430.8774178207014
 31
0.0
  0
LINE
  5
19B6
330
1E
100
AcDbEntity
  8
STEMPEL
100
AcDbLine
 10
326.857422583959
 20
429.9574178207015
 30
0.0
 11
329.6074225839588
 21
429.9574178207014
 31
0.0
  0
LINE
  5
19B7
330
1E
100
AcDbEntity
  8
STEMPEL
100
AcDbLine
 10
234.1308189565042
 20
279.8081481394139
 30
0.0
 11
234.1308189565042
 21
280.3081481394139
 31
0.0
  0
LINE
  5
19B8
330
1E
100
AcDbEntity
  8
STEMPEL
100
AcDbLine
 10
216.6308189565042
 20
279.8081481394139
 30
0.0
 11
216.6308189565042
 21
280.3081481394139
 31
0.0
  0
LINE
  5
19B9
330
1E
100
AcDbEntity
  8
STEMPEL
100
AcDbLine
 10
208.1308189565042
 20
279.8081481394139
 30
0.0
 11
234.1308189565042
 21
279.8081481394139
 31
0.0
  0
LINE
  5
19BA
330
1E
100
AcDbEntity
  8
STEMPEL
100
AcDbLine
 10
208.1308189565042
 20
280.3081481394139
 30
0.0
 11
234.1308189565042
 21
280.3081481394139
 31
0.0
  0
LINE
  5
19BB
330
1E
100
AcDbEntity
  8
STEMPEL
100
AcDbLine
 10
208.1308189565042
 20
279.8081481394139
 30
0.0
 11
208.1308189565042
 21
280.3081481394139
 31
0.0
  0
LINE
  5
19BC
330
1E
100
AcDbEntity
  8
STEMPEL
100
AcDbLine
 10
211.8808189565042
 20
279.8081481394138
 30
0.0
 11
211.8808189565042
 21
277.0581481394135
 31
0.0
  0
LINE
  5
19BD
330
1E
100
AcDbEntity
  8
HILF
100
AcDbLine
 10
212.8008189565043
 20
279.8081481394139
 30
0.0
 11
212.8008189565042
 21
278.5581481394136
 31
0.0
  0
LINE
  5
19BE
330
1E
100
AcDbEntity
  8
STEMPEL
100
AcDbLine
 10
220.3808189565042
 20
279.8081481394138
 30
0.0
 11
220.3808189565042
 21
277.0581481394135
 31
0.0
  0
LINE
  5
19BF
330
1E
100
AcDbEntity
  8
HILF
100
AcDbLine
 10
221.3008189565043
 20
279.8081481394139
 30
0.0
 11
221.3008189565042
 21
278.5581481394137
 31
0.0
  0
LINE
  5
19C0
330
1E
100
AcDbEntity
  8
STEMPEL
100
AcDbLine
 10
230.3808189565042
 20
279.8081481394138
 30
0.0
 11
230.3808189565042
 21
277.0581481394135
 31
0.0
  0
LINE
  5
19C1
330
1E
100
AcDbEntity
  8
HILF
100
AcDbLine
 10
229.4608189565041
 20
279.8081481394139
 30
0.0
 11
229.4608189565042
 21
278.5581481394137
 31
0.0
  0
LINE
  5
19C2
330
1E
100
AcDbEntity
  8
STEMPEL
100
AcDbLine
 10
87.63081895650419
 20
279.8081481394139
 30
0.0
 11
87.63081895650419
 21
280.3081481394139
 31
0.0
  0
LINE
  5
19C3
330
1E
100
AcDbEntity
  8
STEMPEL
100
AcDbLine
 10
87.63081895650419
 20
280.3081481394139
 30
0.0
 11
61.63081895650418
 21
280.3081481394139
 31
0.0
  0
LINE
  5
19C4
330
1E
100
AcDbEntity
  8
STEMPEL
100
AcDbLine
 10
87.63081895650419
 20
279.8081481394139
 30
0.0
 11
61.63081895650418
 21
279.8081481394139
 31
0.0
  0
LINE
  5
19C5
330
1E
100
AcDbEntity
  8
STEMPEL
100
AcDbLine
 10
79.13081895650418
 20
279.8081481394139
 30
0.0
 11
79.13081895650418
 21
280.3081481394139
 31
0.0
  0
LINE
  5
19C6
330
1E
100
AcDbEntity
  8
STEMPEL
100
AcDbLine
 10
61.63081895650418
 20
279.8081481394139
 30
0.0
 11
61.63081895650418
 21
280.3081481394139
 31
0.0
  0
LINE
  5
19C7
330
1E
100
AcDbEntity
  8
HILF
100
AcDbLine
 10
147.8808189565044
 20
427.8103170784326
 30
0.0
 11
147.8808189565044
 21
422.7592001994916
 31
0.0
  0
LINE
  5
19C8
330
1E
100
AcDbEntity
  8
HILF
100
AcDbLine
 10
147.8808189565044
 20
437.7455947832078
 30
0.0
 11
147.8808189565044
 21
432.5952597451705
 31
0.0
  0
ARC
  5
19C9
330
1E
100
AcDbEntity
  8
HILF
100
AcDbCircle
 10
148.1377731157573
 20
429.0044162613039
 30
0.0
 40
0.2856
100
AcDbArc
 50
42.62694442164852
 51
130.2862365155991
  0
ARC
  5
19CA
330
1E
100
AcDbEntity
  8
HILF
100
AcDbCircle
 10
146.7384189565038
 20
427.7929744396916
 30
0.0
 40
1.1424
100
AcDbArc
 50
110.0000000000037
 51
180.0
  0
ARC
  5
19CB
330
1E
100
AcDbEntity
  8
HILF
100
AcDbCircle
 10
147.214418956504
 20
430.0937284739358
 30
0.0
 40
1.1424
100
AcDbArc
 50
290.0000000000036
 51
310.2862365155992
  0
ARC
  5
19CC
330
1E
100
AcDbEntity
  8
HILF
100
AcDbCircle
 10
147.214418956504
 20
430.0937284739358
 30
0.0
 40
0.8568000000000001
100
AcDbArc
 50
290.0000000000036
 51
0.0
  0
ARC
  5
19CD
330
1E
100
AcDbEntity
  8
HILF
100
AcDbCircle
 10
146.7384189565038
 20
427.7929744396916
 30
0.0
 40
0.8568000000000001
100
AcDbArc
 50
110.0000000000037
 51
180.0
  0
LINE
  5
19CE
330
1E
100
AcDbEntity
  8
HILF
100
AcDbLine
 10
146.4453760977024
 20
428.5981030771819
 30
0.0
 11
147.6051427682393
 21
429.0202236239497
 31
0.0
  0
ARC
  5
19CF
330
1E
100
AcDbEntity
  8
HILF
100
AcDbCircle
 10
146.1672189565038
 20
427.1580808638221
 30
0.0
 40
0.2856
100
AcDbArc
 50
180.0
 51
311.8103148957992
  0
ARC
  5
19D0
330
1E
100
AcDbEntity
  8
HILF
100
AcDbCircle
 10
147.7856189565039
 20
431.6206178206999
 30
0.0
 40
0.2856
100
AcDbArc
 50
0.0
 51
90.0
  0
ARC
  5
19D1
330
1E
100
AcDbEntity
  8
HILF
100
AcDbCircle
 10
148.6424189565039
 20
431.6206178206999
 30
0.0
 40
0.2856
100
AcDbArc
 50
90.0
 51
180.0
  0
LINE
  5
19D2
330
1E
100
AcDbEntity
  8
HILF
100
AcDbLine
 10
148.6424189565039
 20
431.9062178206998
 30
0.0
 11
149.5944189565043
 21
431.9062178206998
 31
0.0
  0
LINE
  5
19D3
330
1E
100
AcDbEntity
  8
HILF
100
AcDbLine
 10
148.0712189565039
 20
431.6206178206997
 30
0.0
 11
148.0712189565039
 21
430.0937284739357
 31
0.0
  0
ARC
  5
19D4
330
1E
100
AcDbEntity
  8
HILF
100
AcDbCircle
 10
149.5944189565043
 20
431.6206178206999
 30
0.0
 40
0.2856
100
AcDbArc
 50
0.0
 51
90.0
  0
ARC
  5
19D5
330
1E
100
AcDbEntity
  8
HILF
100
AcDbCircle
 10
146.1672189565038
 20
437.1540808638227
 30
0.0
 40
0.2856
100
AcDbArc
 50
180.0
 51
311.8103148957992
  0
LINE
  5
19D6
330
1E
100
AcDbEntity
  8
HILF
100
AcDbLine
 10
145.5960189565039
 20
432.1918178206997
 30
0.0
 11
145.5960189565039
 21
431.9062178206998
 31
0.0
  0
LINE
  5
19D7
330
1E
100
AcDbEntity
  8
HILF
100
AcDbLine
 10
145.5960189565039
 20
427.7929744396916
 30
0.0
 11
145.5960189565039
 21
425.2422178207013
 31
0.0
  0
LINE
  5
19D8
330
1E
100
AcDbEntity
  8
HILF
100
AcDbLine
 10
145.8816189565038
 20
427.7929744396916
 30
0.0
 11
145.8816189565038
 21
427.1580808638221
 31
0.0
  0
LINE
  5
19D9
330
1E
100
AcDbEntity
  8
HILF
100
AcDbLine
 10
150.1656189565042
 20
432.1918178206997
 30
0.0
 11
150.1656189565042
 21
429.9070178206999
 31
0.0
  0
ARC
  5
19DA
330
1E
100
AcDbEntity
  8
HILF
100
AcDbCircle
 10
146.5480189565043
 20
439.9030178207006
 30
0.0
 40
0.6664000000000002
100
AcDbArc
 50
90.0
 51
180.0
  0
ARC
  5
19DB
330
1E
100
AcDbEntity
  8
HILF
100
AcDbCircle
 10
146.5480189565043
 20
439.9030178207006
 30
0.0
 40
0.9520000000000001
100
AcDbArc
 50
90.0
 51
180.0
  0
LINE
  5
19DC
330
1E
100
AcDbEntity
  8
HILF
100
AcDbLine
 10
146.3476951447691
 20
428.8664792896762
 30
0.0
 11
147.5074618153053
 21
429.2885998364469
 31
0.0
  0
ARC
  5
19DD
330
1E
100
AcDbEntity
  8
HILF
100
AcDbCircle
 10
149.118418956504
 20
429.9070178207
 30
0.0
 40
0.7615999999999948
100
AcDbArc
 50
180.0
 51
0.0
  0
ARC
  5
19DE
330
1E
100
AcDbEntity
  8
HILF
100
AcDbCircle
 10
149.118418956504
 20
429.9070178207
 30
0.0
 40
1.047199999999994
100
AcDbArc
 50
222.6269444216485
 51
0.0
  0
LINE
  5
19DF
330
1E
100
AcDbEntity
  8
HILF
100
AcDbLine
 10
148.3568189565039
 20
431.6206178206997
 30
0.0
 11
148.3568189565039
 21
429.9070178206999
 31
0.0
  0
LINE
  5
19E0
330
1E
100
AcDbEntity
  8
HILF
100
AcDbLine
 10
145.5960189565039
 20
431.9062178206998
 30
0.0
 11
147.7856189565039
 21
431.9062178206998
 31
0.0
  0
LINE
  5
19E1
330
1E
100
AcDbEntity
  8
HILF
100
AcDbLine
 10
145.5960189565039
 20
432.1918178206997
 30
0.0
 11
150.1656189565042
 21
432.1918178206997
 31
0.0
  0
ARC
  5
19E2
330
1E
100
AcDbEntity
  8
HILF
100
AcDbCircle
 10
147.8808189565044
 20
435.2382178207006
 30
0.0
 40
2.2848
100
AcDbArc
 50
180.0
 51
131.8103148957992
  0
CIRCLE
  5
19E3
330
1E
100
AcDbEntity
  8
HILF
100
AcDbCircle
 10
147.8808189565044
 20
435.2382178207006
 30
0.0
 40
1.9992
  0
LINE
  5
19E4
330
1E
100
AcDbEntity
  8
HILF
100
AcDbLine
 10
150.1656189565042
 20
440.569417820701
 30
0.0
 11
146.5480189565043
 21
440.569417820701
 31
0.0
  0
LINE
  5
19E5
330
1E
100
AcDbEntity
  8
HILF
100
AcDbLine
 10
149.8800189565042
 20
431.6206178206997
 30
0.0
 11
149.8800189565042
 21
429.9070178206999
 31
0.0
  0
LINE
  5
19E6
330
1E
100
AcDbEntity
  8
HILF
100
AcDbLine
 10
145.8816189565038
 20
439.9030178207006
 30
0.0
 11
145.8816189565038
 21
437.1540808638227
 31
0.0
  0
CIRCLE
  5
19E7
330
1E
100
AcDbEntity
  8
HILF
100
AcDbCircle
 10
147.8808189565044
 20
425.2422178207013
 30
0.0
 40
1.9992
  0
ARC
  5
19E8
330
1E
100
AcDbEntity
  8
HILF
100
AcDbCircle
 10
147.8808189565044
 20
425.2422178207013
 30
0.0
 40
2.2848
100
AcDbArc
 50
180.0
 51
131.8103148957992
  0
LINE
  5
19E9
330
1E
100
AcDbEntity
  8
HILF
100
AcDbLine
 10
145.5960189565039
 20
439.9030178207006
 30
0.0
 11
145.5960189565039
 21
435.2382178207005
 31
0.0
  0
LINE
  5
19EA
330
1E
100
AcDbEntity
  8
HILF
100
AcDbLine
 10
150.1656189565042
 20
440.855017820701
 30
0.0
 11
150.1656189565042
 21
440.569417820701
 31
0.0
  0
LINE
  5
19EB
330
1E
100
AcDbEntity
  8
HILF
100
AcDbLine
 10
150.1656189565042
 20
440.855017820701
 30
0.0
 11
146.5480189565043
 21
440.855017820701
 31
0.0
  0
ARC
  5
19EC
330
1E
100
AcDbEntity
  8
HILF
100
AcDbCircle
 10
204.707236017571
 20
463.1129165300462
 30
0.0
 40
5.0
100
AcDbArc
 50
334.9999999999985
 51
0.0
  0
ARC
  5
19ED
330
1E
100
AcDbEntity
  8
HILF
100
AcDbCircle
 10
204.7072360175706
 20
489.2229190168061
 30
0.0
 40
5.0
100
AcDbArc
 50
0.0
 51
24.9999999999997
  0
LINE
  5
19EE
330
1E
100
AcDbEntity
  8
HILF
100
AcDbLine
 10
207.0837772462911
 20
495.9574178207015
 30
0.0
 11
209.2387749527538
 21
491.3360103255095
 31
0.0
  0
LINE
  5
19EF
330
1E
100
AcDbEntity
  8
HILF
100
AcDbLine
 10
209.7072360175706
 20
489.2229190168061
 30
0.0
 11
209.7072360175709
 21
463.1129165300463
 31
0.0
  0
ARC
  5
19F0
330
1E
100
AcDbEntity
  8
HILF
100
AcDbCircle
 10
209.1600152322132
 20
444.2675133735185
 30
0.0
 40
7.0
100
AcDbArc
 50
154.9999999999984
 51
180.0
  0
LINE
  5
19F1
330
1E
100
AcDbEntity
  8
HILF
100
AcDbLine
 10
202.8158607229567
 20
447.2258412057034
 30
0.0
 11
209.2387749527542
 21
460.9998252213427
 31
0.0
  0
LINE
  5
19F2
330
1E
100
AcDbEntity
  8
HILF
100
AcDbLine
 10
202.1600152322132
 20
444.2675133735185
 30
0.0
 11
202.1600152322132
 21
414.9574178207013
 31
0.0
  0
LINE
  5
19F3
330
1E
100
AcDbEntity
  8
HILF
100
AcDbLine
 10
93.60162268079511
 20
444.2675133735185
 30
0.0
 11
93.60162268079511
 21
414.9574178207013
 31
0.0
  0
ARC
  5
19F4
330
1E
100
AcDbEntity
  8
HILF
100
AcDbCircle
 10
86.60162268079512
 20
444.2675133735185
 30
0.0
 40
7.0
100
AcDbArc
 50
0.0
 51
25.00000000000151
  0
LINE
  5
19F5
330
1E
100
AcDbEntity
  8
HILF
100
AcDbLine
 10
92.94577719005166
 20
447.2258412057034
 30
0.0
 11
86.52286296025421
 21
460.9998252213427
 31
0.0
  0
LINE
  5
19F6
330
1E
100
AcDbEntity
  8
HILF
100
AcDbLine
 10
87.1255138740778
 20
462.0202083629464
 30
0.0
 11
208.6361240389307
 21
462.0202083629461
 31
0.0
  0
LINE
  5
19F7
330
1E
100
AcDbEntity
  8
HILF
100
AcDbLine
 10
93.98310271639479
 20
445.793100768495
 30
0.0
 11
201.2785351966136
 21
445.7931007684948
 31
0.0
  0
ARC
  5
19F8
330
1E
100
AcDbEntity
  8
HILF
100
AcDbCircle
 10
91.05440189543742
 20
463.1129165300462
 30
0.0
 40
5.0
100
AcDbArc
 50
180.0
 51
205.0000000000015
  0
LINE
  5
19F9
330
1E
100
AcDbEntity
  8
HILF
100
AcDbLine
 10
86.05440189543775
 20
489.2229190168061
 30
0.0
 11
86.05440189543742
 21
463.1129165300463
 31
0.0
  0
LINE
  5
19FA
330
1E
100
AcDbEntity
  8
HILF
100
AcDbLine
 10
88.67786066671726
 20
495.9574178207015
 30
0.0
 11
86.52286296025454
 21
491.3360103255095
 31
0.0
  0
ARC
  5
19FB
330
1E
100
AcDbEntity
  8
HILF
100
AcDbCircle
 10
91.05440189543775
 20
489.2229190168061
 30
0.0
 40
5.0
100
AcDbArc
 50
155.0000000000003
 51
180.0
  0
LINE
  5
19FC
330
1E
100
AcDbEntity
  8
HILF
100
AcDbLine
 10
87.12551387407803
 20
490.3156271839064
 30
0.0
 11
208.6361240389306
 21
490.3156271839062
 31
0.0
  0
ARC
  5
19FD
330
1E
100
AcDbEntity
  8
STEMPEL
100
AcDbCircle
 10
383.6074225839589
 20
489.2229190168056
 30
0.0
 40
5.0
100
AcDbArc
 50
0.0
 51
24.9999999999997
  0
ARC
  5
19FE
330
1E
100
AcDbEntity
  8
STEMPEL
100
AcDbCircle
 10
383.6074225839589
 20
463.1129165300463
 30
0.0
 40
5.0
100
AcDbArc
 50
335.0000000000003
 51
0.0
  0
ARC
  5
19FF
330
1E
100
AcDbEntity
  8
STEMPEL
100
AcDbCircle
 10
269.6074225839589
 20
463.1129165300463
 30
0.0
 40
5.0
100
AcDbArc
 50
180.0
 51
204.9999999999997
  0
ARC
  5
1A00
330
1E
100
AcDbEntity
  8
STEMPEL
100
AcDbCircle
 10
269.6074225839589
 20
489.2229190168056
 30
0.0
 40
5.0
100
AcDbArc
 50
155.0000000000003
 51
180.0
  0
LINE
  5
1A01
330
1E
100
AcDbEntity
  8
STEMPEL
100
AcDbLine
 10
272.6074225839588
 20
414.9574178207014
 30
0.0
 11
272.6074225839588
 21
443.2965252142549
 31
0.0
  0
LINE
  5
1A02
330
1E
100
AcDbEntity
  8
STEMPEL
100
AcDbLine
 10
265.0758836487757
 20
460.9998252213428
 30
0.0
 11
271.9515770932154
 21
446.2548530464399
 31
0.0
  0
LINE
  5
1A03
330
1E
100
AcDbEntity
  8
STEMPEL
100
AcDbLine
 10
264.6074225839589
 20
463.1129165300463
 30
0.0
 11
264.6074225839589
 21
489.2229190168056
 31
0.0
  0
LINE
  5
1A04
330
1E
100
AcDbEntity
  8
STEMPEL
100
AcDbLine
 10
267.2308813552386
 20
495.9574178207015
 30
0.0
 11
265.0758836487757
 21
491.336010325509
 31
0.0
  0
ARC
  5
1A05
330
1E
100
AcDbEntity
  8
STEMPEL
100
AcDbCircle
 10
265.6074225839589
 20
443.2965252142549
 30
0.0
 40
7.0
100
AcDbArc
 50
0.0
 51
24.9999999999997
  0
ARC
  5
1A06
330
1E
100
AcDbEntity
  8
STEMPEL
100
AcDbCircle
 10
387.6074225839588
 20
443.296525214255
 30
0.0
 40
7.0
100
AcDbArc
 50
155.0000000000003
 51
180.0
  0
DIMENSION
  5
1A07
330
1E
100
AcDbEntity
  8
BEM
100
AcDbDimension
  2
*D1
 10
380.6074225839591
 20
390.0712428721654
 30
0.0
 11
355.1074225839589
 21
396.5712428721654
 31
0.0
 70
    32
 71
     5
 42
51.00000000000028
  3
Standard
100
AcDbAlignedDimension
 13
329.6074225839588
 23
414.9574178207013
 33
0.0
 14
380.6074225839591
 24
414.9574178207014
 34
0.0
100
AcDbRotatedDimension
1001
ACAD
1000
DSTYLE
1002
{
1070
    40
1040
2.0
1070
    41
1040
3.5
1070
    42
1040
1.0
1070
    43
1040
7.0
1070
    44
1040
1.0
1070
    73
1070
     0
1070
    74
1070
     0
1070
    77
1070
     1
1070
    78
1070
     8
1070
    79
1070
     2
1070
   140
1040
3.5
1070
   141
1040
1.5
1070
   146
1040
0.5142857142857144
1070
   147
1040
1.5
1070
   172
1070
     1
1070
   178
1070
     1
1070
   179
1070
     3
1070
   271
1070
     2
1070
   272
1070
     2
1070
   284
1070
     8
1070
   285
1070
     8
1070
   286
1070
     8
1002
}
  0
DIMENSION
  5
1A14
330
1E
100
AcDbEntity
  8
BEM
100
AcDbDimension
  2
*D2
 10
388.6074225839589
 20
513.6194610725851
 30
0.0
 11
359.1074225839589
 21
520.1194610725852
 31
0.0
 70
    32
 71
     5
 42
59.0
  3
Standard
100
AcDbAlignedDimension
 13
329.6074225839589
 23
495.9574178207015
 33
0.0
 14
388.6074225839589
 24
489.2229190168056
 34
0.0
100
AcDbRotatedDimension
1001
ACAD
1000
DSTYLE
1002
{
1070
    40
1040
2.0
1070
    41
1040
3.5
1070
    42
1040
1.0
1070
    43
1040
7.0
1070
    44
1040
1.0
1070
    73
1070
     0
1070
    74
1070
     0
1070
    77
1070
     1
1070
    78
1070
     8
1070
    79
1070
     2
1070
   140
1040
3.5
1070
   141
1040
1.5
1070
   146
1040
0.5142857142857144
1070
   147
1040
1.5
1070
   172
1070
     1
1070
   178
1070
     1
1070
   179
1070
     3
1070
   271
1070
     2
1070
   272
1070
     2
1070
   284
1070
     8
1070
   285
1070
     8
1070
   286
1070
     8
1002
}
  0
DIMENSION
  5
1A21
330
1E
100
AcDbEntity
  8
BEM
100
AcDbDimension
  2
*D3
 10
240.3808189565042
 20
511.1847930416122
 30
0.0
 11
147.8808189565041
 21
517.6847930416122
 31
0.0
 70
    32
 71
     5
 42
185.0
  3
Standard
100
AcDbAlignedDimension
 13
55.38081895650418
 23
471.9574178207014
 33
0.0
 14
240.3808189565042
 24
471.9574178207014
 34
0.0
100
AcDbRotatedDimension
1001
ACAD
1000
DSTYLE
1002
{
1070
    40
1040
2.0
1070
    41
1040
3.5
1070
    42
1040
1.0
1070
    43
1040
7.0
1070
    44
1040
1.0
1070
    73
1070
     0
1070
    74
1070
     0
1070
    77
1070
     1
1070
    78
1070
     8
1070
    79
1070
     2
1070
   140
1040
3.5
1070
   141
1040
1.5
1070
   146
1040
0.5142857142857144
1070
   147
1040
1.5
1070
   172
1070
     1
1070
   178
1070
     1
1070
   179
1070
     3
1070
   271
1070
     2
1070
   272
1070
     2
1070
   284
1070
     8
1070
   285
1070
     8
1070
   286
1070
     8
1002
}
  0
DIMENSION
  5
1A3B
330
1E
100
AcDbEntity
  8
BEM
100
AcDbDimension
  2
*D4
 10
232.8808189565042
 20
394.1427230738907
 30
0.0
 11
147.8808189565041
 21
400.6427230738906
 31
0.0
 70
    32
 71
     5
 42
170.0
  3
Standard
100
AcDbAlignedDimension
 13
62.88081895650418
 23
430.9574178207014
 33
0.0
 14
232.8808189565042
 24
430.9574178207014
 34
0.0
100
AcDbRotatedDimension
1001
ACAD
1000
DSTYLE
1002
{
1070
    40
1040
2.0
1070
    41
1040
3.5
1070
    42
1040
1.0
1070
    43
1040
7.0
1070
    44
1040
1.0
1070
    73
1070
     0
1070
    74
1070
     0
1070
    77
1070
     1
1070
    78
1070
     8
1070
    79
1070
     2
1070
   140
1040
3.5
1070
   141
1040
1.5
1070
   146
1040
0.5142857142857144
1070
   147
1040
1.5
1070
   172
1070
     1
1070
   178
1070
     1
1070
   179
1070
     3
1070
   271
1070
     2
1070
   272
1070
     2
1070
   284
1070
     8
1070
   285
1070
     8
1070
   286
1070
     8
1002
}
  0
DIMENSION
  5
1A48
330
1E
100
AcDbEntity
  8
BEM
100
AcDbDimension
  2
*D5
 10
256.7290971072562
 20
414.9574178207013
 30
0.0
 11
250.2290971072561
 21
455.4574178207014
 31
0.0
 70
    32
 71
     5
 42
80.99999999999988
  3
Standard
100
AcDbAlignedDimension
 13
221.3513817049813
 23
495.9574178207012
 33
0.0
 14
216.8808189565042
 24
414.9574178207013
 34
0.0
 50
90.0
100
AcDbRotatedDimension
1001
ACAD
1000
DSTYLE
1002
{
1070
    40
1040
2.0
1070
    41
1040
3.5
1070
    42
1040
1.0
1070
    43
1040
7.0
1070
    44
1040
1.0
1070
    73
1070
     0
1070
    74
1070
     0
1070
    77
1070
     1
1070
    78
1070
     8
1070
    79
1070
     2
1070
   140
1040
3.5
1070
   141
1040
1.5
1070
   146
1040
0.5142857142857144
1070
   147
1040
1.5
1070
   172
1070
     1
1070
   178
1070
     1
1070
   179
1070
     3
1070
   271
1070
     2
1070
   272
1070
     2
1070
   284
1070
     8
1070
   285
1070
     8
1070
   286
1070
     8
1002
}
  0
ENDSEC
  0
SECTION
  2
OBJECTS
  0
DICTIONARY
  5
C
330
0
100
AcDbDictionary
281
     1
  3
ACAD_CIP_PREVIOUS_PRODUCT_INFO
350
11C7
  3
ACAD_COLOR
350
11A
  3
ACAD_DETAILVIEWSTYLE
350
11C3
  3
ACAD_GROUP
350
D
  3
ACAD_LAYOUT
350
19
  3
ACAD_MATERIAL
350
119
  3
ACAD_MLEADERSTYLE
350
11BE
  3
ACAD_MLINESTYLE
350
16
  3
ACAD_PLOTSETTINGS
350
18
  3
ACAD_PLOTSTYLENAME
350
E
  3
ACAD_SCALELIST
350
11AC
  3
ACAD_SECTIONVIEWSTYLE
350
11C0
  3
ACAD_TABLESTYLE
350
11AA
  3
ACAD_VISUALSTYLE
350
1191
  3
ACDB_RECOMPOSE_DATA
350
1B61
  3
AcDbVariableDictionary
350
125
  3
AcDsDecomposeData
350
1B67
  0
DICTIONARY
  5
1330
330
8
100
AcDbDictionary
280
     1
281
     1
  0
DICTIONARY
  5
1371
330
2
100
AcDbDictionary
280
     1
281
     1
  3
ACAD_LAYERSTATES
360
1372
  0
DICTIONARY
  5
131F
330
10
100
AcDbDictionary
280
     1
281
     1
  3
ADSK_XREC_LAYER_RECONCILED
360
1320
  0
DICTIONARY
  5
1321
330
2B
100
AcDbDictionary
280
     1
281
     1
  3
ADSK_XREC_LAYER_RECONCILED
360
1322
  0
DICTIONARY
  5
1323
330
2C
100
AcDbDictionary
280
     1
281
     1
  3
ADSK_XREC_LAYER_RECONCILED
360
1324
  0
DICTIONARY
  5
1325
330
2D
100
AcDbDictionary
280
     1
281
     1
  3
ADSK_XREC_LAYER_RECONCILED
360
1326
  0
DICTIONARY
  5
1327
330
2F
100
AcDbDictionary
280
     1
281
     1
  3
ADSK_XREC_LAYER_RECONCILED
360
1328
  0
DICTIONARY
  5
1329
330
30
100
AcDbDictionary
280
     1
281
     1
  3
ADSK_XREC_LAYER_RECONCILED
360
132A
  0
DICTIONARY
  5
132B
330
33
100
AcDbDictionary
280
     1
281
     1
  3
ADSK_XREC_LAYER_RECONCILED
360
132C
  0
DICTIONARY
  5
DB
330
1E
100
AcDbDictionary
280
     1
281
     1
  3
ACAD_LAYOUTSELFREF
360
10F
  3
ACAD_SORTENTS
360
12F8
  0
DICTIONARY
  5
DD
330
1A
100
AcDbDictionary
280
     1
281
     1
  3
ACAD_LAYOUTSELFREF
360
10E
  0
XRECORD
  5
11C7
102
{ACAD_REACTORS
330
C
102
}
330
C
100
AcDbXrecord
280
     1
300
ACD
300
2013
300
ACD_F_S
  0
DICTIONARY
  5
11A
102
{ACAD_REACTORS
330
C
102
}
330
C
100
AcDbDictionary
281
     1
  0
DICTIONARY
  5
11C3
102
{ACAD_REACTORS
330
C
102
}
330
C
100
AcDbDictionary
281
     1
  3
Imperial24
350
11C4
  0
DICTIONARY
  5
D
102
{ACAD_REACTORS
330
C
102
}
330
C
100
AcDbDictionary
281
     1
  0
DICTIONARY
  5
19
102
{ACAD_REACTORS
330
C
102
}
330
C
100
AcDbDictionary
281
     1
  3
Layout1
350
1D
  3
Model
350
21
  0
DICTIONARY
  5
119
102
{ACAD_REACTORS
330
C
102
}
330
C
100
AcDbDictionary
281
     1
  3
ByBlock
350
1181
  3
ByLayer
350
1179
  3
Global
350
1189
  0
DICTIONARY
  5
11BE
102
{ACAD_REACTORS
330
C
102
}
330
C
100
AcDbDictionary
281
     1
  3
Standard
350
11BF
  0
DICTIONARY
  5
16
102
{ACAD_REACTORS
330
C
102
}
330
C
100
AcDbDictionary
281
     1
  3
Standard
350
17
  0
DICTIONARY
  5
18
102
{ACAD_REACTORS
330
C
102
}
330
C
100
AcDbDictionary
281
     1
  0
ACDBDICTIONARYWDFLT
  5
E
102
{ACAD_REACTORS
330
C
102
}
330
C
100
AcDbDictionary
281
     1
  3
Normal
350
F
100
AcDbDictionaryWithDefault
340
F
  0
DICTIONARY
  5
11AC
102
{ACAD_REACTORS
330
C
102
}
330
C
100
AcDbDictionary
281
     1
  3
A0
350
11AD
  3
A1
350
11AE
  3
A2
350
11AF
  3
A3
350
11B0
  3
A4
350
11B1
  3
A5
350
11B2
  3
A6
350
11B3
  3
A7
350
11B4
  3
A8
350
11B5
  3
A9
350
11B6
  3
B0
350
11B7
  3
B1
350
11B8
  3
B2
350
11B9
  3
B3
350
11BA
  3
B4
350
11BB
  3
B5
350
11BC
  3
B6
350
11BD
  0
DICTIONARY
  5
11C0
102
{ACAD_REACTORS
330
C
102
}
330
C
100
AcDbDictionary
281
     1
  3
Imperial24
350
11C2
  0
DICTIONARY
  5
11AA
102
{ACAD_REACTORS
330
C
102
}
330
C
100
AcDbDictionary
281
     1
  3
Standard
350
11AB
  0
DICTIONARY
  5
1191
102
{ACAD_REACTORS
330
C
102
}
330
C
100
AcDbDictionary
281
     1
  3
2dWireframe
350
1197
  3
Basic
350
1196
  3
Brighten
350
119D
  3
ColorChange
350
11A1
  3
Conceptual
350
119A
  3
Dim
350
119C
  3
EdgeColorOff
350
11A9
  3
Facepattern
350
11A0
  3
Flat
350
1192
  3
FlatWithEdges
350
1193
  3
Gouraud
350
1194
  3
GouraudWithEdges
350
1195
  3
Hidden
350
1199
  3
JitterOff
350
11A7
  3
Linepattern
350
119F
  3
OverhangOff
350
11A8
  3
Realistic
350
119B
  3
Shaded
350
11A6
  3
Shaded with edges
350
11A5
  3
Shades of Gray
350
11A2
  3
Sketchy
350
11A3
  3
Thicken
350
119E
  3
Wireframe
350
1198
  3
X-Ray
350
11A4
  0
XRECORD
  5
1B61
102
{ACAD_REACTORS
330
C
102
}
330
C
100
AcDbXrecord
280
     1
 90
        1
330
11AB
  0
DICTIONARY
  5
125
102
{ACAD_REACTORS
330
C
102
}
330
C
100
AcDbDictionary
281
     1
  3
CANNOSCALE
350
136D
  3
CMLEADERSTYLE
350
136A
  3
CTABLESTYLE
350
1369
  3
CVIEWDETAILSTYLE
350
136B
  3
CVIEWSECTIONSTYLE
350
136C
  3
DIMASSOC
350
126
  3
PROJECTNAME
350
127
  0
DICTIONARY
  5
1B67
102
{ACAD_REACTORS
330
C
102
}
330
C
100
AcDbDictionary
281
     1
  3
AcDsRecords
350
1B69
  3
AcDsSchemas
350
1B68
1001
ACAD
1070
     2
  0
DICTIONARY
  5
1372
102
{ACAD_REACTORS
330
1371
102
}
330
1371
100
AcDbDictionary
281
     1
  0
XRECORD
  5
1320
102
{ACAD_REACTORS
330
131F
102
}
330
131F
100
AcDbXrecord
280
     1
290
     1
  0
XRECORD
  5
1322
102
{ACAD_REACTORS
330
1321
102
}
330
1321
100
AcDbXrecord
280
     1
290
     1
  0
XRECORD
  5
1324
102
{ACAD_REACTORS
330
1323
102
}
330
1323
100
AcDbXrecord
280
     1
290
     1
  0
XRECORD
  5
1326
102
{ACAD_REACTORS
330
1325
102
}
330
1325
100
AcDbXrecord
280
     1
290
     1
  0
XRECORD
  5
1328
102
{ACAD_REACTORS
330
1327
102
}
330
1327
100
AcDbXrecord
280
     1
290
     1
  0
XRECORD
  5
132A
102
{ACAD_REACTORS
330
1329
102
}
330
1329
100
AcDbXrecord
280
     1
290
     1
  0
XRECORD
  5
132C
102
{ACAD_REACTORS
330
132B
102
}
330
132B
100
AcDbXrecord
280
     1
290
     1
  0
XRECORD
  5
10F
102
{ACAD_REACTORS
330
DB
102
}
330
DB
100
AcDbXrecord
280
     1
340
1E
  0
SORTENTSTABLE
  5
12F8
102
{ACAD_REACTORS
330
DB
102
}
330
DB
100
AcDbSortentsTable
330
1E
331
12BC
  5
12B7
331
12EA
  5
12E5
331
12CB
  5
12C6
331
12DA
  5
12D5
331
12BB
  5
12B6
331
12E9
  5
12E4
331
12CA
  5
12C5
331
12F7
  5
12F2
331
12D9
  5
12D4
331
12BA
  5
12B5
331
12E7
  5
12E2
331
12E8
  5
12E3
331
12C9
  5
12C4
331
12F6
  5
12F1
331
12D7
  5
12D2
331
12D8
  5
12D3
331
12B9
  5
12B4
331
12E6
  5
12E1
331
12C7
  5
12C2
331
12F5
  5
12F0
331
12C8
  5
12C3
331
12D6
  5
12D1
331
12B7
  5
12B2
331
12E5
  5
12E0
331
12B8
  5
12B3
331
12C6
  5
12C1
331
12F4
  5
12EF
331
12D5
  5
12D0
331
12B6
  5
12B1
331
12E4
  5
12DF
331
E21
  5
E21
331
12C5
  5
12C0
331
12F3
  5
12EE
331
12D4
  5
12CF
331
12B5
  5
1299
331
12E3
  5
12DE
331
12C4
  5
12BF
331
12D3
  5
12CE
331
12B4
  5
128C
331
12E2
  5
12DD
331
12C3
  5
12BE
331
12D2
  5
12CD
331
12B3
  5
127F
331
12E1
  5
12DC
331
12C2
  5
12BD
331
12F0
  5
12EB
331
12D1
  5
12CC
331
12B2
  5
1265
331
12E0
  5
12DB
331
12C1
  5
12BC
331
12EF
  5
12EA
331
12D0
  5
12CB
331
12DF
  5
12DA
331
12C0
  5
12BB
331
12EE
  5
12E9
331
12CF
  5
12CA
331
3F3
  5
3F3
331
12DE
  5
12D9
331
12BF
  5
12BA
331
12ED
  5
12E8
331
12CE
  5
12C9
331
12DD
  5
12D8
331
12BE
  5
12B9
331
12EC
  5
12E7
331
12CD
  5
12C8
331
12DC
  5
12D7
331
12BD
  5
12B8
331
EA0
  5
EA0
331
12EB
  5
12E6
331
12CC
  5
12C7
331
12DB
  5
12D6
  0
XRECORD
  5
10E
102
{ACAD_REACTORS
330
DD
102
}
330
DD
100
AcDbXrecord
280
     1
340
1A
  0
ACDBDETAILVIEWSTYLE
  5
11C4
102
{ACAD_REACTORS
330
11C3
102
}
330
11C3
100
AcDbModelDocViewStyle
 70
     0
  3
Imperial24
290
     0
100
AcDbDetailViewStyle
 70
     0
 71
     0
 90
        3
 71
     1
340
11
 62
   256
 40
0.24
340
0
 62
   256
 40
0.24
300

 40
0.36
280
     3
 71
     2
340
15
 90
       25
 62
   256
 71
     3
340
11
 62
   256
 40
0.24
 90
        1
 40
0.75
 90
        1
300
%<\AcVar ViewType \f "%tc1">% %<\AcVar ViewDetailId>%\PVARIA %<\AcVar ViewScale \f "%sn">%
 71
     4
340
15
 90
       25
 62
   256
340
15
 90
       25
 62
   256
280
     0
  0
LAYOUT
  5
1D
102
{ACAD_REACTORS
330
19
102
}
330
19
100
AcDbPlotSettings
  1

  2
\\NT_WORK01\HP LaserJet 5000 PCL 6
  4

  6

 40
0.0
 41
0.0
 42
0.0
 43
0.0
 44
0.0
 45
0.0
 46
0.0
 47
0.0
 48
0.0
 49
0.0
140
0.0
141
0.0
142
1.0
143
1.0
 70
   688
 72
     0
 73
     0
 74
     5
  7

 75
    16
147
1.0
 76
     0
 77
     2
 78
   300
148
0.0
149
0.0
100
AcDbLayout
  1
Layout1
 70
     0
 71
     1
 10
0.0
 20
0.0
 11
12.0
 21
9.0
 12
0.0
 22
0.0
 32
0.0
 14
1.000000000000000E+20
 24
1.000000000000000E+20
 34
1.000000000000000E+20
 15
-1.000000000000000E+20
 25
-1.000000000000000E+20
 35
-1.000000000000000E+20
146
0.0
 13
0.0
 23
0.0
 33
0.0
 16
1.0
 26
0.0
 36
0.0
 17
0.0
 27
1.0
 37
0.0
 76
     0
330
1A
  0
LAYOUT
  5
21
102
{ACAD_REACTORS
330
19
102
}
330
19
100
AcDbPlotSettings
  1

  2
none_device
  4
Letter_(8.50_x_11.00_Inches)
  6

 40
6.349999904632568
 41
6.349999904632568
 42
6.350006103515625
 43
6.350006103515625
 44
215.8999938964844
 45
279.3999938964844
 46
0.0
 47
0.0
 48
0.0
 49
0.0
140
0.0
141
0.0
142
1.0
143
1.0
 70
 11952
 72
     0
 73
     1
 74
     0
  7

 75
     0
147
1.0
 76
     0
 77
     2
 78
   300
148
-1504.277490893296
149
57.67950492285677
100
AcDbLayout
  1
Model
 70
     1
 71
     0
 10
0.0
 20
0.0
 11
12.0
 21
9.0
 12
0.0
 22
0.0
 32
0.0
 14
0.0
 24
0.0
 34
0.0
 15
0.0
 25
0.0
 35
0.0
146
0.0
 13
0.0
 23
0.0
 33
0.0
 16
1.0
 26
0.0
 36
0.0
 17
0.0
 27
1.0
 37
0.0
 76
     0
330
1E
331
1177
  0
MATERIAL
  5
1181
102
{ACAD_XDICTIONARY
360
1182
102
}
102
{ACAD_REACTORS
330
119
102
}
330
119
100
AcDbMaterial
  1
ByBlock
 72
     0
 43
0.0208333333333333
 43
0.0
 43
0.0
 43
0.0
 43
0.0
 43
0.0208333333333333
 43
0.0
 43
0.0
 43
0.0
 43
0.0
 43
1.0
 43
0.0
 43
0.0
 43
0.0
 43
0.0
 43
1.0
 77
     0
 47
0.0208333333333333
 47
0.0
 47
0.0
 47
0.0
 47
0.0
 47
0.0208333333333333
 47
0.0
 47
0.0
 47
0.0
 47
0.0
 47
1.0
 47
0.0
 47
0.0
 47
0.0
 47
0.0
 47
1.0
171
     0
 49
0.0208333333333333
 49
0.0
 49
0.0
 49
0.0
 49
0.0
 49
0.0208333333333333
 49
0.0
 49
0.0
 49
0.0
 49
0.0
 49
1.0
 49
0.0
 49
0.0
 49
0.0
 49
0.0
 49
1.0
175
     0
142
0.0208333333333333
142
0.0
142
0.0
142
0.0
142
0.0
142
0.0208333333333333
142
0.0
142
0.0
142
0.0
142
0.0
142
1.0
142
0.0
142
0.0
142
0.0
142
0.0
142
1.0
179
     0
144
0.0208333333333333
144
0.0
144
0.0
144
0.0
144
0.0
144
0.0208333333333333
144
0.0
144
0.0
144
0.0
144
0.0
144
1.0
144
0.0
144
0.0
144
0.0
144
0.0
144
1.0
147
0.0208333333333333
147
0.0
147
0.0
147
0.0
147
0.0
147
0.0208333333333333
147
0.0
147
0.0
147
0.0
147
0.0
147
1.0
147
0.0
147
0.0
147
0.0
147
0.0
147
1.0
  0
MATERIAL
  5
1179
102
{ACAD_XDICTIONARY
360
117A
102
}
102
{ACAD_REACTORS
330
119
102
}
330
119
100
AcDbMaterial
  1
ByLayer
 72
     0
 43
0.0208333333333333
 43
0.0
 43
0.0
 43
0.0
 43
0.0
 43
0.0208333333333333
 43
0.0
 43
0.0
 43
0.0
 43
0.0
 43
1.0
 43
0.0
 43
0.0
 43
0.0
 43
0.0
 43
1.0
 77
     0
 47
0.0208333333333333
 47
0.0
 47
0.0
 47
0.0
 47
0.0
 47
0.0208333333333333
 47
0.0
 47
0.0
 47
0.0
 47
0.0
 47
1.0
 47
0.0
 47
0.0
 47
0.0
 47
0.0
 47
1.0
171
     0
 49
0.0208333333333333
 49
0.0
 49
0.0
 49
0.0
 49
0.0
 49
0.0208333333333333
 49
0.0
 49
0.0
 49
0.0
 49
0.0
 49
1.0
 49
0.0
 49
0.0
 49
0.0
 49
0.0
 49
1.0
175
     0
142
0.0208333333333333
142
0.0
142
0.0
142
0.0
142
0.0
142
0.0208333333333333
142
0.0
142
0.0
142
0.0
142
0.0
142
1.0
142
0.0
142
0.0
142
0.0
142
0.0
142
1.0
179
     0
144
0.0208333333333333
144
0.0
144
0.0
144
0.0
144
0.0
144
0.0208333333333333
144
0.0
144
0.0
144
0.0
144
0.0
144
1.0
144
0.0
144
0.0
144
0.0
144
0.0
144
1.0
147
0.0208333333333333
147
0.0
147
0.0
147
0.0
147
0.0
147
0.0208333333333333
147
0.0
147
0.0
147
0.0
147
0.0
147
1.0
147
0.0
147
0.0
147
0.0
147
0.0
147
1.0
  0
MATERIAL
  5
1189
102
{ACAD_XDICTIONARY
360
118A
102
}
102
{ACAD_REACTORS
330
119
102
}
330
119
100
AcDbMaterial
  1
Global
 72
     0
 43
0.0208333333333333
 43
0.0
 43
0.0
 43
0.0
 43
0.0
 43
0.0208333333333333
 43
0.0
 43
0.0
 43
0.0
 43
0.0
 43
1.0
 43
0.0
 43
0.0
 43
0.0
 43
0.0
 43
1.0
 77
     0
 47
0.0208333333333333
 47
0.0
 47
0.0
 47
0.0
 47
0.0
 47
0.0208333333333333
 47
0.0
 47
0.0
 47
0.0
 47
0.0
 47
1.0
 47
0.0
 47
0.0
 47
0.0
 47
0.0
 47
1.0
171
     0
 49
0.0208333333333333
 49
0.0
 49
0.0
 49
0.0
 49
0.0
 49
0.0208333333333333
 49
0.0
 49
0.0
 49
0.0
 49
0.0
 49
1.0
 49
0.0
 49
0.0
 49
0.0
 49
0.0
 49
1.0
175
     0
142
0.0208333333333333
142
0.0
142
0.0
142
0.0
142
0.0
142
0.0208333333333333
142
0.0
142
0.0
142
0.0
142
0.0
142
1.0
142
0.0
142
0.0
142
0.0
142
0.0
142
1.0
179
     0
144
0.0208333333333333
144
0.0
144
0.0
144
0.0
144
0.0
144
0.0208333333333333
144
0.0
144
0.0
144
0.0
144
0.0
144
1.0
144
0.0
144
0.0
144
0.0
144
0.0
144
1.0
147
0.0208333333333333
147
0.0
147
0.0
147
0.0
147
0.0
147
0.0208333333333333
147
0.0
147
0.0
147
0.0
147
0.0
147
1.0
147
0.0
147
0.0
147
0.0
147
0.0
147
1.0
  0
MLEADERSTYLE
  5
11BF
102
{ACAD_XDICTIONARY
360
1B9E
102
}
102
{ACAD_REACTORS
330
11BE
102
}
330
11BE
100
AcDbMLeaderStyle
170
     2
171
     1
172
     0
 90
        2
 40
0.0
 41
0.0
173
     1
 91
-1056964608
340
13
 92
       -2
290
     1
 42
0.09
291
     1
 43
0.36
  3
Standard
 44
0.18
300

342
11
174
     1
178
     6
175
     1
176
     0
 93
-1056964608
 45
0.18
292
     0
297
     0
 46
0.18
 94
-1056964608
 47
1.0
 49
1.0
140
1.0
293
     1
141
0.0
294
     1
177
     0
142
1.0
295
     0
296
     0
143
0.125
1001
ACAD_MLEADERVER
1070
     2
  0
MLINESTYLE
  5
17
102
{ACAD_REACTORS
330
16
102
}
330
16
100
AcDbMlineStyle
  2
STANDARD
 70
     0
  3

 62
   256
 51
90.0
 52
90.0
 71
     2
 49
0.5
 62
   256
  6
BYLAYER
 49
-0.5
 62
   256
  6
BYLAYER
  0
ACDBPLACEHOLDER
  5
F
102
{ACAD_REACTORS
330
E
102
}
330
E
  0
SCALE
  5
11AD
102
{ACAD_REACTORS
330
11AC
102
}
330
11AC
100
AcDbScale
 70
     0
300
1:1
140
1.0
141
1.0
290
     1
  0
SCALE
  5
11AE
102
{ACAD_REACTORS
330
11AC
102
}
330
11AC
100
AcDbScale
 70
     0
300
1/128" = 1'-0"
140
0.0078125
141
12.0
290
     0
  0
SCALE
  5
11AF
102
{ACAD_REACTORS
330
11AC
102
}
330
11AC
100
AcDbScale
 70
     0
300
1/64" = 1'-0"
140
0.015625
141
12.0
290
     0
  0
SCALE
  5
11B0
102
{ACAD_REACTORS
330
11AC
102
}
330
11AC
100
AcDbScale
 70
     0
300
1/32" = 1'-0"
140
0.03125
141
12.0
290
     0
  0
SCALE
  5
11B1
102
{ACAD_REACTORS
330
11AC
102
}
330
11AC
100
AcDbScale
 70
     0
300
1/16" = 1'-0"
140
0.0625
141
12.0
290
     0
  0
SCALE
  5
11B2
102
{ACAD_REACTORS
330
11AC
102
}
330
11AC
100
AcDbScale
 70
     0
300
3/32" = 1'-0"
140
0.09375
141
12.0
290
     0
  0
SCALE
  5
11B3
102
{ACAD_REACTORS
330
11AC
102
}
330
11AC
100
AcDbScale
 70
     0
300
1/8" = 1'-0"
140
0.125
141
12.0
290
     0
  0
SCALE
  5
11B4
102
{ACAD_REACTORS
330
11AC
102
}
330
11AC
100
AcDbScale
 70
     0
300
3/16" = 1'-0"
140
0.1875
141
12.0
290
     0
  0
SCALE
  5
11B5
102
{ACAD_REACTORS
330
11AC
102
}
330
11AC
100
AcDbScale
 70
     0
300
1/4" = 1'-0"
140
0.25
141
12.0
290
     0
  0
SCALE
  5
11B6
102
{ACAD_REACTORS
330
11AC
102
}
330
11AC
100
AcDbScale
 70
     0
300
3/8" = 1'-0"
140
0.375
141
12.0
290
     0
  0
SCALE
  5
11B7
102
{ACAD_REACTORS
330
11AC
102
}
330
11AC
100
AcDbScale
 70
     0
300
1/2" = 1'-0"
140
0.5
141
12.0
290
     0
  0
SCALE
  5
11B8
102
{ACAD_REACTORS
330
11AC
102
}
330
11AC
100
AcDbScale
 70
     0
300
3/4" = 1'-0"
140
0.75
141
12.0
290
     0
  0
SCALE
  5
11B9
102
{ACAD_REACTORS
330
11AC
102
}
330
11AC
100
AcDbScale
 70
     0
300
1" = 1'-0"
140
1.0
141
12.0
290
     0
  0
SCALE
  5
11BA
102
{ACAD_REACTORS
330
11AC
102
}
330
11AC
100
AcDbScale
 70
     0
300
1-1/2" = 1'-0"
140
1.5
141
12.0
290
     0
  0
SCALE
  5
11BB
102
{ACAD_REACTORS
330
11AC
102
}
330
11AC
100
AcDbScale
 70
     0
300
3" = 1'-0"
140
3.0
141
12.0
290
     0
  0
SCALE
  5
11BC
102
{ACAD_REACTORS
330
11AC
102
}
330
11AC
100
AcDbScale
 70
     0
300
6" = 1'-0"
140
6.0
141
12.0
290
     0
  0
SCALE
  5
11BD
102
{ACAD_REACTORS
330
11AC
102
}
330
11AC
100
AcDbScale
 70
     0
300
1'-0" = 1'-0"
140
12.0
141
12.0
290
     0
  0
ACDBSECTIONVIEWSTYLE
  5
11C2
102
{ACAD_REACTORS
330
11C0
102
}
330
11C0
100
AcDbModelDocViewStyle
 70
     0
  3
Imperial24
290
     0
100
AcDbSectionViewStyle
 70
     0
 71
     0
 90
       78
 71
     1
340
11
 62
   256
 40
0.24
340
0
340
0
 62
   256
 40
0.24
300
I, O, Q, S, X, Z
 40
0.48
 90
        3
 40
0.18
 90
        1
 71
     2
340
11C1
 90
       25
 62
   256
340
15
 90
       50
 62
   256
 40
0.24
 40
0.0
 40
0.24
 71
     3
340
11
 62
   256
 40
0.24
 90
        1
 40
0.75
 90
        1
300
%<\AcVar ViewType \f "%tc1">% %<\AcVar ViewSectionStartId>%-%<\AcVar ViewSectionEndId>%\PVARIA %<\AcVar ViewScale \f "%sn">%
 71
     4
 62
   256
 62
   257
300
ANSI31
 40
1.0
 90
        0
290
     0
290
     0
 90
        6
 40
0.0
 40
1.570796326794896
 40
0.2617993877991494
 40
1.308996938995747
 40
-0.2617993877991494
 40
1.832595714594046
  0
TABLESTYLE
  5
11AB
102
{ACAD_XDICTIONARY
360
132D
102
}
102
{ACAD_REACTORS
330
11AA
102
}
330
11AA
100
AcDbTableStyle
  3
Standard
 70
     0
 71
     0
 40
0.06
 41
0.06
280
     0
281
     0
  7
STANDARD
140
0.18
170
     2
 62
     0
 63
     7
283
     0
274
    -2
284
     1
 64
     0
275
    -2
285
     1
 65
     0
276
    -2
286
     1
 66
     0
277
    -2
287
     1
 67
     0
278
    -2
288
     1
 68
     0
279
    -2
289
     1
 69
     0
  7
STANDARD
140
0.25
170
     5
 62
     0
 63
     7
283
     0
274
    -2
284
     1
 64
     0
275
    -2
285
     1
 65
     0
276
    -2
286
     1
 66
     0
277
    -2
287
     1
 67
     0
278
    -2
288
     1
 68
     0
279
    -2
289
     1
 69
     0
  7
STANDARD
140
0.18
170
     5
 62
     0
 63
     7
283
     0
274
    -2
284
     1
 64
     0
275
    -2
285
     1
 65
     0
276
    -2
286
     1
 66
     0
277
    -2
287
     1
 67
     0
278
    -2
288
     1
 68
     0
279
    -2
289
     1
 69
     0
  0
VISUALSTYLE
  5
1197
102
{ACAD_XDICTIONARY
360
1B77
102
}
102
{ACAD_REACTORS
330
1191
102
}
330
1191
100
AcDbVisualStyle
  2
2dWireframe
 70
     4
 71
     0
 72
     2
 73
     0
 90
        0
 40
-0.6
 41
-30.0
 62
     5
 63
     7
421
 16777215
 74
     1
 91
        4
 64
     7
 65
   257
 75
     1
175
     1
 42
1.0
 92
        0
 66
   257
 43
1.0
 76
     1
 77
     6
 78
     2
 67
     7
 79
     5
170
     0
171
     0
290
     0
174
     0
 93
        1
 44
0.0
173
     0
291
     0
 45
0.0
1001
ACAD
1000
AcDbSavedByObjectVersion
1070
     0
  0
VISUALSTYLE
  5
1196
102
{ACAD_XDICTIONARY
360
1B75
102
}
102
{ACAD_REACTORS
330
1191
102
}
330
1191
100
AcDbVisualStyle
  2
Basic
 70
     7
 71
     1
 72
     0
 73
     1
 90
        0
 40
-0.6
 41
-30.0
 62
     5
 63
     7
421
 16777215
 74
     0
 91
        4
 64
     7
 65
   257
 75
     1
175
     1
 42
1.0
 92
        8
 66
     7
 43
1.0
 76
     1
 77
     6
 78
     2
 67
     7
 79
     5
170
     0
171
     0
290
     0
174
     0
 93
        1
 44
0.0
173
     0
291
     1
 45
0.0
1001
ACAD
1000
AcDbSavedByObjectVersion
1070
     0
  0
VISUALSTYLE
  5
119D
102
{ACAD_XDICTIONARY
360
1B83
102
}
102
{ACAD_REACTORS
330
1191
102
}
330
1191
100
AcDbVisualStyle
  2
Brighten
 70
    12
 71
     2
 72
     2
 73
     0
 90
        0
 40
-0.6
 41
-30.0
 62
     5
 63
     7
421
 16777215
 74
     1
 91
        4
 64
     7
 65
   257
 75
     1
175
     1
 42
1.0
 92
        8
 66
     7
 43
1.0
 76
     1
 77
     6
 78
     2
 67
     7
 79
     5
170
     0
171
     0
290
     0
174
     0
 93
        1
 44
50.0
173
     0
291
     1
 45
0.0
1001
ACAD
1000
AcDbSavedByObjectVersion
1070
     0
  0
VISUALSTYLE
  5
11A1
102
{ACAD_XDICTIONARY
360
1B8B
102
}
102
{ACAD_REACTORS
330
1191
102
}
330
1191
100
AcDbVisualStyle
  2
ColorChange
 70
    16
 71
     2
 72
     2
 73
     3
 90
        0
 40
-0.6
 41
-30.0
 62
     5
 63
     8
421
  8421504
 74
     1
 91
        4
 64
     7
 65
   257
 75
     1
175
     1
 42
1.0
 92
        8
 66
     8
424
  8421504
 43
1.0
 76
     1
 77
     6
 78
     2
 67
     7
 79
     5
170
     0
171
     0
290
     0
174
     0
 93
        1
 44
0.0
173
     0
291
     1
 45
0.0
1001
ACAD
1000
AcDbSavedByObjectVersion
1070
     0
  0
VISUALSTYLE
  5
119A
102
{ACAD_XDICTIONARY
360
1B7D
102
}
102
{ACAD_REACTORS
330
1191
102
}
330
1191
100
AcDbVisualStyle
  2
Conceptual
 70
     9
 71
     3
 72
     2
 73
     0
 90
        0
 40
-0.6
 41
-30.0
 62
     5
 63
     7
421
 16777215
 74
     2
 91
        2
 64
     7
 65
   257
 75
     1
175
     1
 42
179.0
 92
        8
 66
     7
 43
1.0
 76
     1
 77
     6
 78
     2
 67
     7
 79
     3
170
     0
171
     0
290
     0
174
     0
 93
        1
 44
0.0
173
     0
291
     0
 45
0.0
1001
ACAD
1000
AcDbSavedByObjectVersion
1070
     0
  0
VISUALSTYLE
  5
119C
102
{ACAD_XDICTIONARY
360
1B81
102
}
102
{ACAD_REACTORS
330
1191
102
}
330
1191
100
AcDbVisualStyle
  2
Dim
 70
    11
 71
     2
 72
     2
 73
     0
 90
        0
 40
-0.6
 41
-30.0
 62
     5
 63
     7
421
 16777215
 74
     1
 91
        4
 64
     7
 65
   257
 75
     1
175
     1
 42
1.0
 92
        8
 66
     7
 43
1.0
 76
     1
 77
     6
 78
     2
 67
     7
 79
     5
170
     0
171
     0
290
     0
174
     0
 93
        1
 44
-50.0
173
     0
291
     1
 45
0.0
1001
ACAD
1000
AcDbSavedByObjectVersion
1070
     0
  0
VISUALSTYLE
  5
11A9
102
{ACAD_XDICTIONARY
360
1B9B
102
}
102
{ACAD_REACTORS
330
1191
102
}
330
1191
100
AcDbVisualStyle
  2
EdgeColorOff
 70
    22
 71
     2
 72
     2
 73
     0
 90
        0
 40
-0.6
 41
-30.0
 62
     5
 63
     7
421
 16777215
 74
     1
 91
        4
 64
     7
 65
   257
 75
     1
175
     1
 42
1.0
 92
        8
 66
     7
 43
1.0
 76
     1
 77
     6
 78
     2
 67
     7
 79
     5
170
     0
171
     0
290
     0
174
     0
 93
        1
 44
0.0
173
     0
291
     1
 45
0.0
1001
ACAD
1000
AcDbSavedByObjectVersion
1070
     0
  0
VISUALSTYLE
  5
11A0
102
{ACAD_XDICTIONARY
360
1B89
102
}
102
{ACAD_REACTORS
330
1191
102
}
330
1191
100
AcDbVisualStyle
  2
Facepattern
 70
    15
 71
     2
 72
     2
 73
     0
 90
        0
 40
-0.6
 41
-30.0
 62
     5
 63
     7
421
 16777215
 74
     1
 91
        4
 64
     7
 65
   257
 75
     1
175
     1
 42
1.0
 92
        8
 66
     7
 43
1.0
 76
     1
 77
     6
 78
     2
 67
     7
 79
     5
170
     0
171
     0
290
     0
174
     0
 93
        1
 44
0.0
173
     0
291
     1
 45
0.0
1001
ACAD
1000
AcDbSavedByObjectVersion
1070
     0
  0
VISUALSTYLE
  5
1192
102
{ACAD_XDICTIONARY
360
1B6D
102
}
102
{ACAD_REACTORS
330
1191
102
}
330
1191
100
AcDbVisualStyle
  2
Flat
 70
     0
 71
     2
 72
     1
 73
     1
 90
        2
 40
-0.6
 41
30.0
 62
     5
 63
     7
421
 16777215
 74
     0
 91
        0
 64
     7
 65
   257
 75
     1
175
     1
 42
1.0
 92
        8
 66
     7
 43
1.0
 76
     1
 77
     6
 78
     2
 67
     7
 79
     5
170
     0
171
     0
290
     0
174
     0
 93
       13
 44
0.0
173
     0
291
     1
 45
0.0
1001
ACAD
1000
AcDbSavedByObjectVersion
1070
     0
  0
VISUALSTYLE
  5
1193
102
{ACAD_XDICTIONARY
360
1B6F
102
}
102
{ACAD_REACTORS
330
1191
102
}
330
1191
100
AcDbVisualStyle
  2
FlatWithEdges
 70
     1
 71
     2
 72
     1
 73
     1
 90
        2
 40
-0.6
 41
30.0
 62
     5
 63
     7
421
 16777215
 74
     1
 91
        0
 64
     7
 65
   257
 75
     1
175
     1
 42
1.0
 92
        0
 66
   257
 43
1.0
 76
     1
 77
     6
 78
     2
 67
     7
 79
     5
170
     0
171
     0
290
     0
174
     0
 93
       13
 44
0.0
173
     0
291
     1
 45
0.0
1001
ACAD
1000
AcDbSavedByObjectVersion
1070
     0
  0
VISUALSTYLE
  5
1194
102
{ACAD_XDICTIONARY
360
1B71
102
}
102
{ACAD_REACTORS
330
1191
102
}
330
1191
100
AcDbVisualStyle
  2
Gouraud
 70
     2
 71
     2
 72
     2
 73
     1
 90
        2
 40
-0.6
 41
30.0
 62
     5
 63
     7
421
 16777215
 74
     0
 91
        0
 64
     7
 65
   257
 75
     1
175
     1
 42
1.0
 92
        0
 66
     7
 43
1.0
 76
     1
 77
     6
 78
     2
 67
     7
 79
     5
170
     0
171
     0
290
     0
174
     0
 93
       13
 44
0.0
173
     0
291
     1
 45
0.0
1001
ACAD
1000
AcDbSavedByObjectVersion
1070
     0
  0
VISUALSTYLE
  5
1195
102
{ACAD_XDICTIONARY
360
1B73
102
}
102
{ACAD_REACTORS
330
1191
102
}
330
1191
100
AcDbVisualStyle
  2
GouraudWithEdges
 70
     3
 71
     2
 72
     2
 73
     1
 90
        2
 40
-0.6
 41
30.0
 62
     5
 63
     7
421
 16777215
 74
     1
 91
        0
 64
     7
 65
   257
 75
     1
175
     1
 42
1.0
 92
        0
 66
   257
 43
1.0
 76
     1
 77
     6
 78
     2
 67
     7
 79
     5
170
     0
171
     0
290
     0
174
     0
 93
       13
 44
0.0
173
     0
291
     1
 45
0.0
1001
ACAD
1000
AcDbSavedByObjectVersion
1070
     0
  0
VISUALSTYLE
  5
1199
102
{ACAD_XDICTIONARY
360
1B7B
102
}
102
{ACAD_REACTORS
330
1191
102
}
330
1191
100
AcDbVisualStyle
  2
Hidden
 70
     6
 71
     1
 72
     2
 73
     2
 90
        0
 40
-0.6
 41
-30.0
 62
     5
 63
     7
421
 16777215
 74
     2
 91
        2
 64
     7
 65
   257
 75
     2
175
     1
 42
40.0
 92
        0
 66
   257
 43
1.0
 76
     1
 77
     6
 78
     2
 67
     7
 79
     3
170
     0
171
     0
290
     0
174
     0
 93
        1
 44
0.0
173
     0
291
     0
 45
0.0
1001
ACAD
1000
AcDbSavedByObjectVersion
1070
     0
  0
VISUALSTYLE
  5
11A7
102
{ACAD_XDICTIONARY
360
1B97
102
}
102
{ACAD_REACTORS
330
1191
102
}
330
1191
100
AcDbVisualStyle
  2
JitterOff
 70
    20
 71
     2
 72
     2
 73
     0
 90
        0
 40
-0.6
 41
-30.0
 62
     5
 63
     7
421
 16777215
 74
     1
 91
        4
 64
     7
 65
   257
 75
     1
175
     1
 42
1.0
 92
       10
 66
     7
 43
1.0
 76
     1
 77
     6
 78
     2
 67
     7
 79
     5
170
     0
171
     0
290
     0
174
     0
 93
        1
 44
0.0
173
     0
291
     1
 45
0.0
1001
ACAD
1000
AcDbSavedByObjectVersion
1070
     0
  0
VISUALSTYLE
  5
119F
102
{ACAD_XDICTIONARY
360
1B87
102
}
102
{ACAD_REACTORS
330
1191
102
}
330
1191
100
AcDbVisualStyle
  2
Linepattern
 70
    14
 71
     2
 72
     2
 73
     0
 90
        0
 40
-0.6
 41
-30.0
 62
     5
 63
     7
421
 16777215
 74
     1
 91
        4
 64
     7
 65
   257
 75
     7
175
     7
 42
1.0
 92
        8
 66
     7
 43
1.0
 76
     1
 77
     6
 78
     2
 67
     7
 79
     5
170
     0
171
     0
290
     0
174
     0
 93
        1
 44
0.0
173
     0
291
     1
 45
0.0
1001
ACAD
1000
AcDbSavedByObjectVersion
1070
     0
  0
VISUALSTYLE
  5
11A8
102
{ACAD_XDICTIONARY
360
1B99
102
}
102
{ACAD_REACTORS
330
1191
102
}
330
1191
100
AcDbVisualStyle
  2
OverhangOff
 70
    21
 71
     2
 72
     2
 73
     0
 90
        0
 40
-0.6
 41
-30.0
 62
     5
 63
     7
421
 16777215
 74
     1
 91
        4
 64
     7
 65
   257
 75
     1
175
     1
 42
1.0
 92
        9
 66
     7
 43
1.0
 76
     1
 77
     6
 78
     2
 67
     7
 79
     5
170
     0
171
     0
290
     0
174
     0
 93
        1
 44
0.0
173
     0
291
     1
 45
0.0
1001
ACAD
1000
AcDbSavedByObjectVersion
1070
     0
  0
VISUALSTYLE
  5
119B
102
{ACAD_XDICTIONARY
360
1B7F
102
}
102
{ACAD_REACTORS
330
1191
102
}
330
1191
100
AcDbVisualStyle
  2
Realistic
 70
     8
 71
     2
 72
     2
 73
     0
 90
        2
 40
-0.6
 41
30.0
 62
     5
 63
     7
421
 16777215
 74
     0
 91
        0
 64
     7
 65
   257
 75
     1
175
     1
 42
1.0
 92
        8
 66
   257
 43
1.0
 76
     1
 77
     6
 78
     2
 67
     7
 79
     3
170
     0
171
     0
290
     0
174
     0
 93
       13
 44
0.0
173
     0
291
     0
 45
0.0
1001
ACAD
1000
AcDbSavedByObjectVersion
1070
     0
  0
VISUALSTYLE
  5
11A6
102
{ACAD_XDICTIONARY
360
1B95
102
}
102
{ACAD_REACTORS
330
1191
102
}
330
1191
100
AcDbVisualStyle
  2
Shaded
 70
    27
 71
     2
 72
     2
 73
     1
 90
        2
 40
-0.6
 41
30.0
 62
     5
 63
     7
421
 16777215
 74
     0
 91
        4
 64
     7
 65
   257
 75
     1
175
     1
 42
1.0
 92
        8
 66
   257
 43
1.0
 76
     1
 77
     6
 78
     2
 67
     8
425
  7895160
 79
     3
170
     0
171
     0
290
     0
174
     0
 93
        5
 44
0.0
173
     0
291
     0
 45
0.0
1001
ACAD
1000
AcDbSavedByObjectVersion
1070
     0
  0
VISUALSTYLE
  5
11A5
102
{ACAD_XDICTIONARY
360
1B93
102
}
102
{ACAD_REACTORS
330
1191
102
}
330
1191
100
AcDbVisualStyle
  2
Shaded with edges
 70
    26
 71
     2
 72
     2
 73
     1
 90
        2
 40
-0.6
 41
30.0
 62
     5
 63
     7
421
 16777215
 74
     1
 91
       10
 64
     7
 65
   257
 75
     2
175
     1
 42
1.0
 92
        8
 66
   257
 43
1.0
 76
     1
 77
     6
 78
     2
 67
     7
 79
     3
170
     0
171
     0
290
     0
174
     0
 93
        5
 44
0.0
173
     0
291
     0
 45
0.0
1001
ACAD
1000
AcDbSavedByObjectVersion
1070
     0
  0
VISUALSTYLE
  5
11A2
102
{ACAD_XDICTIONARY
360
1B8D
102
}
102
{ACAD_REACTORS
330
1191
102
}
330
1191
100
AcDbVisualStyle
  2
Shades of Gray
 70
    23
 71
     2
 72
     2
 73
     3
 90
        0
 40
-0.6
 41
-30.0
 62
     5
 63
     7
421
 16777215
 74
     2
 91
        2
 64
     7
 65
     7
 75
     1
175
     1
 42
40.0
 92
        8
 66
     7
 43
1.0
 76
     1
 77
     6
 78
     2
 67
     7
 79
     3
170
     0
171
     0
290
     0
174
     0
 93
        1
 44
0.0
173
     0
291
     0
 45
0.0
1001
ACAD
1000
AcDbSavedByObjectVersion
1070
     0
  0
VISUALSTYLE
  5
11A3
102
{ACAD_XDICTIONARY
360
1B8F
102
}
102
{ACAD_REACTORS
330
1191
102
}
330
1191
100
AcDbVisualStyle
  2
Sketchy
 70
    24
 71
     1
 72
     2
 73
     2
 90
        0
 40
-0.6
 41
-30.0
 62
     5
 63
     7
421
 16777215
 74
     2
 91
        2
 64
     7
 65
     7
 75
     1
175
     1
 42
40.0
 92
       11
 66
     7
 43
1.0
 76
     1
 77
     6
 78
     2
 67
     7
 79
     6
170
     0
171
     0
290
     0
174
     0
 93
        1
 44
0.0
173
     0
291
     0
 45
0.0
1001
ACAD
1000
AcDbSavedByObjectVersion
1070
     0
  0
VISUALSTYLE
  5
119E
102
{ACAD_XDICTIONARY
360
1B85
102
}
102
{ACAD_REACTORS
330
1191
102
}
330
1191
100
AcDbVisualStyle
  2
Thicken
 70
    13
 71
     2
 72
     2
 73
     0
 90
        0
 40
-0.6
 41
-30.0
 62
     5
 63
     7
421
 16777215
 74
     1
 91
        4
 64
     7
 65
   257
 75
     1
175
     1
 42
1.0
 92
       12
 66
     7
 43
1.0
 76
     1
 77
     6
 78
     2
 67
     7
 79
     5
170
     0
171
     0
290
     0
174
     0
 93
        1
 44
0.0
173
     0
291
     1
 45
0.0
1001
ACAD
1000
AcDbSavedByObjectVersion
1070
     0
  0
VISUALSTYLE
  5
1198
102
{ACAD_XDICTIONARY
360
1B79
102
}
102
{ACAD_REACTORS
330
1191
102
}
330
1191
100
AcDbVisualStyle
  2
Wireframe
 70
     5
 71
     0
 72
     2
 73
     0
 90
        0
 40
-0.6
 41
-30.0
 62
     5
 63
     7
421
 16777215
 74
     1
 91
        4
 64
     7
 65
   257
 75
     1
175
     1
 42
1.0
 92
        0
 66
   257
 43
1.0
 76
     1
 77
     6
 78
     2
 67
     7
 79
     3
170
     0
171
     0
290
     0
174
     0
 93
        1
 44
0.0
173
     0
291
     0
 45
0.0
1001
ACAD
1000
AcDbSavedByObjectVersion
1070
     0
  0
VISUALSTYLE
  5
11A4
102
{ACAD_XDICTIONARY
360
1B91
102
}
102
{ACAD_REACTORS
330
1191
102
}
330
1191
100
AcDbVisualStyle
  2
X-Ray
 70
    25
 71
     2
 72
     2
 73
     1
 90
        1
 40
0.5
 41
-30.0
 62
     5
 63
     7
421
 16777215
 74
     1
 91
        0
 64
     7
 65
   257
 75
     1
175
     1
 42
1.0
 92
        8
 66
     7
 43
1.0
 76
     1
 77
     6
 78
     2
 67
     7
 79
     3
170
     0
171
     0
290
     0
174
     0
 93
       13
 44
0.0
173
     0
291
     0
 45
0.0
1001
ACAD
1000
AcDbSavedByObjectVersion
1070
     0
  0
DICTIONARYVAR
  5
136D
102
{ACAD_REACTORS
330
125
102
}
330
125
100
DictionaryVariables
280
     0
  1
1:1
  0
DICTIONARYVAR
  5
136A
102
{ACAD_REACTORS
330
125
102
}
330
125
100
DictionaryVariables
280
     0
  1
STANDARD
  0
DICTIONARYVAR
  5
1369
102
{ACAD_REACTORS
330
125
102
}
330
125
100
DictionaryVariables
280
     0
  1
STANDARD
  0
DICTIONARYVAR
  5
136B
102
{ACAD_REACTORS
330
125
102
}
330
125
100
DictionaryVariables
280
     0
  1
Imperial24
  0
DICTIONARYVAR
  5
136C
102
{ACAD_REACTORS
330
125
102
}
330
125
100
DictionaryVariables
280
     0
  1
Imperial24
  0
DICTIONARYVAR
  5
126
102
{ACAD_REACTORS
330
125
102
}
330
125
100
DictionaryVariables
280
     0
  1
1
  0
DICTIONARYVAR
  5
127
102
{ACAD_REACTORS
330
125
102
}
330
125
100
DictionaryVariables
280
     0
  1

  0
DICTIONARY
  5
1B69
102
{ACAD_REACTORS
330
1B67
102
}
330
1B67
100
AcDbDictionary
281
     1
  0
DICTIONARY
  5
1B68
102
{ACAD_REACTORS
330
1B67
102
}
330
1B67
100
AcDbDictionary
281
     1
  3
8796083787040
350
1B62
  3
8796083787056
350
1B63
  3
8796083787072
350
1B64
  3
8796083787088
350
1B65
  3
8796083787104
350
1B66
  0
DICTIONARY
  5
1182
330
1181
100
AcDbDictionary
280
     1
281
     1
  3
ACAD_XREC_ROUNDTRIP
360
1B6B
  3
BUMPTILE
360
1184
  3
DIFFUSETILE
360
1183
  3
OPACITYTILE
360
1187
  3
REFLECTIONTILE
360
1186
  3
REFRACTIONTILE
360
1188
  3
SPECULARTILE
360
1185
  0
DICTIONARY
  5
117A
330
1179
100
AcDbDictionary
280
     1
281
     1
  3
ACAD_XREC_ROUNDTRIP
360
1B6A
  3
BUMPTILE
360
117C
  3
DIFFUSETILE
360
117B
  3
OPACITYTILE
360
117F
  3
REFLECTIONTILE
360
117E
  3
REFRACTIONTILE
360
1180
  3
SPECULARTILE
360
117D
  0
DICTIONARY
  5
118A
330
1189
100
AcDbDictionary
280
     1
281
     1
  3
ACAD_XREC_ROUNDTRIP
360
1B6C
  3
BUMPTILE
360
118C
  3
DIFFUSETILE
360
118B
  3
OPACITYTILE
360
118F
  3
REFLECTIONTILE
360
118E
  3
REFRACTIONTILE
360
1190
  3
SPECULARTILE
360
118D
  0
DICTIONARY
  5
1B9E
330
11BF
100
AcDbDictionary
280
     1
281
     1
  3
ACAD_XREC_ROUNDTRIP
360
1B9F
  0
DICTIONARY
  5
132D
330
11AB
100
AcDbDictionary
280
     1
281
     1
  3
ACAD_ROUNDTRIP_2008_TABLESTYLE_CELLSTYLEMAP
360
1B60
  3
ACAD_XREC_ROUNDTRIP
360
1B9D
  0
DICTIONARY
  5
1B77
330
1197
100
AcDbDictionary
280
     1
281
     1
  3
ACAD_XREC_ROUNDTRIP
360
1B78
  0
DICTIONARY
  5
1B75
330
1196
100
AcDbDictionary
280
     1
281
     1
  3
ACAD_XREC_ROUNDTRIP
360
1B76
  0
DICTIONARY
  5
1B83
330
119D
100
AcDbDictionary
280
     1
281
     1
  3
ACAD_XREC_ROUNDTRIP
360
1B84
  0
DICTIONARY
  5
1B8B
330
11A1
100
AcDbDictionary
280
     1
281
     1
  3
ACAD_XREC_ROUNDTRIP
360
1B8C
  0
DICTIONARY
  5
1B7D
330
119A
100
AcDbDictionary
280
     1
281
     1
  3
ACAD_XREC_ROUNDTRIP
360
1B7E
  0
DICTIONARY
  5
1B81
330
119C
100
AcDbDictionary
280
     1
281
     1
  3
ACAD_XREC_ROUNDTRIP
360
1B82
  0
DICTIONARY
  5
1B9B
330
11A9
100
AcDbDictionary
280
     1
281
     1
  3
ACAD_XREC_ROUNDTRIP
360
1B9C
  0
DICTIONARY
  5
1B89
330
11A0
100
AcDbDictionary
280
     1
281
     1
  3
ACAD_XREC_ROUNDTRIP
360
1B8A
  0
DICTIONARY
  5
1B6D
330
1192
100
AcDbDictionary
280
     1
281
     1
  3
ACAD_XREC_ROUNDTRIP
360
1B6E
  0
DICTIONARY
  5
1B6F
330
1193
100
AcDbDictionary
280
     1
281
     1
  3
ACAD_XREC_ROUNDTRIP
360
1B70
  0
DICTIONARY
  5
1B71
330
1194
100
AcDbDictionary
280
     1
281
     1
  3
ACAD_XREC_ROUNDTRIP
360
1B72
  0
DICTIONARY
  5
1B73
330
1195
100
AcDbDictionary
280
     1
281
     1
  3
ACAD_XREC_ROUNDTRIP
360
1B74
  0
DICTIONARY
  5
1B7B
330
1199
100
AcDbDictionary
280
     1
281
     1
  3
ACAD_XREC_ROUNDTRIP
360
1B7C
  0
DICTIONARY
  5
1B97
330
11A7
100
AcDbDictionary
280
     1
281
     1
  3
ACAD_XREC_ROUNDTRIP
360
1B98
  0
DICTIONARY
  5
1B87
330
119F
100
AcDbDictionary
280
     1
281
     1
  3
ACAD_XREC_ROUNDTRIP
360
1B88
  0
DICTIONARY
  5
1B99
330
11A8
100
AcDbDictionary
280
     1
281
     1
  3
ACAD_XREC_ROUNDTRIP
360
1B9A
  0
DICTIONARY
  5
1B7F
330
119B
100
AcDbDictionary
280
     1
281
     1
  3
ACAD_XREC_ROUNDTRIP
360
1B80
  0
DICTIONARY
  5
1B95
330
11A6
100
AcDbDictionary
280
     1
281
     1
  3
ACAD_XREC_ROUNDTRIP
360
1B96
  0
DICTIONARY
  5
1B93
330
11A5
100
AcDbDictionary
280
     1
281
     1
  3
ACAD_XREC_ROUNDTRIP
360
1B94
  0
DICTIONARY
  5
1B8D
330
11A2
100
AcDbDictionary
280
     1
281
     1
  3
ACAD_XREC_ROUNDTRIP
360
1B8E
  0
DICTIONARY
  5
1B8F
330
11A3
100
AcDbDictionary
280
     1
281
     1
  3
ACAD_XREC_ROUNDTRIP
360
1B90
  0
DICTIONARY
  5
1B85
330
119E
100
AcDbDictionary
280
     1
281
     1
  3
ACAD_XREC_ROUNDTRIP
360
1B86
  0
DICTIONARY
  5
1B79
330
1198
100
AcDbDictionary
280
     1
281
     1
  3
ACAD_XREC_ROUNDTRIP
360
1B7A
  0
DICTIONARY
  5
1B91
330
11A4
100
AcDbDictionary
280
     1
281
     1
  3
ACAD_XREC_ROUNDTRIP
360
1B92
  0
XRECORD
  5
1B62
102
{ACAD_REACTORS
330
1B68
102
}
330
1B68
100
AcDbXrecord
280
     1
  1
AcDb_Thumbnail_Schema
102
{ATTRRECORD
341
1B63
  2
AcDbDs::TreatedAsObjectData
280
     1
291
     1
102
ATTRRECORD}
102
{ATTRRECORD
341
1B64
  2
AcDbDs::Legacy
280
     1
291
     1
102
ATTRRECORD}
  2
AcDbDs::ID
280
    10
 91
        8
102
{ATTRRECORD
341
1B65
  2
AcDs:Indexable
280
     1
291
     1
102
ATTRRECORD}
102
{ATTRRECORD
341
1B66
  2
AcDbDs::HandleAttribute
280
     7
282
     1
102
ATTRRECORD}
  2
Thumbnail_Data
280
    15
 91
        0
  0
XRECORD
  5
1B63
102
{ACAD_REACTORS
330
1B68
102
}
330
1B68
100
AcDbXrecord
280
     1
  1
AcDbDs::TreatedAsObjectDataSchema
  2
AcDbDs::TreatedAsObjectData
280
     1
 91
        0
  0
XRECORD
  5
1B64
102
{ACAD_REACTORS
330
1B68
102
}
330
1B68
100
AcDbXrecord
280
     1
  1
AcDbDs::LegacySchema
  2
AcDbDs::Legacy
280
     1
 91
        0
  0
XRECORD
  5
1B65
102
{ACAD_REACTORS
330
1B68
102
}
330
1B68
100
AcDbXrecord
280
     1
  1
AcDbDs::IndexedPropertySchema
  2
AcDs:Indexable
280
     1
 91
        0
  0
XRECORD
  5
1B66
102
{ACAD_REACTORS
330
1B68
102
}
330
1B68
100
AcDbXrecord
280
     1
  1
AcDbDs::HandleAttributeSchema
  2
AcDbDs::HandleAttribute
280
     7
 91
        1
284
     1
  0
XRECORD
  5
1B6B
102
{ACAD_REACTORS
330
1182
102
}
330
1182
100
AcDbXrecord
280
     1
102
MATERIAL
148
0.0
149
0.0
149
0.0
 93
        0
 94
      127
282
     0
 72
     0
 77
     0
171
     0
175
     0
179
     0
273
     0
  0
XRECORD
  5
1184
102
{ACAD_REACTORS
330
1182
102
}
330
1182
100
AcDbXrecord
280
     1
270
     1
271
     1
  0
XRECORD
  5
1183
102
{ACAD_REACTORS
330
1182
102
}
330
1182
100
AcDbXrecord
280
     1
270
     1
271
     1
  0
XRECORD
  5
1187
102
{ACAD_REACTORS
330
1182
102
}
330
1182
100
AcDbXrecord
280
     1
270
     1
271
     1
  0
XRECORD
  5
1186
102
{ACAD_REACTORS
330
1182
102
}
330
1182
100
AcDbXrecord
280
     1
270
     1
271
     1
  0
XRECORD
  5
1188
102
{ACAD_REACTORS
330
1182
102
}
330
1182
100
AcDbXrecord
280
     1
270
     1
271
     1
  0
XRECORD
  5
1185
102
{ACAD_REACTORS
330
1182
102
}
330
1182
100
AcDbXrecord
280
     1
270
     1
271
     1
  0
XRECORD
  5
1B6A
102
{ACAD_REACTORS
330
117A
102
}
330
117A
100
AcDbXrecord
280
     1
102
MATERIAL
148
0.0
149
0.0
149
0.0
 93
        0
 94
      127
282
     0
 72
     0
 77
     0
171
     0
175
     0
179
     0
273
     0
  0
XRECORD
  5
117C
102
{ACAD_REACTORS
330
117A
102
}
330
117A
100
AcDbXrecord
280
     1
270
     1
271
     1
  0
XRECORD
  5
117B
102
{ACAD_REACTORS
330
117A
102
}
330
117A
100
AcDbXrecord
280
     1
270
     1
271
     1
  0
XRECORD
  5
117F
102
{ACAD_REACTORS
330
117A
102
}
330
117A
100
AcDbXrecord
280
     1
270
     1
271
     1
  0
XRECORD
  5
117E
102
{ACAD_REACTORS
330
117A
102
}
330
117A
100
AcDbXrecord
280
     1
270
     1
271
     1
  0
XRECORD
  5
1180
102
{ACAD_REACTORS
330
117A
102
}
330
117A
100
AcDbXrecord
280
     1
270
     1
271
     1
  0
XRECORD
  5
117D
102
{ACAD_REACTORS
330
117A
102
}
330
117A
100
AcDbXrecord
280
     1
270
     1
271
     1
  0
XRECORD
  5
1B6C
102
{ACAD_REACTORS
330
118A
102
}
330
118A
100
AcDbXrecord
280
     1
102
MATERIAL
148
0.0
149
0.0
149
0.0
 93
        0
 94
      127
282
     0
 72
     0
 77
     0
171
     0
175
     0
179
     0
273
     0
  0
XRECORD
  5
118C
102
{ACAD_REACTORS
330
118A
102
}
330
118A
100
AcDbXrecord
280
     1
270
     1
271
     1
  0
XRECORD
  5
118B
102
{ACAD_REACTORS
330
118A
102
}
330
118A
100
AcDbXrecord
280
     1
270
     1
271
     1
  0
XRECORD
  5
118F
102
{ACAD_REACTORS
330
118A
102
}
330
118A
100
AcDbXrecord
280
     1
270
     1
271
     1
  0
XRECORD
  5
118E
102
{ACAD_REACTORS
330
118A
102
}
330
118A
100
AcDbXrecord
280
     1
270
     1
271
     1
  0
XRECORD
  5
1190
102
{ACAD_REACTORS
330
118A
102
}
330
118A
100
AcDbXrecord
280
     1
270
     1
271
     1
  0
XRECORD
  5
118D
102
{ACAD_REACTORS
330
118A
102
}
330
118A
100
AcDbXrecord
280
     1
270
     1
271
     1
  0
XRECORD
  5
1B9F
102
{ACAD_REACTORS
330
1B9E
102
}
330
1B9E
100
AcDbXrecord
280
     1
102
ACAD_ROUNDTRIP_2012_MLEADER_STYLE
298
     1
  0
CELLSTYLEMAP
  5
1B60
102
{ACAD_REACTORS
330
132D
102
}
330
132D
100
AcDbCellStyleMap
 90
        3
300
CELLSTYLE
  1
TABLEFORMAT_BEGIN
 90
        5
170
     1
 91
        0
 92
    32768
 62
   257
 93
        1
300
CONTENTFORMAT
  1
CONTENTFORMAT_BEGIN
 90
        0
 91
        0
 92
      512
 93
        0
300

 40
0.0
140
1.0
 94
        5
 62
     0
340
11
144
0.25
309
CONTENTFORMAT_END
171
     0
 94
        0
309
TABLEFORMAT_END
  1
CELLSTYLE_BEGIN
 90
        1
 91
        1
300
_TITLE
309
CELLSTYLE_END
300
CELLSTYLE
  1
TABLEFORMAT_BEGIN
 90
        5
170
     1
 91
        0
 92
        0
 62
   257
 93
        1
300
CONTENTFORMAT
  1
CONTENTFORMAT_BEGIN
 90
        0
 91
        0
 92
      512
 93
        0
300

 40
0.0
140
1.0
 94
        5
 62
     0
340
11
144
0.18
309
CONTENTFORMAT_END
171
     0
 94
        0
309
TABLEFORMAT_END
  1
CELLSTYLE_BEGIN
 90
        2
 91
        1
300
_HEADER
309
CELLSTYLE_END
300
CELLSTYLE
  1
TABLEFORMAT_BEGIN
 90
        5
170
     1
 91
        0
 92
        0
 62
   257
 93
        1
300
CONTENTFORMAT
  1
CONTENTFORMAT_BEGIN
 90
        0
 91
        0
 92
      512
 93
        0
300

 40
0.0
140
1.0
 94
        2
 62
     0
340
11
144
0.18
309
CONTENTFORMAT_END
171
     0
 94
        0
309
TABLEFORMAT_END
  1
CELLSTYLE_BEGIN
 90
        3
 91
        2
300
_DATA
309
CELLSTYLE_END
  0
XRECORD
  5
1B9D
102
{ACAD_REACTORS
330
132D
102
}
330
132D
100
AcDbXrecord
280
     1
102
ACAD_ROUNDTRIP_PRE2007_TABLESTYLE
 90
      512
 91
        0
  1

 92
      512
 93
        0
  2

 94
      512
 95
        0
  3

  0
XRECORD
  5
1B78
102
{ACAD_REACTORS
330
1B77
102
}
330
1B77
100
AcDbXrecord
280
     1
102
RTVSPost2010Prop28
280
     1
102
RTVSPost2010PropOp28
 70
     1
102
RTVSPost2010Prop29
280
     1
102
RTVSPost2010PropOp29
 70
     1
102
RTVSPost2010Prop30
280
     0
102
RTVSPost2010PropOp30
 70
     1
102
RTVSPost2010Prop31
280
     0
102
RTVSPost2010PropOp31
 70
     1
102
RTVSPost2010Prop32
280
     0
102
RTVSPost2010PropOp32
 70
     1
102
RTVSPost2010Prop33
280
     0
102
RTVSPost2010PropOp33
 70
     1
102
RTVSPost2010Prop34
280
     0
102
RTVSPost2010PropOp34
 70
     1
102
RTVSPost2010Prop35
280
     0
102
RTVSPost2010PropOp35
 70
     1
102
RTVSPost2010Prop36
280
     0
102
RTVSPost2010PropOp36
 70
     1
102
RTVSPost2010Prop37
 90
       50
102
RTVSPost2010PropOp37
 70
     1
102
RTVSPost2010Prop38
140
0.0
102
RTVSPost2010PropOp38
 70
     1
102
RTVSPost2010Prop39
140
1.0
102
RTVSPost2010PropOp39
 70
     1
102
RTVSPost2010Prop40
 90
        0
102
RTVSPost2010PropOp40
 70
     1
102
RTVSPost2010Prop41ColorIndex
 90
       18
102
RTVSPost2010Prop41ColorRGB
 90
        0
102
RTVSPost2010PropOp41
 70
     1
102
RTVSPost2010Prop42
 90
       50
102
RTVSPost2010PropOp42
 70
     1
102
RTVSPost2010Prop43
 90
        3
102
RTVSPost2010PropOp43
 70
     1
102
RTVSPost2010Prop44ColorIndex
 90
        5
102
RTVSPost2010Prop44ColorRGB
 90
      255
102
RTVSPost2010PropOp44
 70
     1
102
RTVSPost2010Prop45
280
     0
102
RTVSPost2010PropOp45
 70
     1
102
RTVSPost2010Prop46
 90
       50
102
RTVSPost2010PropOp46
 70
     1
102
RTVSPost2010Prop47
 90
       50
102
RTVSPost2010PropOp47
 70
     1
102
RTVSPost2010Prop48
 90
       50
102
RTVSPost2010PropOp48
 70
     1
102
RTVSPost2010Prop49
280
     0
102
RTVSPost2010PropOp49
 70
     1
102
RTVSPost2010Prop50
 90
       50
102
RTVSPost2010PropOp50
 70
     1
102
RTVSPost2010Prop51ColorIndex
 90
      256
102
RTVSPost2010Prop51ColorRGB
 90
-16777216
102
RTVSPost2010PropOp51
 70
     0
102
RTVSPost2010Prop52
140
1.0
102
RTVSPost2010PropOp52
 70
     0
102
RTVSPost2010Prop53
 90
        2
102
RTVSPost2010PropOp53
 70
     1
102
RTVSPost2010Prop54
  1
strokes_ogs.tif
102
RTVSPost2010PropOp54
 70
     1
102
RTVSPost2010Prop55
280
     0
102
RTVSPost2010PropOp55
 70
     1
102
RTVSPost2010Prop56
140
1.0
102
RTVSPost2010PropOp56
 70
     1
102
RTVSPost2010Prop57
140
1.0
102
RTVSPost2010PropOp57
 70
     1
102
RTVSPropertyOp0
 70
     1
102
RTVSPropertyOp1
 70
     1
102
RTVSPropertyOp2
 70
     1
102
RTVSPropertyOp3
 70
     1
102
RTVSPropertyOp4
 70
     1
102
RTVSPropertyOp5
 70
     1
102
RTVSPropertyOp6
 70
     1
102
RTVSPropertyOp7
 70
     1
102
RTVSPropertyOp8
 70
     1
102
RTVSPropertyOp9
 70
     1
102
RTVSPropertyOp10
 70
     1
102
RTVSPropertyOp11
 70
     1
102
RTVSPropertyOp12
 70
     1
102
RTVSPropertyOp13
 70
     1
102
RTVSPropertyOp14
 70
     1
102
RTVSPropertyOp15
 70
     1
102
RTVSPropertyOp16
 70
     1
102
RTVSPropertyOp17
 70
     1
102
RTVSPropertyOp18
 70
     1
102
RTVSPropertyOp19
 70
     1
102
RTVSPropertyOp20
 70
     1
102
RTVSPropertyOp21
 70
     1
102
RTVSPropertyOp22
 70
     1
102
RTVSPropertyOp23
 70
     1
102
RTVSPropertyOp24
 70
     1
102
RTVSPropertyOp25
 70
     1
102
RTVSPropertyOp26
 70
     1
102
RTVSPropertyOp27
 70
     1
102
RTVSPropertyOp28
 70
     1
102
RTVSPropertyOp29
 70
     1
102
RTVSPropertyOp30
 70
     1
102
RTVSPropertyOp31
 70
     1
102
RTVSPropertyOp32
 70
     1
102
RTVSPropertyOp33
 70
     1
102
RTVSPropertyOp34
 70
     1
102
RTVSPropertyOp35
 70
     1
102
RTVSPropertyOp36
 70
     1
102
RTVSPropertyOp37
 70
     1
102
RTVSPropertyOp38
 70
     1
102
RTVSPropertyOp39
 70
     1
102
RTVSPropertyOp40
 70
     1
102
RTVSPropertyOp41
 70
     1
102
RTVSPropertyOp42
 70
     1
102
RTVSPropertyOp43
 70
     1
102
RTVSPropertyOp44
 70
     1
102
RTVSPropertyOp45
 70
     1
102
RTVSPropertyOp46
 70
     1
102
RTVSPropertyOp47
 70
     1
102
RTVSPropertyOp48
 70
     1
102
RTVSPropertyOp49
 70
     1
102
RTVSPropertyOp50
 70
     1
102
RTVSPropertyOp51
 70
     0
102
RTVSPropertyOp52
 70
     0
102
RTVSPropertyOp53
 70
     1
102
RTVSPropertyOp54
 70
     1
102
RTVSPropertyOp55
 70
     1
102
RTVSPropertyOp56
 70
     1
102
RTVSPropertyOp57
 70
     1
102
RTVSPropertyOp58
 70
     1
102
RTVSPropertyOp59
 70
     1
102
RTVSPropertyOp60
 70
     1
102
RTVSPropertyOp61
 70
     1
102
RTVSPropertyOp62
 70
     1
  0
XRECORD
  5
1B76
102
{ACAD_REACTORS
330
1B75
102
}
330
1B75
100
AcDbXrecord
280
     1
102
RTVSPost2010Prop28
280
     0
102
RTVSPost2010PropOp28
 70
     1
102
RTVSPost2010Prop29
280
     1
102
RTVSPost2010PropOp29
 70
     1
102
RTVSPost2010Prop30
280
     1
102
RTVSPost2010PropOp30
 70
     1
102
RTVSPost2010Prop31
280
     0
102
RTVSPost2010PropOp31
 70
     1
102
RTVSPost2010Prop32
280
     0
102
RTVSPost2010PropOp32
 70
     1
102
RTVSPost2010Prop33
280
     0
102
RTVSPost2010PropOp33
 70
     1
102
RTVSPost2010Prop34
280
     0
102
RTVSPost2010PropOp34
 70
     1
102
RTVSPost2010Prop35
280
     0
102
RTVSPost2010PropOp35
 70
     1
102
RTVSPost2010Prop36
280
     0
102
RTVSPost2010PropOp36
 70
     1
102
RTVSPost2010Prop37
 90
       50
102
RTVSPost2010PropOp37
 70
     1
102
RTVSPost2010Prop38
140
0.0
102
RTVSPost2010PropOp38
 70
     1
102
RTVSPost2010Prop39
140
1.0
102
RTVSPost2010PropOp39
 70
     1
102
RTVSPost2010Prop40
 90
        0
102
RTVSPost2010PropOp40
 70
     1
102
RTVSPost2010Prop41ColorIndex
 90
       18
102
RTVSPost2010Prop41ColorRGB
 90
        0
102
RTVSPost2010PropOp41
 70
     1
102
RTVSPost2010Prop42
 90
       50
102
RTVSPost2010PropOp42
 70
     1
102
RTVSPost2010Prop43
 90
        3
102
RTVSPost2010PropOp43
 70
     1
102
RTVSPost2010Prop44ColorIndex
 90
        5
102
RTVSPost2010Prop44ColorRGB
 90
      255
102
RTVSPost2010PropOp44
 70
     1
102
RTVSPost2010Prop45
280
     0
102
RTVSPost2010PropOp45
 70
     1
102
RTVSPost2010Prop46
 90
       50
102
RTVSPost2010PropOp46
 70
     1
102
RTVSPost2010Prop47
 90
       50
102
RTVSPost2010PropOp47
 70
     1
102
RTVSPost2010Prop48
 90
       50
102
RTVSPost2010PropOp48
 70
     1
102
RTVSPost2010Prop49
280
     0
102
RTVSPost2010PropOp49
 70
     1
102
RTVSPost2010Prop50
 90
       50
102
RTVSPost2010PropOp50
 70
     1
102
RTVSPost2010Prop51ColorIndex
 90
      256
102
RTVSPost2010Prop51ColorRGB
 90
-16777216
102
RTVSPost2010PropOp51
 70
     0
102
RTVSPost2010Prop52
140
1.0
102
RTVSPost2010PropOp52
 70
     0
102
RTVSPost2010Prop53
 90
        2
102
RTVSPost2010PropOp53
 70
     1
102
RTVSPost2010Prop54
  1
strokes_ogs.tif
102
RTVSPost2010PropOp54
 70
     1
102
RTVSPost2010Prop55
280
     0
102
RTVSPost2010PropOp55
 70
     1
102
RTVSPost2010Prop56
140
1.0
102
RTVSPost2010PropOp56
 70
     1
102
RTVSPost2010Prop57
140
1.0
102
RTVSPost2010PropOp57
 70
     1
102
RTVSPropertyOp0
 70
     1
102
RTVSPropertyOp1
 70
     1
102
RTVSPropertyOp2
 70
     1
102
RTVSPropertyOp3
 70
     1
102
RTVSPropertyOp4
 70
     1
102
RTVSPropertyOp5
 70
     1
102
RTVSPropertyOp6
 70
     1
102
RTVSPropertyOp7
 70
     1
102
RTVSPropertyOp8
 70
     1
102
RTVSPropertyOp9
 70
     1
102
RTVSPropertyOp10
 70
     1
102
RTVSPropertyOp11
 70
     1
102
RTVSPropertyOp12
 70
     1
102
RTVSPropertyOp13
 70
     1
102
RTVSPropertyOp14
 70
     1
102
RTVSPropertyOp15
 70
     1
102
RTVSPropertyOp16
 70
     1
102
RTVSPropertyOp17
 70
     1
102
RTVSPropertyOp18
 70
     1
102
RTVSPropertyOp19
 70
     1
102
RTVSPropertyOp20
 70
     1
102
RTVSPropertyOp21
 70
     1
102
RTVSPropertyOp22
 70
     1
102
RTVSPropertyOp23
 70
     1
102
RTVSPropertyOp24
 70
     1
102
RTVSPropertyOp25
 70
     1
102
RTVSPropertyOp26
 70
     1
102
RTVSPropertyOp27
 70
     1
102
RTVSPropertyOp28
 70
     1
102
RTVSPropertyOp29
 70
     1
102
RTVSPropertyOp30
 70
     1
102
RTVSPropertyOp31
 70
     1
102
RTVSPropertyOp32
 70
     1
102
RTVSPropertyOp33
 70
     1
102
RTVSPropertyOp34
 70
     1
102
RTVSPropertyOp35
 70
     1
102
RTVSPropertyOp36
 70
     1
102
RTVSPropertyOp37
 70
     1
102
RTVSPropertyOp38
 70
     1
102
RTVSPropertyOp39
 70
     1
102
RTVSPropertyOp40
 70
     1
102
RTVSPropertyOp41
 70
     1
102
RTVSPropertyOp42
 70
     1
102
RTVSPropertyOp43
 70
     1
102
RTVSPropertyOp44
 70
     1
102
RTVSPropertyOp45
 70
     1
102
RTVSPropertyOp46
 70
     1
102
RTVSPropertyOp47
 70
     1
102
RTVSPropertyOp48
 70
     1
102
RTVSPropertyOp49
 70
     1
102
RTVSPropertyOp50
 70
     1
102
RTVSPropertyOp51
 70
     0
102
RTVSPropertyOp52
 70
     0
102
RTVSPropertyOp53
 70
     1
102
RTVSPropertyOp54
 70
     1
102
RTVSPropertyOp55
 70
     1
102
RTVSPropertyOp56
 70
     1
102
RTVSPropertyOp57
 70
     1
102
RTVSPropertyOp58
 70
     1
102
RTVSPropertyOp59
 70
     1
102
RTVSPropertyOp60
 70
     1
102
RTVSPropertyOp61
 70
     1
102
RTVSPropertyOp62
 70
     1
  0
XRECORD
  5
1B84
102
{ACAD_REACTORS
330
1B83
102
}
330
1B83
100
AcDbXrecord
280
     1
102
RTVSPost2010Prop28
280
     0
102
RTVSPost2010PropOp28
 70
     1
102
RTVSPost2010Prop29
280
     1
102
RTVSPost2010PropOp29
 70
     1
102
RTVSPost2010Prop30
280
     1
102
RTVSPost2010PropOp30
 70
     1
102
RTVSPost2010Prop31
280
     0
102
RTVSPost2010PropOp31
 70
     1
102
RTVSPost2010Prop32
280
     0
102
RTVSPost2010PropOp32
 70
     1
102
RTVSPost2010Prop33
280
     0
102
RTVSPost2010PropOp33
 70
     1
102
RTVSPost2010Prop34
280
     0
102
RTVSPost2010PropOp34
 70
     1
102
RTVSPost2010Prop35
280
     0
102
RTVSPost2010PropOp35
 70
     1
102
RTVSPost2010Prop36
280
     0
102
RTVSPost2010PropOp36
 70
     1
102
RTVSPost2010Prop37
 90
       50
102
RTVSPost2010PropOp37
 70
     1
102
RTVSPost2010Prop38
140
0.0
102
RTVSPost2010PropOp38
 70
     1
102
RTVSPost2010Prop39
140
1.0
102
RTVSPost2010PropOp39
 70
     1
102
RTVSPost2010Prop40
 90
        0
102
RTVSPost2010PropOp40
 70
     1
102
RTVSPost2010Prop41ColorIndex
 90
       18
102
RTVSPost2010Prop41ColorRGB
 90
        0
102
RTVSPost2010PropOp41
 70
     1
102
RTVSPost2010Prop42
 90
       50
102
RTVSPost2010PropOp42
 70
     1
102
RTVSPost2010Prop43
 90
        3
102
RTVSPost2010PropOp43
 70
     1
102
RTVSPost2010Prop44ColorIndex
 90
        5
102
RTVSPost2010Prop44ColorRGB
 90
      255
102
RTVSPost2010PropOp44
 70
     1
102
RTVSPost2010Prop45
280
     0
102
RTVSPost2010PropOp45
 70
     1
102
RTVSPost2010Prop46
 90
       50
102
RTVSPost2010PropOp46
 70
     1
102
RTVSPost2010Prop47
 90
       50
102
RTVSPost2010PropOp47
 70
     1
102
RTVSPost2010Prop48
 90
       50
102
RTVSPost2010PropOp48
 70
     1
102
RTVSPost2010Prop49
280
     0
102
RTVSPost2010PropOp49
 70
     1
102
RTVSPost2010Prop50
 90
       50
102
RTVSPost2010PropOp50
 70
     1
102
RTVSPost2010Prop51ColorIndex
 90
      256
102
RTVSPost2010Prop51ColorRGB
 90
-16777216
102
RTVSPost2010PropOp51
 70
     0
102
RTVSPost2010Prop52
140
1.0
102
RTVSPost2010PropOp52
 70
     0
102
RTVSPost2010Prop53
 90
        2
102
RTVSPost2010PropOp53
 70
     1
102
RTVSPost2010Prop54
  1
strokes_ogs.tif
102
RTVSPost2010PropOp54
 70
     1
102
RTVSPost2010Prop55
280
     0
102
RTVSPost2010PropOp55
 70
     1
102
RTVSPost2010Prop56
140
1.0
102
RTVSPost2010PropOp56
 70
     1
102
RTVSPost2010Prop57
140
1.0
102
RTVSPost2010PropOp57
 70
     1
102
RTVSPropertyOp0
 70
     1
102
RTVSPropertyOp1
 70
     1
102
RTVSPropertyOp2
 70
     1
102
RTVSPropertyOp3
 70
     1
102
RTVSPropertyOp4
 70
     1
102
RTVSPropertyOp5
 70
     1
102
RTVSPropertyOp6
 70
     1
102
RTVSPropertyOp7
 70
     1
102
RTVSPropertyOp8
 70
     1
102
RTVSPropertyOp9
 70
     1
102
RTVSPropertyOp10
 70
     1
102
RTVSPropertyOp11
 70
     1
102
RTVSPropertyOp12
 70
     1
102
RTVSPropertyOp13
 70
     1
102
RTVSPropertyOp14
 70
     1
102
RTVSPropertyOp15
 70
     1
102
RTVSPropertyOp16
 70
     1
102
RTVSPropertyOp17
 70
     1
102
RTVSPropertyOp18
 70
     1
102
RTVSPropertyOp19
 70
     1
102
RTVSPropertyOp20
 70
     1
102
RTVSPropertyOp21
 70
     1
102
RTVSPropertyOp22
 70
     1
102
RTVSPropertyOp23
 70
     1
102
RTVSPropertyOp24
 70
     1
102
RTVSPropertyOp25
 70
     1
102
RTVSPropertyOp26
 70
     1
102
RTVSPropertyOp27
 70
     1
102
RTVSPropertyOp28
 70
     1
102
RTVSPropertyOp29
 70
     1
102
RTVSPropertyOp30
 70
     1
102
RTVSPropertyOp31
 70
     1
102
RTVSPropertyOp32
 70
     1
102
RTVSPropertyOp33
 70
     1
102
RTVSPropertyOp34
 70
     1
102
RTVSPropertyOp35
 70
     1
102
RTVSPropertyOp36
 70
     1
102
RTVSPropertyOp37
 70
     1
102
RTVSPropertyOp38
 70
     1
102
RTVSPropertyOp39
 70
     1
102
RTVSPropertyOp40
 70
     1
102
RTVSPropertyOp41
 70
     1
102
RTVSPropertyOp42
 70
     1
102
RTVSPropertyOp43
 70
     1
102
RTVSPropertyOp44
 70
     1
102
RTVSPropertyOp45
 70
     1
102
RTVSPropertyOp46
 70
     1
102
RTVSPropertyOp47
 70
     1
102
RTVSPropertyOp48
 70
     1
102
RTVSPropertyOp49
 70
     1
102
RTVSPropertyOp50
 70
     1
102
RTVSPropertyOp51
 70
     0
102
RTVSPropertyOp52
 70
     0
102
RTVSPropertyOp53
 70
     1
102
RTVSPropertyOp54
 70
     1
102
RTVSPropertyOp55
 70
     1
102
RTVSPropertyOp56
 70
     1
102
RTVSPropertyOp57
 70
     1
102
RTVSPropertyOp58
 70
     1
102
RTVSPropertyOp59
 70
     1
102
RTVSPropertyOp60
 70
     1
102
RTVSPropertyOp61
 70
     1
102
RTVSPropertyOp62
 70
     1
  0
XRECORD
  5
1B8C
102
{ACAD_REACTORS
330
1B8B
102
}
330
1B8B
100
AcDbXrecord
280
     1
102
RTVSPost2010Prop28
280
     0
102
RTVSPost2010PropOp28
 70
     1
102
RTVSPost2010Prop29
280
     1
102
RTVSPost2010PropOp29
 70
     1
102
RTVSPost2010Prop30
280
     1
102
RTVSPost2010PropOp30
 70
     1
102
RTVSPost2010Prop31
280
     0
102
RTVSPost2010PropOp31
 70
     1
102
RTVSPost2010Prop32
280
     0
102
RTVSPost2010PropOp32
 70
     1
102
RTVSPost2010Prop33
280
     0
102
RTVSPost2010PropOp33
 70
     1
102
RTVSPost2010Prop34
280
     0
102
RTVSPost2010PropOp34
 70
     1
102
RTVSPost2010Prop35
280
     0
102
RTVSPost2010PropOp35
 70
     1
102
RTVSPost2010Prop36
280
     0
102
RTVSPost2010PropOp36
 70
     1
102
RTVSPost2010Prop37
 90
       50
102
RTVSPost2010PropOp37
 70
     1
102
RTVSPost2010Prop38
140
0.0
102
RTVSPost2010PropOp38
 70
     1
102
RTVSPost2010Prop39
140
1.0
102
RTVSPost2010PropOp39
 70
     1
102
RTVSPost2010Prop40
 90
        0
102
RTVSPost2010PropOp40
 70
     1
102
RTVSPost2010Prop41ColorIndex
 90
       18
102
RTVSPost2010Prop41ColorRGB
 90
        0
102
RTVSPost2010PropOp41
 70
     1
102
RTVSPost2010Prop42
 90
       50
102
RTVSPost2010PropOp42
 70
     1
102
RTVSPost2010Prop43
 90
        3
102
RTVSPost2010PropOp43
 70
     1
102
RTVSPost2010Prop44ColorIndex
 90
        5
102
RTVSPost2010Prop44ColorRGB
 90
      255
102
RTVSPost2010PropOp44
 70
     1
102
RTVSPost2010Prop45
280
     0
102
RTVSPost2010PropOp45
 70
     1
102
RTVSPost2010Prop46
 90
       50
102
RTVSPost2010PropOp46
 70
     1
102
RTVSPost2010Prop47
 90
       50
102
RTVSPost2010PropOp47
 70
     1
102
RTVSPost2010Prop48
 90
       50
102
RTVSPost2010PropOp48
 70
     1
102
RTVSPost2010Prop49
280
     0
102
RTVSPost2010PropOp49
 70
     1
102
RTVSPost2010Prop50
 90
       50
102
RTVSPost2010PropOp50
 70
     1
102
RTVSPost2010Prop51ColorIndex
 90
      256
102
RTVSPost2010Prop51ColorRGB
 90
-16777216
102
RTVSPost2010PropOp51
 70
     0
102
RTVSPost2010Prop52
140
1.0
102
RTVSPost2010PropOp52
 70
     0
102
RTVSPost2010Prop53
 90
        2
102
RTVSPost2010PropOp53
 70
     1
102
RTVSPost2010Prop54
  1
strokes_ogs.tif
102
RTVSPost2010PropOp54
 70
     1
102
RTVSPost2010Prop55
280
     0
102
RTVSPost2010PropOp55
 70
     1
102
RTVSPost2010Prop56
140
1.0
102
RTVSPost2010PropOp56
 70
     1
102
RTVSPost2010Prop57
140
1.0
102
RTVSPost2010PropOp57
 70
     1
102
RTVSPropertyOp0
 70
     1
102
RTVSPropertyOp1
 70
     1
102
RTVSPropertyOp2
 70
     1
102
RTVSPropertyOp3
 70
     1
102
RTVSPropertyOp4
 70
     1
102
RTVSPropertyOp5
 70
     1
102
RTVSPropertyOp6
 70
     1
102
RTVSPropertyOp7
 70
     1
102
RTVSPropertyOp8
 70
     1
102
RTVSPropertyOp9
 70
     1
102
RTVSPropertyOp10
 70
     1
102
RTVSPropertyOp11
 70
     1
102
RTVSPropertyOp12
 70
     1
102
RTVSPropertyOp13
 70
     1
102
RTVSPropertyOp14
 70
     1
102
RTVSPropertyOp15
 70
     1
102
RTVSPropertyOp16
 70
     1
102
RTVSPropertyOp17
 70
     1
102
RTVSPropertyOp18
 70
     1
102
RTVSPropertyOp19
 70
     1
102
RTVSPropertyOp20
 70
     1
102
RTVSPropertyOp21
 70
     1
102
RTVSPropertyOp22
 70
     1
102
RTVSPropertyOp23
 70
     1
102
RTVSPropertyOp24
 70
     1
102
RTVSPropertyOp25
 70
     1
102
RTVSPropertyOp26
 70
     1
102
RTVSPropertyOp27
 70
     1
102
RTVSPropertyOp28
 70
     1
102
RTVSPropertyOp29
 70
     1
102
RTVSPropertyOp30
 70
     1
102
RTVSPropertyOp31
 70
     1
102
RTVSPropertyOp32
 70
     1
102
RTVSPropertyOp33
 70
     1
102
RTVSPropertyOp34
 70
     1
102
RTVSPropertyOp35
 70
     1
102
RTVSPropertyOp36
 70
     1
102
RTVSPropertyOp37
 70
     1
102
RTVSPropertyOp38
 70
     1
102
RTVSPropertyOp39
 70
     1
102
RTVSPropertyOp40
 70
     1
102
RTVSPropertyOp41
 70
     1
102
RTVSPropertyOp42
 70
     1
102
RTVSPropertyOp43
 70
     1
102
RTVSPropertyOp44
 70
     1
102
RTVSPropertyOp45
 70
     1
102
RTVSPropertyOp46
 70
     1
102
RTVSPropertyOp47
 70
     1
102
RTVSPropertyOp48
 70
     1
102
RTVSPropertyOp49
 70
     1
102
RTVSPropertyOp50
 70
     1
102
RTVSPropertyOp51
 70
     0
102
RTVSPropertyOp52
 70
     0
102
RTVSPropertyOp53
 70
     1
102
RTVSPropertyOp54
 70
     1
102
RTVSPropertyOp55
 70
     1
102
RTVSPropertyOp56
 70
     1
102
RTVSPropertyOp57
 70
     1
102
RTVSPropertyOp58
 70
     1
102
RTVSPropertyOp59
 70
     1
102
RTVSPropertyOp60
 70
     1
102
RTVSPropertyOp61
 70
     1
102
RTVSPropertyOp62
 70
     1
  0
XRECORD
  5
1B7E
102
{ACAD_REACTORS
330
1B7D
102
}
330
1B7D
100
AcDbXrecord
280
     1
102
RTVSPost2010Prop28
280
     0
102
RTVSPost2010PropOp28
 70
     1
102
RTVSPost2010Prop29
280
     1
102
RTVSPost2010PropOp29
 70
     1
102
RTVSPost2010Prop30
280
     1
102
RTVSPost2010PropOp30
 70
     1
102
RTVSPost2010Prop31
280
     0
102
RTVSPost2010PropOp31
 70
     1
102
RTVSPost2010Prop32
280
     0
102
RTVSPost2010PropOp32
 70
     1
102
RTVSPost2010Prop33
280
     0
102
RTVSPost2010PropOp33
 70
     1
102
RTVSPost2010Prop34
280
     0
102
RTVSPost2010PropOp34
 70
     1
102
RTVSPost2010Prop35
280
     0
102
RTVSPost2010PropOp35
 70
     1
102
RTVSPost2010Prop36
280
     0
102
RTVSPost2010PropOp36
 70
     1
102
RTVSPost2010Prop37
 90
       50
102
RTVSPost2010PropOp37
 70
     1
102
RTVSPost2010Prop38
140
0.0
102
RTVSPost2010PropOp38
 70
     1
102
RTVSPost2010Prop39
140
1.0
102
RTVSPost2010PropOp39
 70
     1
102
RTVSPost2010Prop40
 90
        0
102
RTVSPost2010PropOp40
 70
     1
102
RTVSPost2010Prop41ColorIndex
 90
       18
102
RTVSPost2010Prop41ColorRGB
 90
        0
102
RTVSPost2010PropOp41
 70
     1
102
RTVSPost2010Prop42
 90
       50
102
RTVSPost2010PropOp42
 70
     1
102
RTVSPost2010Prop43
 90
        3
102
RTVSPost2010PropOp43
 70
     1
102
RTVSPost2010Prop44ColorIndex
 90
        5
102
RTVSPost2010Prop44ColorRGB
 90
      255
102
RTVSPost2010PropOp44
 70
     1
102
RTVSPost2010Prop45
280
     0
102
RTVSPost2010PropOp45
 70
     1
102
RTVSPost2010Prop46
 90
       50
102
RTVSPost2010PropOp46
 70
     1
102
RTVSPost2010Prop47
 90
       50
102
RTVSPost2010PropOp47
 70
     1
102
RTVSPost2010Prop48
 90
       50
102
RTVSPost2010PropOp48
 70
     1
102
RTVSPost2010Prop49
280
     0
102
RTVSPost2010PropOp49
 70
     1
102
RTVSPost2010Prop50
 90
       50
102
RTVSPost2010PropOp50
 70
     1
102
RTVSPost2010Prop51ColorIndex
 90
      256
102
RTVSPost2010Prop51ColorRGB
 90
-16777216
102
RTVSPost2010PropOp51
 70
     0
102
RTVSPost2010Prop52
140
1.0
102
RTVSPost2010PropOp52
 70
     0
102
RTVSPost2010Prop53
 90
        2
102
RTVSPost2010PropOp53
 70
     1
102
RTVSPost2010Prop54
  1
strokes_ogs.tif
102
RTVSPost2010PropOp54
 70
     1
102
RTVSPost2010Prop55
280
     0
102
RTVSPost2010PropOp55
 70
     1
102
RTVSPost2010Prop56
140
1.0
102
RTVSPost2010PropOp56
 70
     1
102
RTVSPost2010Prop57
140
1.0
102
RTVSPost2010PropOp57
 70
     1
102
RTVSPropertyOp0
 70
     1
102
RTVSPropertyOp1
 70
     1
102
RTVSPropertyOp2
 70
     1
102
RTVSPropertyOp3
 70
     1
102
RTVSPropertyOp4
 70
     1
102
RTVSPropertyOp5
 70
     1
102
RTVSPropertyOp6
 70
     1
102
RTVSPropertyOp7
 70
     1
102
RTVSPropertyOp8
 70
     1
102
RTVSPropertyOp9
 70
     1
102
RTVSPropertyOp10
 70
     1
102
RTVSPropertyOp11
 70
     1
102
RTVSPropertyOp12
 70
     1
102
RTVSPropertyOp13
 70
     1
102
RTVSPropertyOp14
 70
     1
102
RTVSPropertyOp15
 70
     1
102
RTVSPropertyOp16
 70
     1
102
RTVSPropertyOp17
 70
     1
102
RTVSPropertyOp18
 70
     1
102
RTVSPropertyOp19
 70
     1
102
RTVSPropertyOp20
 70
     1
102
RTVSPropertyOp21
 70
     1
102
RTVSPropertyOp22
 70
     1
102
RTVSPropertyOp23
 70
     1
102
RTVSPropertyOp24
 70
     1
102
RTVSPropertyOp25
 70
     1
102
RTVSPropertyOp26
 70
     1
102
RTVSPropertyOp27
 70
     1
102
RTVSPropertyOp28
 70
     1
102
RTVSPropertyOp29
 70
     1
102
RTVSPropertyOp30
 70
     1
102
RTVSPropertyOp31
 70
     1
102
RTVSPropertyOp32
 70
     1
102
RTVSPropertyOp33
 70
     1
102
RTVSPropertyOp34
 70
     1
102
RTVSPropertyOp35
 70
     1
102
RTVSPropertyOp36
 70
     1
102
RTVSPropertyOp37
 70
     1
102
RTVSPropertyOp38
 70
     1
102
RTVSPropertyOp39
 70
     1
102
RTVSPropertyOp40
 70
     1
102
RTVSPropertyOp41
 70
     1
102
RTVSPropertyOp42
 70
     1
102
RTVSPropertyOp43
 70
     1
102
RTVSPropertyOp44
 70
     1
102
RTVSPropertyOp45
 70
     1
102
RTVSPropertyOp46
 70
     1
102
RTVSPropertyOp47
 70
     1
102
RTVSPropertyOp48
 70
     1
102
RTVSPropertyOp49
 70
     1
102
RTVSPropertyOp50
 70
     1
102
RTVSPropertyOp51
 70
     0
102
RTVSPropertyOp52
 70
     0
102
RTVSPropertyOp53
 70
     1
102
RTVSPropertyOp54
 70
     1
102
RTVSPropertyOp55
 70
     1
102
RTVSPropertyOp56
 70
     1
102
RTVSPropertyOp57
 70
     1
102
RTVSPropertyOp58
 70
     1
102
RTVSPropertyOp59
 70
     1
102
RTVSPropertyOp60
 70
     1
102
RTVSPropertyOp61
 70
     1
102
RTVSPropertyOp62
 70
     1
  0
XRECORD
  5
1B82
102
{ACAD_REACTORS
330
1B81
102
}
330
1B81
100
AcDbXrecord
280
     1
102
RTVSPost2010Prop28
280
     0
102
RTVSPost2010PropOp28
 70
     1
102
RTVSPost2010Prop29
280
     1
102
RTVSPost2010PropOp29
 70
     1
102
RTVSPost2010Prop30
280
     1
102
RTVSPost2010PropOp30
 70
     1
102
RTVSPost2010Prop31
280
     0
102
RTVSPost2010PropOp31
 70
     1
102
RTVSPost2010Prop32
280
     0
102
RTVSPost2010PropOp32
 70
     1
102
RTVSPost2010Prop33
280
     0
102
RTVSPost2010PropOp33
 70
     1
102
RTVSPost2010Prop34
280
     0
102
RTVSPost2010PropOp34
 70
     1
102
RTVSPost2010Prop35
280
     0
102
RTVSPost2010PropOp35
 70
     1
102
RTVSPost2010Prop36
280
     0
102
RTVSPost2010PropOp36
 70
     1
102
RTVSPost2010Prop37
 90
       50
102
RTVSPost2010PropOp37
 70
     1
102
RTVSPost2010Prop38
140
0.0
102
RTVSPost2010PropOp38
 70
     1
102
RTVSPost2010Prop39
140
1.0
102
RTVSPost2010PropOp39
 70
     1
102
RTVSPost2010Prop40
 90
        0
102
RTVSPost2010PropOp40
 70
     1
102
RTVSPost2010Prop41ColorIndex
 90
       18
102
RTVSPost2010Prop41ColorRGB
 90
        0
102
RTVSPost2010PropOp41
 70
     1
102
RTVSPost2010Prop42
 90
       50
102
RTVSPost2010PropOp42
 70
     1
102
RTVSPost2010Prop43
 90
        3
102
RTVSPost2010PropOp43
 70
     1
102
RTVSPost2010Prop44ColorIndex
 90
        5
102
RTVSPost2010Prop44ColorRGB
 90
      255
102
RTVSPost2010PropOp44
 70
     1
102
RTVSPost2010Prop45
280
     0
102
RTVSPost2010PropOp45
 70
     1
102
RTVSPost2010Prop46
 90
       50
102
RTVSPost2010PropOp46
 70
     1
102
RTVSPost2010Prop47
 90
       50
102
RTVSPost2010PropOp47
 70
     1
102
RTVSPost2010Prop48
 90
       50
102
RTVSPost2010PropOp48
 70
     1
102
RTVSPost2010Prop49
280
     0
102
RTVSPost2010PropOp49
 70
     1
102
RTVSPost2010Prop50
 90
       50
102
RTVSPost2010PropOp50
 70
     1
102
RTVSPost2010Prop51ColorIndex
 90
      256
102
RTVSPost2010Prop51ColorRGB
 90
-16777216
102
RTVSPost2010PropOp51
 70
     0
102
RTVSPost2010Prop52
140
1.0
102
RTVSPost2010PropOp52
 70
     0
102
RTVSPost2010Prop53
 90
        2
102
RTVSPost2010PropOp53
 70
     1
102
RTVSPost2010Prop54
  1
strokes_ogs.tif
102
RTVSPost2010PropOp54
 70
     1
102
RTVSPost2010Prop55
280
     0
102
RTVSPost2010PropOp55
 70
     1
102
RTVSPost2010Prop56
140
1.0
102
RTVSPost2010PropOp56
 70
     1
102
RTVSPost2010Prop57
140
1.0
102
RTVSPost2010PropOp57
 70
     1
102
RTVSPropertyOp0
 70
     1
102
RTVSPropertyOp1
 70
     1
102
RTVSPropertyOp2
 70
     1
102
RTVSPropertyOp3
 70
     1
102
RTVSPropertyOp4
 70
     1
102
RTVSPropertyOp5
 70
     1
102
RTVSPropertyOp6
 70
     1
102
RTVSPropertyOp7
 70
     1
102
RTVSPropertyOp8
 70
     1
102
RTVSPropertyOp9
 70
     1
102
RTVSPropertyOp10
 70
     1
102
RTVSPropertyOp11
 70
     1
102
RTVSPropertyOp12
 70
     1
102
RTVSPropertyOp13
 70
     1
102
RTVSPropertyOp14
 70
     1
102
RTVSPropertyOp15
 70
     1
102
RTVSPropertyOp16
 70
     1
102
RTVSPropertyOp17
 70
     1
102
RTVSPropertyOp18
 70
     1
102
RTVSPropertyOp19
 70
     1
102
RTVSPropertyOp20
 70
     1
102
RTVSPropertyOp21
 70
     1
102
RTVSPropertyOp22
 70
     1
102
RTVSPropertyOp23
 70
     1
102
RTVSPropertyOp24
 70
     1
102
RTVSPropertyOp25
 70
     1
102
RTVSPropertyOp26
 70
     1
102
RTVSPropertyOp27
 70
     1
102
RTVSPropertyOp28
 70
     1
102
RTVSPropertyOp29
 70
     1
102
RTVSPropertyOp30
 70
     1
102
RTVSPropertyOp31
 70
     1
102
RTVSPropertyOp32
 70
     1
102
RTVSPropertyOp33
 70
     1
102
RTVSPropertyOp34
 70
     1
102
RTVSPropertyOp35
 70
     1
102
RTVSPropertyOp36
 70
     1
102
RTVSPropertyOp37
 70
     1
102
RTVSPropertyOp38
 70
     1
102
RTVSPropertyOp39
 70
     1
102
RTVSPropertyOp40
 70
     1
102
RTVSPropertyOp41
 70
     1
102
RTVSPropertyOp42
 70
     1
102
RTVSPropertyOp43
 70
     1
102
RTVSPropertyOp44
 70
     1
102
RTVSPropertyOp45
 70
     1
102
RTVSPropertyOp46
 70
     1
102
RTVSPropertyOp47
 70
     1
102
RTVSPropertyOp48
 70
     1
102
RTVSPropertyOp49
 70
     1
102
RTVSPropertyOp50
 70
     1
102
RTVSPropertyOp51
 70
     0
102
RTVSPropertyOp52
 70
     0
102
RTVSPropertyOp53
 70
     1
102
RTVSPropertyOp54
 70
     1
102
RTVSPropertyOp55
 70
     1
102
RTVSPropertyOp56
 70
     1
102
RTVSPropertyOp57
 70
     1
102
RTVSPropertyOp58
 70
     1
102
RTVSPropertyOp59
 70
     1
102
RTVSPropertyOp60
 70
     1
102
RTVSPropertyOp61
 70
     1
102
RTVSPropertyOp62
 70
     1
  0
XRECORD
  5
1B9C
102
{ACAD_REACTORS
330
1B9B
102
}
330
1B9B
100
AcDbXrecord
280
     1
102
RTVSPost2010Prop28
280
     0
102
RTVSPost2010PropOp28
 70
     0
102
RTVSPost2010Prop29
280
     1
102
RTVSPost2010PropOp29
 70
     0
102
RTVSPost2010Prop30
280
     1
102
RTVSPost2010PropOp30
 70
     0
102
RTVSPost2010Prop31
280
     0
102
RTVSPost2010PropOp31
 70
     0
102
RTVSPost2010Prop32
280
     0
102
RTVSPost2010PropOp32
 70
     0
102
RTVSPost2010Prop33
280
     0
102
RTVSPost2010PropOp33
 70
     0
102
RTVSPost2010Prop34
280
     0
102
RTVSPost2010PropOp34
 70
     0
102
RTVSPost2010Prop35
280
     0
102
RTVSPost2010PropOp35
 70
     0
102
RTVSPost2010Prop36
280
     0
102
RTVSPost2010PropOp36
 70
     0
102
RTVSPost2010Prop37
 90
       50
102
RTVSPost2010PropOp37
 70
     0
102
RTVSPost2010Prop38
140
0.0
102
RTVSPost2010PropOp38
 70
     0
102
RTVSPost2010Prop39
140
1.0
102
RTVSPost2010PropOp39
 70
     0
102
RTVSPost2010Prop40
 90
        0
102
RTVSPost2010PropOp40
 70
     0
102
RTVSPost2010Prop41ColorIndex
 90
       18
102
RTVSPost2010Prop41ColorRGB
 90
        0
102
RTVSPost2010PropOp41
 70
     0
102
RTVSPost2010Prop42
 90
       50
102
RTVSPost2010PropOp42
 70
     0
102
RTVSPost2010Prop43
 90
        3
102
RTVSPost2010PropOp43
 70
     0
102
RTVSPost2010Prop44ColorIndex
 90
        5
102
RTVSPost2010Prop44ColorRGB
 90
      255
102
RTVSPost2010PropOp44
 70
     0
102
RTVSPost2010Prop45
280
     0
102
RTVSPost2010PropOp45
 70
     0
102
RTVSPost2010Prop46
 90
       50
102
RTVSPost2010PropOp46
 70
     0
102
RTVSPost2010Prop47
 90
       50
102
RTVSPost2010PropOp47
 70
     0
102
RTVSPost2010Prop48
 90
       50
102
RTVSPost2010PropOp48
 70
     0
102
RTVSPost2010Prop49
280
     0
102
RTVSPost2010PropOp49
 70
     0
102
RTVSPost2010Prop50
 90
       50
102
RTVSPost2010PropOp50
 70
     0
102
RTVSPost2010Prop51ColorIndex
 90
      256
102
RTVSPost2010Prop51ColorRGB
 90
-16777216
102
RTVSPost2010PropOp51
 70
     0
102
RTVSPost2010Prop52
140
1.0
102
RTVSPost2010PropOp52
 70
     0
102
RTVSPost2010Prop53
 90
        2
102
RTVSPost2010PropOp53
 70
     0
102
RTVSPost2010Prop54
  1
strokes_ogs.tif
102
RTVSPost2010PropOp54
 70
     0
102
RTVSPost2010Prop55
280
     0
102
RTVSPost2010PropOp55
 70
     0
102
RTVSPost2010Prop56
140
1.0
102
RTVSPost2010PropOp56
 70
     0
102
RTVSPost2010Prop57
140
1.0
102
RTVSPost2010PropOp57
 70
     0
102
RTVSPropertyOp0
 70
     0
102
RTVSPropertyOp1
 70
     0
102
RTVSPropertyOp2
 70
     0
102
RTVSPropertyOp3
 70
     0
102
RTVSPropertyOp4
 70
     0
102
RTVSPropertyOp5
 70
     0
102
RTVSPropertyOp6
 70
     0
102
RTVSPropertyOp7
 70
     0
102
RTVSPropertyOp8
 70
     0
102
RTVSPropertyOp9
 70
     0
102
RTVSPropertyOp10
 70
     0
102
RTVSPropertyOp11
 70
     0
102
RTVSPropertyOp12
 70
     0
102
RTVSPropertyOp13
 70
     0
102
RTVSPropertyOp14
 70
     2
102
RTVSPropertyOp15
 70
     0
102
RTVSPropertyOp16
 70
     0
102
RTVSPropertyOp17
 70
     0
102
RTVSPropertyOp18
 70
     0
102
RTVSPropertyOp19
 70
     0
102
RTVSPropertyOp20
 70
     0
102
RTVSPropertyOp21
 70
     0
102
RTVSPropertyOp22
 70
     0
102
RTVSPropertyOp23
 70
     0
102
RTVSPropertyOp24
 70
     0
102
RTVSPropertyOp25
 70
     0
102
RTVSPropertyOp26
 70
     0
102
RTVSPropertyOp27
 70
     0
102
RTVSPropertyOp28
 70
     0
102
RTVSPropertyOp29
 70
     0
102
RTVSPropertyOp30
 70
     0
102
RTVSPropertyOp31
 70
     0
102
RTVSPropertyOp32
 70
     0
102
RTVSPropertyOp33
 70
     0
102
RTVSPropertyOp34
 70
     0
102
RTVSPropertyOp35
 70
     0
102
RTVSPropertyOp36
 70
     0
102
RTVSPropertyOp37
 70
     0
102
RTVSPropertyOp38
 70
     0
102
RTVSPropertyOp39
 70
     0
102
RTVSPropertyOp40
 70
     0
102
RTVSPropertyOp41
 70
     0
102
RTVSPropertyOp42
 70
     0
102
RTVSPropertyOp43
 70
     0
102
RTVSPropertyOp44
 70
     0
102
RTVSPropertyOp45
 70
     0
102
RTVSPropertyOp46
 70
     0
102
RTVSPropertyOp47
 70
     0
102
RTVSPropertyOp48
 70
     0
102
RTVSPropertyOp49
 70
     0
102
RTVSPropertyOp50
 70
     0
102
RTVSPropertyOp51
 70
     0
102
RTVSPropertyOp52
 70
     0
102
RTVSPropertyOp53
 70
     0
102
RTVSPropertyOp54
 70
     0
102
RTVSPropertyOp55
 70
     0
102
RTVSPropertyOp56
 70
     0
102
RTVSPropertyOp57
 70
     0
102
RTVSPropertyOp58
 70
     0
102
RTVSPropertyOp59
 70
     0
102
RTVSPropertyOp60
 70
     0
102
RTVSPropertyOp61
 70
     0
102
RTVSPropertyOp62
 70
     0
  0
XRECORD
  5
1B8A
102
{ACAD_REACTORS
330
1B89
102
}
330
1B89
100
AcDbXrecord
280
     1
102
RTVSPost2010Prop28
280
     0
102
RTVSPost2010PropOp28
 70
     1
102
RTVSPost2010Prop29
280
     1
102
RTVSPost2010PropOp29
 70
     1
102
RTVSPost2010Prop30
280
     1
102
RTVSPost2010PropOp30
 70
     1
102
RTVSPost2010Prop31
280
     0
102
RTVSPost2010PropOp31
 70
     1
102
RTVSPost2010Prop32
280
     0
102
RTVSPost2010PropOp32
 70
     1
102
RTVSPost2010Prop33
280
     0
102
RTVSPost2010PropOp33
 70
     1
102
RTVSPost2010Prop34
280
     0
102
RTVSPost2010PropOp34
 70
     1
102
RTVSPost2010Prop35
280
     0
102
RTVSPost2010PropOp35
 70
     1
102
RTVSPost2010Prop36
280
     0
102
RTVSPost2010PropOp36
 70
     1
102
RTVSPost2010Prop37
 90
       50
102
RTVSPost2010PropOp37
 70
     1
102
RTVSPost2010Prop38
140
0.0
102
RTVSPost2010PropOp38
 70
     1
102
RTVSPost2010Prop39
140
1.0
102
RTVSPost2010PropOp39
 70
     1
102
RTVSPost2010Prop40
 90
        0
102
RTVSPost2010PropOp40
 70
     1
102
RTVSPost2010Prop41ColorIndex
 90
       18
102
RTVSPost2010Prop41ColorRGB
 90
        0
102
RTVSPost2010PropOp41
 70
     1
102
RTVSPost2010Prop42
 90
       50
102
RTVSPost2010PropOp42
 70
     1
102
RTVSPost2010Prop43
 90
        3
102
RTVSPost2010PropOp43
 70
     1
102
RTVSPost2010Prop44ColorIndex
 90
        5
102
RTVSPost2010Prop44ColorRGB
 90
      255
102
RTVSPost2010PropOp44
 70
     1
102
RTVSPost2010Prop45
280
     0
102
RTVSPost2010PropOp45
 70
     1
102
RTVSPost2010Prop46
 90
       50
102
RTVSPost2010PropOp46
 70
     1
102
RTVSPost2010Prop47
 90
       50
102
RTVSPost2010PropOp47
 70
     1
102
RTVSPost2010Prop48
 90
       50
102
RTVSPost2010PropOp48
 70
     1
102
RTVSPost2010Prop49
280
     0
102
RTVSPost2010PropOp49
 70
     1
102
RTVSPost2010Prop50
 90
       50
102
RTVSPost2010PropOp50
 70
     1
102
RTVSPost2010Prop51ColorIndex
 90
      256
102
RTVSPost2010Prop51ColorRGB
 90
-16777216
102
RTVSPost2010PropOp51
 70
     0
102
RTVSPost2010Prop52
140
1.0
102
RTVSPost2010PropOp52
 70
     0
102
RTVSPost2010Prop53
 90
        2
102
RTVSPost2010PropOp53
 70
     1
102
RTVSPost2010Prop54
  1
strokes_ogs.tif
102
RTVSPost2010PropOp54
 70
     1
102
RTVSPost2010Prop55
280
     0
102
RTVSPost2010PropOp55
 70
     1
102
RTVSPost2010Prop56
140
1.0
102
RTVSPost2010PropOp56
 70
     1
102
RTVSPost2010Prop57
140
1.0
102
RTVSPost2010PropOp57
 70
     1
102
RTVSPropertyOp0
 70
     1
102
RTVSPropertyOp1
 70
     1
102
RTVSPropertyOp2
 70
     1
102
RTVSPropertyOp3
 70
     1
102
RTVSPropertyOp4
 70
     1
102
RTVSPropertyOp5
 70
     1
102
RTVSPropertyOp6
 70
     1
102
RTVSPropertyOp7
 70
     1
102
RTVSPropertyOp8
 70
     1
102
RTVSPropertyOp9
 70
     1
102
RTVSPropertyOp10
 70
     1
102
RTVSPropertyOp11
 70
     1
102
RTVSPropertyOp12
 70
     1
102
RTVSPropertyOp13
 70
     1
102
RTVSPropertyOp14
 70
     1
102
RTVSPropertyOp15
 70
     1
102
RTVSPropertyOp16
 70
     1
102
RTVSPropertyOp17
 70
     1
102
RTVSPropertyOp18
 70
     1
102
RTVSPropertyOp19
 70
     1
102
RTVSPropertyOp20
 70
     1
102
RTVSPropertyOp21
 70
     1
102
RTVSPropertyOp22
 70
     1
102
RTVSPropertyOp23
 70
     1
102
RTVSPropertyOp24
 70
     1
102
RTVSPropertyOp25
 70
     1
102
RTVSPropertyOp26
 70
     1
102
RTVSPropertyOp27
 70
     1
102
RTVSPropertyOp28
 70
     1
102
RTVSPropertyOp29
 70
     1
102
RTVSPropertyOp30
 70
     1
102
RTVSPropertyOp31
 70
     1
102
RTVSPropertyOp32
 70
     1
102
RTVSPropertyOp33
 70
     1
102
RTVSPropertyOp34
 70
     1
102
RTVSPropertyOp35
 70
     1
102
RTVSPropertyOp36
 70
     1
102
RTVSPropertyOp37
 70
     1
102
RTVSPropertyOp38
 70
     1
102
RTVSPropertyOp39
 70
     1
102
RTVSPropertyOp40
 70
     1
102
RTVSPropertyOp41
 70
     1
102
RTVSPropertyOp42
 70
     1
102
RTVSPropertyOp43
 70
     1
102
RTVSPropertyOp44
 70
     1
102
RTVSPropertyOp45
 70
     1
102
RTVSPropertyOp46
 70
     1
102
RTVSPropertyOp47
 70
     1
102
RTVSPropertyOp48
 70
     1
102
RTVSPropertyOp49
 70
     1
102
RTVSPropertyOp50
 70
     1
102
RTVSPropertyOp51
 70
     0
102
RTVSPropertyOp52
 70
     0
102
RTVSPropertyOp53
 70
     1
102
RTVSPropertyOp54
 70
     1
102
RTVSPropertyOp55
 70
     1
102
RTVSPropertyOp56
 70
     1
102
RTVSPropertyOp57
 70
     1
102
RTVSPropertyOp58
 70
     1
102
RTVSPropertyOp59
 70
     1
102
RTVSPropertyOp60
 70
     1
102
RTVSPropertyOp61
 70
     1
102
RTVSPropertyOp62
 70
     1
  0
XRECORD
  5
1B6E
102
{ACAD_REACTORS
330
1B6D
102
}
330
1B6D
100
AcDbXrecord
280
     1
102
RTVSPost2010Prop28
280
     0
102
RTVSPost2010PropOp28
 70
     1
102
RTVSPost2010Prop29
280
     1
102
RTVSPost2010PropOp29
 70
     1
102
RTVSPost2010Prop30
280
     1
102
RTVSPost2010PropOp30
 70
     1
102
RTVSPost2010Prop31
280
     0
102
RTVSPost2010PropOp31
 70
     1
102
RTVSPost2010Prop32
280
     0
102
RTVSPost2010PropOp32
 70
     1
102
RTVSPost2010Prop33
280
     0
102
RTVSPost2010PropOp33
 70
     1
102
RTVSPost2010Prop34
280
     0
102
RTVSPost2010PropOp34
 70
     1
102
RTVSPost2010Prop35
280
     0
102
RTVSPost2010PropOp35
 70
     1
102
RTVSPost2010Prop36
280
     0
102
RTVSPost2010PropOp36
 70
     1
102
RTVSPost2010Prop37
 90
       50
102
RTVSPost2010PropOp37
 70
     1
102
RTVSPost2010Prop38
140
0.0
102
RTVSPost2010PropOp38
 70
     1
102
RTVSPost2010Prop39
140
1.0
102
RTVSPost2010PropOp39
 70
     1
102
RTVSPost2010Prop40
 90
        0
102
RTVSPost2010PropOp40
 70
     1
102
RTVSPost2010Prop41ColorIndex
 90
       18
102
RTVSPost2010Prop41ColorRGB
 90
        0
102
RTVSPost2010PropOp41
 70
     1
102
RTVSPost2010Prop42
 90
       50
102
RTVSPost2010PropOp42
 70
     1
102
RTVSPost2010Prop43
 90
        3
102
RTVSPost2010PropOp43
 70
     1
102
RTVSPost2010Prop44ColorIndex
 90
        5
102
RTVSPost2010Prop44ColorRGB
 90
      255
102
RTVSPost2010PropOp44
 70
     1
102
RTVSPost2010Prop45
280
     0
102
RTVSPost2010PropOp45
 70
     1
102
RTVSPost2010Prop46
 90
       50
102
RTVSPost2010PropOp46
 70
     1
102
RTVSPost2010Prop47
 90
       50
102
RTVSPost2010PropOp47
 70
     1
102
RTVSPost2010Prop48
 90
       50
102
RTVSPost2010PropOp48
 70
     1
102
RTVSPost2010Prop49
280
     0
102
RTVSPost2010PropOp49
 70
     1
102
RTVSPost2010Prop50
 90
       50
102
RTVSPost2010PropOp50
 70
     1
102
RTVSPost2010Prop51ColorIndex
 90
      256
102
RTVSPost2010Prop51ColorRGB
 90
-16777216
102
RTVSPost2010PropOp51
 70
     0
102
RTVSPost2010Prop52
140
1.0
102
RTVSPost2010PropOp52
 70
     0
102
RTVSPost2010Prop53
 90
        2
102
RTVSPost2010PropOp53
 70
     1
102
RTVSPost2010Prop54
  1
strokes_ogs.tif
102
RTVSPost2010PropOp54
 70
     1
102
RTVSPost2010Prop55
280
     0
102
RTVSPost2010PropOp55
 70
     1
102
RTVSPost2010Prop56
140
1.0
102
RTVSPost2010PropOp56
 70
     1
102
RTVSPost2010Prop57
140
1.0
102
RTVSPost2010PropOp57
 70
     1
102
RTVSPropertyOp0
 70
     1
102
RTVSPropertyOp1
 70
     1
102
RTVSPropertyOp2
 70
     1
102
RTVSPropertyOp3
 70
     1
102
RTVSPropertyOp4
 70
     1
102
RTVSPropertyOp5
 70
     1
102
RTVSPropertyOp6
 70
     1
102
RTVSPropertyOp7
 70
     1
102
RTVSPropertyOp8
 70
     1
102
RTVSPropertyOp9
 70
     1
102
RTVSPropertyOp10
 70
     1
102
RTVSPropertyOp11
 70
     1
102
RTVSPropertyOp12
 70
     1
102
RTVSPropertyOp13
 70
     1
102
RTVSPropertyOp14
 70
     1
102
RTVSPropertyOp15
 70
     1
102
RTVSPropertyOp16
 70
     1
102
RTVSPropertyOp17
 70
     1
102
RTVSPropertyOp18
 70
     1
102
RTVSPropertyOp19
 70
     1
102
RTVSPropertyOp20
 70
     1
102
RTVSPropertyOp21
 70
     1
102
RTVSPropertyOp22
 70
     1
102
RTVSPropertyOp23
 70
     1
102
RTVSPropertyOp24
 70
     1
102
RTVSPropertyOp25
 70
     1
102
RTVSPropertyOp26
 70
     1
102
RTVSPropertyOp27
 70
     1
102
RTVSPropertyOp28
 70
     1
102
RTVSPropertyOp29
 70
     1
102
RTVSPropertyOp30
 70
     1
102
RTVSPropertyOp31
 70
     1
102
RTVSPropertyOp32
 70
     1
102
RTVSPropertyOp33
 70
     1
102
RTVSPropertyOp34
 70
     1
102
RTVSPropertyOp35
 70
     1
102
RTVSPropertyOp36
 70
     1
102
RTVSPropertyOp37
 70
     1
102
RTVSPropertyOp38
 70
     1
102
RTVSPropertyOp39
 70
     1
102
RTVSPropertyOp40
 70
     1
102
RTVSPropertyOp41
 70
     1
102
RTVSPropertyOp42
 70
     1
102
RTVSPropertyOp43
 70
     1
102
RTVSPropertyOp44
 70
     1
102
RTVSPropertyOp45
 70
     1
102
RTVSPropertyOp46
 70
     1
102
RTVSPropertyOp47
 70
     1
102
RTVSPropertyOp48
 70
     1
102
RTVSPropertyOp49
 70
     1
102
RTVSPropertyOp50
 70
     1
102
RTVSPropertyOp51
 70
     0
102
RTVSPropertyOp52
 70
     0
102
RTVSPropertyOp53
 70
     1
102
RTVSPropertyOp54
 70
     1
102
RTVSPropertyOp55
 70
     1
102
RTVSPropertyOp56
 70
     1
102
RTVSPropertyOp57
 70
     1
102
RTVSPropertyOp58
 70
     1
102
RTVSPropertyOp59
 70
     1
102
RTVSPropertyOp60
 70
     1
102
RTVSPropertyOp61
 70
     1
102
RTVSPropertyOp62
 70
     1
  0
XRECORD
  5
1B70
102
{ACAD_REACTORS
330
1B6F
102
}
330
1B6F
100
AcDbXrecord
280
     1
102
RTVSPost2010Prop28
280
     0
102
RTVSPost2010PropOp28
 70
     1
102
RTVSPost2010Prop29
280
     1
102
RTVSPost2010PropOp29
 70
     1
102
RTVSPost2010Prop30
280
     1
102
RTVSPost2010PropOp30
 70
     1
102
RTVSPost2010Prop31
280
     0
102
RTVSPost2010PropOp31
 70
     1
102
RTVSPost2010Prop32
280
     0
102
RTVSPost2010PropOp32
 70
     1
102
RTVSPost2010Prop33
280
     0
102
RTVSPost2010PropOp33
 70
     1
102
RTVSPost2010Prop34
280
     0
102
RTVSPost2010PropOp34
 70
     1
102
RTVSPost2010Prop35
280
     0
102
RTVSPost2010PropOp35
 70
     1
102
RTVSPost2010Prop36
280
     0
102
RTVSPost2010PropOp36
 70
     1
102
RTVSPost2010Prop37
 90
       50
102
RTVSPost2010PropOp37
 70
     1
102
RTVSPost2010Prop38
140
0.0
102
RTVSPost2010PropOp38
 70
     1
102
RTVSPost2010Prop39
140
1.0
102
RTVSPost2010PropOp39
 70
     1
102
RTVSPost2010Prop40
 90
        0
102
RTVSPost2010PropOp40
 70
     1
102
RTVSPost2010Prop41ColorIndex
 90
       18
102
RTVSPost2010Prop41ColorRGB
 90
        0
102
RTVSPost2010PropOp41
 70
     1
102
RTVSPost2010Prop42
 90
       50
102
RTVSPost2010PropOp42
 70
     1
102
RTVSPost2010Prop43
 90
        3
102
RTVSPost2010PropOp43
 70
     1
102
RTVSPost2010Prop44ColorIndex
 90
        5
102
RTVSPost2010Prop44ColorRGB
 90
      255
102
RTVSPost2010PropOp44
 70
     1
102
RTVSPost2010Prop45
280
     0
102
RTVSPost2010PropOp45
 70
     1
102
RTVSPost2010Prop46
 90
       50
102
RTVSPost2010PropOp46
 70
     1
102
RTVSPost2010Prop47
 90
       50
102
RTVSPost2010PropOp47
 70
     1
102
RTVSPost2010Prop48
 90
       50
102
RTVSPost2010PropOp48
 70
     1
102
RTVSPost2010Prop49
280
     0
102
RTVSPost2010PropOp49
 70
     1
102
RTVSPost2010Prop50
 90
       50
102
RTVSPost2010PropOp50
 70
     1
102
RTVSPost2010Prop51ColorIndex
 90
      256
102
RTVSPost2010Prop51ColorRGB
 90
-16777216
102
RTVSPost2010PropOp51
 70
     0
102
RTVSPost2010Prop52
140
1.0
102
RTVSPost2010PropOp52
 70
     0
102
RTVSPost2010Prop53
 90
        2
102
RTVSPost2010PropOp53
 70
     1
102
RTVSPost2010Prop54
  1
strokes_ogs.tif
102
RTVSPost2010PropOp54
 70
     1
102
RTVSPost2010Prop55
280
     0
102
RTVSPost2010PropOp55
 70
     1
102
RTVSPost2010Prop56
140
1.0
102
RTVSPost2010PropOp56
 70
     1
102
RTVSPost2010Prop57
140
1.0
102
RTVSPost2010PropOp57
 70
     1
102
RTVSPropertyOp0
 70
     1
102
RTVSPropertyOp1
 70
     1
102
RTVSPropertyOp2
 70
     1
102
RTVSPropertyOp3
 70
     1
102
RTVSPropertyOp4
 70
     1
102
RTVSPropertyOp5
 70
     1
102
RTVSPropertyOp6
 70
     1
102
RTVSPropertyOp7
 70
     1
102
RTVSPropertyOp8
 70
     1
102
RTVSPropertyOp9
 70
     1
102
RTVSPropertyOp10
 70
     1
102
RTVSPropertyOp11
 70
     1
102
RTVSPropertyOp12
 70
     1
102
RTVSPropertyOp13
 70
     1
102
RTVSPropertyOp14
 70
     1
102
RTVSPropertyOp15
 70
     1
102
RTVSPropertyOp16
 70
     1
102
RTVSPropertyOp17
 70
     1
102
RTVSPropertyOp18
 70
     1
102
RTVSPropertyOp19
 70
     1
102
RTVSPropertyOp20
 70
     1
102
RTVSPropertyOp21
 70
     1
102
RTVSPropertyOp22
 70
     1
102
RTVSPropertyOp23
 70
     1
102
RTVSPropertyOp24
 70
     1
102
RTVSPropertyOp25
 70
     1
102
RTVSPropertyOp26
 70
     1
102
RTVSPropertyOp27
 70
     1
102
RTVSPropertyOp28
 70
     1
102
RTVSPropertyOp29
 70
     1
102
RTVSPropertyOp30
 70
     1
102
RTVSPropertyOp31
 70
     1
102
RTVSPropertyOp32
 70
     1
102
RTVSPropertyOp33
 70
     1
102
RTVSPropertyOp34
 70
     1
102
RTVSPropertyOp35
 70
     1
102
RTVSPropertyOp36
 70
     1
102
RTVSPropertyOp37
 70
     1
102
RTVSPropertyOp38
 70
     1
102
RTVSPropertyOp39
 70
     1
102
RTVSPropertyOp40
 70
     1
102
RTVSPropertyOp41
 70
     1
102
RTVSPropertyOp42
 70
     1
102
RTVSPropertyOp43
 70
     1
102
RTVSPropertyOp44
 70
     1
102
RTVSPropertyOp45
 70
     1
102
RTVSPropertyOp46
 70
     1
102
RTVSPropertyOp47
 70
     1
102
RTVSPropertyOp48
 70
     1
102
RTVSPropertyOp49
 70
     1
102
RTVSPropertyOp50
 70
     1
102
RTVSPropertyOp51
 70
     0
102
RTVSPropertyOp52
 70
     0
102
RTVSPropertyOp53
 70
     1
102
RTVSPropertyOp54
 70
     1
102
RTVSPropertyOp55
 70
     1
102
RTVSPropertyOp56
 70
     1
102
RTVSPropertyOp57
 70
     1
102
RTVSPropertyOp58
 70
     1
102
RTVSPropertyOp59
 70
     1
102
RTVSPropertyOp60
 70
     1
102
RTVSPropertyOp61
 70
     1
102
RTVSPropertyOp62
 70
     1
  0
XRECORD
  5
1B72
102
{ACAD_REACTORS
330
1B71
102
}
330
1B71
100
AcDbXrecord
280
     1
102
RTVSPost2010Prop28
280
     0
102
RTVSPost2010PropOp28
 70
     1
102
RTVSPost2010Prop29
280
     1
102
RTVSPost2010PropOp29
 70
     1
102
RTVSPost2010Prop30
280
     1
102
RTVSPost2010PropOp30
 70
     1
102
RTVSPost2010Prop31
280
     0
102
RTVSPost2010PropOp31
 70
     1
102
RTVSPost2010Prop32
280
     0
102
RTVSPost2010PropOp32
 70
     1
102
RTVSPost2010Prop33
280
     0
102
RTVSPost2010PropOp33
 70
     1
102
RTVSPost2010Prop34
280
     0
102
RTVSPost2010PropOp34
 70
     1
102
RTVSPost2010Prop35
280
     0
102
RTVSPost2010PropOp35
 70
     1
102
RTVSPost2010Prop36
280
     0
102
RTVSPost2010PropOp36
 70
     1
102
RTVSPost2010Prop37
 90
       50
102
RTVSPost2010PropOp37
 70
     1
102
RTVSPost2010Prop38
140
0.0
102
RTVSPost2010PropOp38
 70
     1
102
RTVSPost2010Prop39
140
1.0
102
RTVSPost2010PropOp39
 70
     1
102
RTVSPost2010Prop40
 90
        0
102
RTVSPost2010PropOp40
 70
     1
102
RTVSPost2010Prop41ColorIndex
 90
       18
102
RTVSPost2010Prop41ColorRGB
 90
        0
102
RTVSPost2010PropOp41
 70
     1
102
RTVSPost2010Prop42
 90
       50
102
RTVSPost2010PropOp42
 70
     1
102
RTVSPost2010Prop43
 90
        3
102
RTVSPost2010PropOp43
 70
     1
102
RTVSPost2010Prop44ColorIndex
 90
        5
102
RTVSPost2010Prop44ColorRGB
 90
      255
102
RTVSPost2010PropOp44
 70
     1
102
RTVSPost2010Prop45
280
     0
102
RTVSPost2010PropOp45
 70
     1
102
RTVSPost2010Prop46
 90
       50
102
RTVSPost2010PropOp46
 70
     1
102
RTVSPost2010Prop47
 90
       50
102
RTVSPost2010PropOp47
 70
     1
102
RTVSPost2010Prop48
 90
       50
102
RTVSPost2010PropOp48
 70
     1
102
RTVSPost2010Prop49
280
     0
102
RTVSPost2010PropOp49
 70
     1
102
RTVSPost2010Prop50
 90
       50
102
RTVSPost2010PropOp50
 70
     1
102
RTVSPost2010Prop51ColorIndex
 90
      256
102
RTVSPost2010Prop51ColorRGB
 90
-16777216
102
RTVSPost2010PropOp51
 70
     0
102
RTVSPost2010Prop52
140
1.0
102
RTVSPost2010PropOp52
 70
     0
102
RTVSPost2010Prop53
 90
        2
102
RTVSPost2010PropOp53
 70
     1
102
RTVSPost2010Prop54
  1
strokes_ogs.tif
102
RTVSPost2010PropOp54
 70
     1
102
RTVSPost2010Prop55
280
     0
102
RTVSPost2010PropOp55
 70
     1
102
RTVSPost2010Prop56
140
1.0
102
RTVSPost2010PropOp56
 70
     1
102
RTVSPost2010Prop57
140
1.0
102
RTVSPost2010PropOp57
 70
     1
102
RTVSPropertyOp0
 70
     1
102
RTVSPropertyOp1
 70
     1
102
RTVSPropertyOp2
 70
     1
102
RTVSPropertyOp3
 70
     1
102
RTVSPropertyOp4
 70
     1
102
RTVSPropertyOp5
 70
     1
102
RTVSPropertyOp6
 70
     1
102
RTVSPropertyOp7
 70
     1
102
RTVSPropertyOp8
 70
     1
102
RTVSPropertyOp9
 70
     1
102
RTVSPropertyOp10
 70
     1
102
RTVSPropertyOp11
 70
     1
102
RTVSPropertyOp12
 70
     1
102
RTVSPropertyOp13
 70
     1
102
RTVSPropertyOp14
 70
     1
102
RTVSPropertyOp15
 70
     1
102
RTVSPropertyOp16
 70
     1
102
RTVSPropertyOp17
 70
     1
102
RTVSPropertyOp18
 70
     1
102
RTVSPropertyOp19
 70
     1
102
RTVSPropertyOp20
 70
     1
102
RTVSPropertyOp21
 70
     1
102
RTVSPropertyOp22
 70
     1
102
RTVSPropertyOp23
 70
     1
102
RTVSPropertyOp24
 70
     1
102
RTVSPropertyOp25
 70
     1
102
RTVSPropertyOp26
 70
     1
102
RTVSPropertyOp27
 70
     1
102
RTVSPropertyOp28
 70
     1
102
RTVSPropertyOp29
 70
     1
102
RTVSPropertyOp30
 70
     1
102
RTVSPropertyOp31
 70
     1
102
RTVSPropertyOp32
 70
     1
102
RTVSPropertyOp33
 70
     1
102
RTVSPropertyOp34
 70
     1
102
RTVSPropertyOp35
 70
     1
102
RTVSPropertyOp36
 70
     1
102
RTVSPropertyOp37
 70
     1
102
RTVSPropertyOp38
 70
     1
102
RTVSPropertyOp39
 70
     1
102
RTVSPropertyOp40
 70
     1
102
RTVSPropertyOp41
 70
     1
102
RTVSPropertyOp42
 70
     1
102
RTVSPropertyOp43
 70
     1
102
RTVSPropertyOp44
 70
     1
102
RTVSPropertyOp45
 70
     1
102
RTVSPropertyOp46
 70
     1
102
RTVSPropertyOp47
 70
     1
102
RTVSPropertyOp48
 70
     1
102
RTVSPropertyOp49
 70
     1
102
RTVSPropertyOp50
 70
     1
102
RTVSPropertyOp51
 70
     0
102
RTVSPropertyOp52
 70
     0
102
RTVSPropertyOp53
 70
     1
102
RTVSPropertyOp54
 70
     1
102
RTVSPropertyOp55
 70
     1
102
RTVSPropertyOp56
 70
     1
102
RTVSPropertyOp57
 70
     1
102
RTVSPropertyOp58
 70
     1
102
RTVSPropertyOp59
 70
     1
102
RTVSPropertyOp60
 70
     1
102
RTVSPropertyOp61
 70
     1
102
RTVSPropertyOp62
 70
     1
  0
XRECORD
  5
1B74
102
{ACAD_REACTORS
330
1B73
102
}
330
1B73
100
AcDbXrecord
280
     1
102
RTVSPost2010Prop28
280
     0
102
RTVSPost2010PropOp28
 70
     1
102
RTVSPost2010Prop29
280
     1
102
RTVSPost2010PropOp29
 70
     1
102
RTVSPost2010Prop30
280
     1
102
RTVSPost2010PropOp30
 70
     1
102
RTVSPost2010Prop31
280
     0
102
RTVSPost2010PropOp31
 70
     1
102
RTVSPost2010Prop32
280
     0
102
RTVSPost2010PropOp32
 70
     1
102
RTVSPost2010Prop33
280
     0
102
RTVSPost2010PropOp33
 70
     1
102
RTVSPost2010Prop34
280
     0
102
RTVSPost2010PropOp34
 70
     1
102
RTVSPost2010Prop35
280
     0
102
RTVSPost2010PropOp35
 70
     1
102
RTVSPost2010Prop36
280
     0
102
RTVSPost2010PropOp36
 70
     1
102
RTVSPost2010Prop37
 90
       50
102
RTVSPost2010PropOp37
 70
     1
102
RTVSPost2010Prop38
140
0.0
102
RTVSPost2010PropOp38
 70
     1
102
RTVSPost2010Prop39
140
1.0
102
RTVSPost2010PropOp39
 70
     1
102
RTVSPost2010Prop40
 90
        0
102
RTVSPost2010PropOp40
 70
     1
102
RTVSPost2010Prop41ColorIndex
 90
       18
102
RTVSPost2010Prop41ColorRGB
 90
        0
102
RTVSPost2010PropOp41
 70
     1
102
RTVSPost2010Prop42
 90
       50
102
RTVSPost2010PropOp42
 70
     1
102
RTVSPost2010Prop43
 90
        3
102
RTVSPost2010PropOp43
 70
     1
102
RTVSPost2010Prop44ColorIndex
 90
        5
102
RTVSPost2010Prop44ColorRGB
 90
      255
102
RTVSPost2010PropOp44
 70
     1
102
RTVSPost2010Prop45
280
     0
102
RTVSPost2010PropOp45
 70
     1
102
RTVSPost2010Prop46
 90
       50
102
RTVSPost2010PropOp46
 70
     1
102
RTVSPost2010Prop47
 90
       50
102
RTVSPost2010PropOp47
 70
     1
102
RTVSPost2010Prop48
 90
       50
102
RTVSPost2010PropOp48
 70
     1
102
RTVSPost2010Prop49
280
     0
102
RTVSPost2010PropOp49
 70
     1
102
RTVSPost2010Prop50
 90
       50
102
RTVSPost2010PropOp50
 70
     1
102
RTVSPost2010Prop51ColorIndex
 90
      256
102
RTVSPost2010Prop51ColorRGB
 90
-16777216
102
RTVSPost2010PropOp51
 70
     0
102
RTVSPost2010Prop52
140
1.0
102
RTVSPost2010PropOp52
 70
     0
102
RTVSPost2010Prop53
 90
        2
102
RTVSPost2010PropOp53
 70
     1
102
RTVSPost2010Prop54
  1
strokes_ogs.tif
102
RTVSPost2010PropOp54
 70
     1
102
RTVSPost2010Prop55
280
     0
102
RTVSPost2010PropOp55
 70
     1
102
RTVSPost2010Prop56
140
1.0
102
RTVSPost2010PropOp56
 70
     1
102
RTVSPost2010Prop57
140
1.0
102
RTVSPost2010PropOp57
 70
     1
102
RTVSPropertyOp0
 70
     1
102
RTVSPropertyOp1
 70
     1
102
RTVSPropertyOp2
 70
     1
102
RTVSPropertyOp3
 70
     1
102
RTVSPropertyOp4
 70
     1
102
RTVSPropertyOp5
 70
     1
102
RTVSPropertyOp6
 70
     1
102
RTVSPropertyOp7
 70
     1
102
RTVSPropertyOp8
 70
     1
102
RTVSPropertyOp9
 70
     1
102
RTVSPropertyOp10
 70
     1
102
RTVSPropertyOp11
 70
     1
102
RTVSPropertyOp12
 70
     1
102
RTVSPropertyOp13
 70
     1
102
RTVSPropertyOp14
 70
     1
102
RTVSPropertyOp15
 70
     1
102
RTVSPropertyOp16
 70
     1
102
RTVSPropertyOp17
 70
     1
102
RTVSPropertyOp18
 70
     1
102
RTVSPropertyOp19
 70
     1
102
RTVSPropertyOp20
 70
     1
102
RTVSPropertyOp21
 70
     1
102
RTVSPropertyOp22
 70
     1
102
RTVSPropertyOp23
 70
     1
102
RTVSPropertyOp24
 70
     1
102
RTVSPropertyOp25
 70
     1
102
RTVSPropertyOp26
 70
     1
102
RTVSPropertyOp27
 70
     1
102
RTVSPropertyOp28
 70
     1
102
RTVSPropertyOp29
 70
     1
102
RTVSPropertyOp30
 70
     1
102
RTVSPropertyOp31
 70
     1
102
RTVSPropertyOp32
 70
     1
102
RTVSPropertyOp33
 70
     1
102
RTVSPropertyOp34
 70
     1
102
RTVSPropertyOp35
 70
     1
102
RTVSPropertyOp36
 70
     1
102
RTVSPropertyOp37
 70
     1
102
RTVSPropertyOp38
 70
     1
102
RTVSPropertyOp39
 70
     1
102
RTVSPropertyOp40
 70
     1
102
RTVSPropertyOp41
 70
     1
102
RTVSPropertyOp42
 70
     1
102
RTVSPropertyOp43
 70
     1
102
RTVSPropertyOp44
 70
     1
102
RTVSPropertyOp45
 70
     1
102
RTVSPropertyOp46
 70
     1
102
RTVSPropertyOp47
 70
     1
102
RTVSPropertyOp48
 70
     1
102
RTVSPropertyOp49
 70
     1
102
RTVSPropertyOp50
 70
     1
102
RTVSPropertyOp51
 70
     0
102
RTVSPropertyOp52
 70
     0
102
RTVSPropertyOp53
 70
     1
102
RTVSPropertyOp54
 70
     1
102
RTVSPropertyOp55
 70
     1
102
RTVSPropertyOp56
 70
     1
102
RTVSPropertyOp57
 70
     1
102
RTVSPropertyOp58
 70
     1
102
RTVSPropertyOp59
 70
     1
102
RTVSPropertyOp60
 70
     1
102
RTVSPropertyOp61
 70
     1
102
RTVSPropertyOp62
 70
     1
  0
XRECORD
  5
1B7C
102
{ACAD_REACTORS
330
1B7B
102
}
330
1B7B
100
AcDbXrecord
280
     1
102
RTVSPost2010Prop28
280
     0
102
RTVSPost2010PropOp28
 70
     1
102
RTVSPost2010Prop29
280
     1
102
RTVSPost2010PropOp29
 70
     1
102
RTVSPost2010Prop30
280
     1
102
RTVSPost2010PropOp30
 70
     1
102
RTVSPost2010Prop31
280
     0
102
RTVSPost2010PropOp31
 70
     1
102
RTVSPost2010Prop32
280
     0
102
RTVSPost2010PropOp32
 70
     1
102
RTVSPost2010Prop33
280
     0
102
RTVSPost2010PropOp33
 70
     1
102
RTVSPost2010Prop34
280
     0
102
RTVSPost2010PropOp34
 70
     1
102
RTVSPost2010Prop35
280
     0
102
RTVSPost2010PropOp35
 70
     1
102
RTVSPost2010Prop36
280
     0
102
RTVSPost2010PropOp36
 70
     1
102
RTVSPost2010Prop37
 90
       50
102
RTVSPost2010PropOp37
 70
     1
102
RTVSPost2010Prop38
140
0.0
102
RTVSPost2010PropOp38
 70
     1
102
RTVSPost2010Prop39
140
1.0
102
RTVSPost2010PropOp39
 70
     1
102
RTVSPost2010Prop40
 90
        0
102
RTVSPost2010PropOp40
 70
     1
102
RTVSPost2010Prop41ColorIndex
 90
       18
102
RTVSPost2010Prop41ColorRGB
 90
        0
102
RTVSPost2010PropOp41
 70
     1
102
RTVSPost2010Prop42
 90
       50
102
RTVSPost2010PropOp42
 70
     1
102
RTVSPost2010Prop43
 90
        3
102
RTVSPost2010PropOp43
 70
     1
102
RTVSPost2010Prop44ColorIndex
 90
        5
102
RTVSPost2010Prop44ColorRGB
 90
      255
102
RTVSPost2010PropOp44
 70
     1
102
RTVSPost2010Prop45
280
     0
102
RTVSPost2010PropOp45
 70
     1
102
RTVSPost2010Prop46
 90
       50
102
RTVSPost2010PropOp46
 70
     1
102
RTVSPost2010Prop47
 90
       50
102
RTVSPost2010PropOp47
 70
     1
102
RTVSPost2010Prop48
 90
       50
102
RTVSPost2010PropOp48
 70
     1
102
RTVSPost2010Prop49
280
     0
102
RTVSPost2010PropOp49
 70
     1
102
RTVSPost2010Prop50
 90
       50
102
RTVSPost2010PropOp50
 70
     1
102
RTVSPost2010Prop51ColorIndex
 90
      256
102
RTVSPost2010Prop51ColorRGB
 90
-16777216
102
RTVSPost2010PropOp51
 70
     0
102
RTVSPost2010Prop52
140
1.0
102
RTVSPost2010PropOp52
 70
     0
102
RTVSPost2010Prop53
 90
        2
102
RTVSPost2010PropOp53
 70
     1
102
RTVSPost2010Prop54
  1
strokes_ogs.tif
102
RTVSPost2010PropOp54
 70
     1
102
RTVSPost2010Prop55
280
     0
102
RTVSPost2010PropOp55
 70
     1
102
RTVSPost2010Prop56
140
1.0
102
RTVSPost2010PropOp56
 70
     1
102
RTVSPost2010Prop57
140
1.0
102
RTVSPost2010PropOp57
 70
     1
102
RTVSPropertyOp0
 70
     1
102
RTVSPropertyOp1
 70
     1
102
RTVSPropertyOp2
 70
     1
102
RTVSPropertyOp3
 70
     1
102
RTVSPropertyOp4
 70
     1
102
RTVSPropertyOp5
 70
     1
102
RTVSPropertyOp6
 70
     1
102
RTVSPropertyOp7
 70
     1
102
RTVSPropertyOp8
 70
     1
102
RTVSPropertyOp9
 70
     1
102
RTVSPropertyOp10
 70
     1
102
RTVSPropertyOp11
 70
     1
102
RTVSPropertyOp12
 70
     1
102
RTVSPropertyOp13
 70
     1
102
RTVSPropertyOp14
 70
     1
102
RTVSPropertyOp15
 70
     1
102
RTVSPropertyOp16
 70
     1
102
RTVSPropertyOp17
 70
     1
102
RTVSPropertyOp18
 70
     1
102
RTVSPropertyOp19
 70
     1
102
RTVSPropertyOp20
 70
     1
102
RTVSPropertyOp21
 70
     1
102
RTVSPropertyOp22
 70
     1
102
RTVSPropertyOp23
 70
     1
102
RTVSPropertyOp24
 70
     1
102
RTVSPropertyOp25
 70
     1
102
RTVSPropertyOp26
 70
     1
102
RTVSPropertyOp27
 70
     1
102
RTVSPropertyOp28
 70
     1
102
RTVSPropertyOp29
 70
     1
102
RTVSPropertyOp30
 70
     1
102
RTVSPropertyOp31
 70
     1
102
RTVSPropertyOp32
 70
     1
102
RTVSPropertyOp33
 70
     1
102
RTVSPropertyOp34
 70
     1
102
RTVSPropertyOp35
 70
     1
102
RTVSPropertyOp36
 70
     1
102
RTVSPropertyOp37
 70
     1
102
RTVSPropertyOp38
 70
     1
102
RTVSPropertyOp39
 70
     1
102
RTVSPropertyOp40
 70
     1
102
RTVSPropertyOp41
 70
     1
102
RTVSPropertyOp42
 70
     1
102
RTVSPropertyOp43
 70
     1
102
RTVSPropertyOp44
 70
     1
102
RTVSPropertyOp45
 70
     1
102
RTVSPropertyOp46
 70
     1
102
RTVSPropertyOp47
 70
     1
102
RTVSPropertyOp48
 70
     1
102
RTVSPropertyOp49
 70
     1
102
RTVSPropertyOp50
 70
     1
102
RTVSPropertyOp51
 70
     0
102
RTVSPropertyOp52
 70
     0
102
RTVSPropertyOp53
 70
     1
102
RTVSPropertyOp54
 70
     1
102
RTVSPropertyOp55
 70
     1
102
RTVSPropertyOp56
 70
     1
102
RTVSPropertyOp57
 70
     1
102
RTVSPropertyOp58
 70
     1
102
RTVSPropertyOp59
 70
     1
102
RTVSPropertyOp60
 70
     1
102
RTVSPropertyOp61
 70
     1
102
RTVSPropertyOp62
 70
     1
  0
XRECORD
  5
1B98
102
{ACAD_REACTORS
330
1B97
102
}
330
1B97
100
AcDbXrecord
280
     1
102
RTVSPost2010Prop28
280
     0
102
RTVSPost2010PropOp28
 70
     0
102
RTVSPost2010Prop29
280
     1
102
RTVSPost2010PropOp29
 70
     0
102
RTVSPost2010Prop30
280
     1
102
RTVSPost2010PropOp30
 70
     0
102
RTVSPost2010Prop31
280
     0
102
RTVSPost2010PropOp31
 70
     0
102
RTVSPost2010Prop32
280
     0
102
RTVSPost2010PropOp32
 70
     0
102
RTVSPost2010Prop33
280
     0
102
RTVSPost2010PropOp33
 70
     0
102
RTVSPost2010Prop34
280
     0
102
RTVSPost2010PropOp34
 70
     0
102
RTVSPost2010Prop35
280
     0
102
RTVSPost2010PropOp35
 70
     0
102
RTVSPost2010Prop36
280
     0
102
RTVSPost2010PropOp36
 70
     0
102
RTVSPost2010Prop37
 90
       50
102
RTVSPost2010PropOp37
 70
     0
102
RTVSPost2010Prop38
140
0.0
102
RTVSPost2010PropOp38
 70
     0
102
RTVSPost2010Prop39
140
1.0
102
RTVSPost2010PropOp39
 70
     0
102
RTVSPost2010Prop40
 90
        0
102
RTVSPost2010PropOp40
 70
     0
102
RTVSPost2010Prop41ColorIndex
 90
       18
102
RTVSPost2010Prop41ColorRGB
 90
        0
102
RTVSPost2010PropOp41
 70
     0
102
RTVSPost2010Prop42
 90
       50
102
RTVSPost2010PropOp42
 70
     0
102
RTVSPost2010Prop43
 90
        3
102
RTVSPost2010PropOp43
 70
     0
102
RTVSPost2010Prop44ColorIndex
 90
        5
102
RTVSPost2010Prop44ColorRGB
 90
      255
102
RTVSPost2010PropOp44
 70
     0
102
RTVSPost2010Prop45
280
     0
102
RTVSPost2010PropOp45
 70
     0
102
RTVSPost2010Prop46
 90
       50
102
RTVSPost2010PropOp46
 70
     0
102
RTVSPost2010Prop47
 90
       50
102
RTVSPost2010PropOp47
 70
     0
102
RTVSPost2010Prop48
 90
       50
102
RTVSPost2010PropOp48
 70
     0
102
RTVSPost2010Prop49
280
     0
102
RTVSPost2010PropOp49
 70
     0
102
RTVSPost2010Prop50
 90
       50
102
RTVSPost2010PropOp50
 70
     0
102
RTVSPost2010Prop51ColorIndex
 90
      256
102
RTVSPost2010Prop51ColorRGB
 90
-16777216
102
RTVSPost2010PropOp51
 70
     0
102
RTVSPost2010Prop52
140
1.0
102
RTVSPost2010PropOp52
 70
     0
102
RTVSPost2010Prop53
 90
        2
102
RTVSPost2010PropOp53
 70
     0
102
RTVSPost2010Prop54
  1
strokes_ogs.tif
102
RTVSPost2010PropOp54
 70
     0
102
RTVSPost2010Prop55
280
     0
102
RTVSPost2010PropOp55
 70
     0
102
RTVSPost2010Prop56
140
1.0
102
RTVSPost2010PropOp56
 70
     0
102
RTVSPost2010Prop57
140
1.0
102
RTVSPost2010PropOp57
 70
     0
102
RTVSPropertyOp0
 70
     0
102
RTVSPropertyOp1
 70
     0
102
RTVSPropertyOp2
 70
     0
102
RTVSPropertyOp3
 70
     0
102
RTVSPropertyOp4
 70
     0
102
RTVSPropertyOp5
 70
     0
102
RTVSPropertyOp6
 70
     0
102
RTVSPropertyOp7
 70
     0
102
RTVSPropertyOp8
 70
     0
102
RTVSPropertyOp9
 70
     0
102
RTVSPropertyOp10
 70
     0
102
RTVSPropertyOp11
 70
     0
102
RTVSPropertyOp12
 70
     0
102
RTVSPropertyOp13
 70
     0
102
RTVSPropertyOp14
 70
     2
102
RTVSPropertyOp15
 70
     0
102
RTVSPropertyOp16
 70
     0
102
RTVSPropertyOp17
 70
     0
102
RTVSPropertyOp18
 70
     0
102
RTVSPropertyOp19
 70
     0
102
RTVSPropertyOp20
 70
     0
102
RTVSPropertyOp21
 70
     0
102
RTVSPropertyOp22
 70
     0
102
RTVSPropertyOp23
 70
     0
102
RTVSPropertyOp24
 70
     0
102
RTVSPropertyOp25
 70
     0
102
RTVSPropertyOp26
 70
     0
102
RTVSPropertyOp27
 70
     0
102
RTVSPropertyOp28
 70
     0
102
RTVSPropertyOp29
 70
     0
102
RTVSPropertyOp30
 70
     0
102
RTVSPropertyOp31
 70
     0
102
RTVSPropertyOp32
 70
     0
102
RTVSPropertyOp33
 70
     0
102
RTVSPropertyOp34
 70
     0
102
RTVSPropertyOp35
 70
     0
102
RTVSPropertyOp36
 70
     0
102
RTVSPropertyOp37
 70
     0
102
RTVSPropertyOp38
 70
     0
102
RTVSPropertyOp39
 70
     0
102
RTVSPropertyOp40
 70
     0
102
RTVSPropertyOp41
 70
     0
102
RTVSPropertyOp42
 70
     0
102
RTVSPropertyOp43
 70
     0
102
RTVSPropertyOp44
 70
     0
102
RTVSPropertyOp45
 70
     0
102
RTVSPropertyOp46
 70
     0
102
RTVSPropertyOp47
 70
     0
102
RTVSPropertyOp48
 70
     0
102
RTVSPropertyOp49
 70
     0
102
RTVSPropertyOp50
 70
     0
102
RTVSPropertyOp51
 70
     0
102
RTVSPropertyOp52
 70
     0
102
RTVSPropertyOp53
 70
     0
102
RTVSPropertyOp54
 70
     0
102
RTVSPropertyOp55
 70
     0
102
RTVSPropertyOp56
 70
     0
102
RTVSPropertyOp57
 70
     0
102
RTVSPropertyOp58
 70
     0
102
RTVSPropertyOp59
 70
     0
102
RTVSPropertyOp60
 70
     0
102
RTVSPropertyOp61
 70
     0
102
RTVSPropertyOp62
 70
     0
  0
XRECORD
  5
1B88
102
{ACAD_REACTORS
330
1B87
102
}
330
1B87
100
AcDbXrecord
280
     1
102
RTVSPost2010Prop28
280
     0
102
RTVSPost2010PropOp28
 70
     1
102
RTVSPost2010Prop29
280
     1
102
RTVSPost2010PropOp29
 70
     1
102
RTVSPost2010Prop30
280
     1
102
RTVSPost2010PropOp30
 70
     1
102
RTVSPost2010Prop31
280
     0
102
RTVSPost2010PropOp31
 70
     1
102
RTVSPost2010Prop32
280
     0
102
RTVSPost2010PropOp32
 70
     1
102
RTVSPost2010Prop33
280
     0
102
RTVSPost2010PropOp33
 70
     1
102
RTVSPost2010Prop34
280
     0
102
RTVSPost2010PropOp34
 70
     1
102
RTVSPost2010Prop35
280
     0
102
RTVSPost2010PropOp35
 70
     1
102
RTVSPost2010Prop36
280
     0
102
RTVSPost2010PropOp36
 70
     1
102
RTVSPost2010Prop37
 90
       50
102
RTVSPost2010PropOp37
 70
     1
102
RTVSPost2010Prop38
140
0.0
102
RTVSPost2010PropOp38
 70
     1
102
RTVSPost2010Prop39
140
1.0
102
RTVSPost2010PropOp39
 70
     1
102
RTVSPost2010Prop40
 90
        0
102
RTVSPost2010PropOp40
 70
     1
102
RTVSPost2010Prop41ColorIndex
 90
       18
102
RTVSPost2010Prop41ColorRGB
 90
        0
102
RTVSPost2010PropOp41
 70
     1
102
RTVSPost2010Prop42
 90
       50
102
RTVSPost2010PropOp42
 70
     1
102
RTVSPost2010Prop43
 90
        3
102
RTVSPost2010PropOp43
 70
     1
102
RTVSPost2010Prop44ColorIndex
 90
        5
102
RTVSPost2010Prop44ColorRGB
 90
      255
102
RTVSPost2010PropOp44
 70
     1
102
RTVSPost2010Prop45
280
     0
102
RTVSPost2010PropOp45
 70
     1
102
RTVSPost2010Prop46
 90
       50
102
RTVSPost2010PropOp46
 70
     1
102
RTVSPost2010Prop47
 90
       50
102
RTVSPost2010PropOp47
 70
     1
102
RTVSPost2010Prop48
 90
       50
102
RTVSPost2010PropOp48
 70
     1
102
RTVSPost2010Prop49
280
     0
102
RTVSPost2010PropOp49
 70
     1
102
RTVSPost2010Prop50
 90
       50
102
RTVSPost2010PropOp50
 70
     1
102
RTVSPost2010Prop51ColorIndex
 90
      256
102
RTVSPost2010Prop51ColorRGB
 90
-16777216
102
RTVSPost2010PropOp51
 70
     0
102
RTVSPost2010Prop52
140
1.0
102
RTVSPost2010PropOp52
 70
     0
102
RTVSPost2010Prop53
 90
        2
102
RTVSPost2010PropOp53
 70
     1
102
RTVSPost2010Prop54
  1
strokes_ogs.tif
102
RTVSPost2010PropOp54
 70
     1
102
RTVSPost2010Prop55
280
     0
102
RTVSPost2010PropOp55
 70
     1
102
RTVSPost2010Prop56
140
1.0
102
RTVSPost2010PropOp56
 70
     1
102
RTVSPost2010Prop57
140
1.0
102
RTVSPost2010PropOp57
 70
     1
102
RTVSPropertyOp0
 70
     1
102
RTVSPropertyOp1
 70
     1
102
RTVSPropertyOp2
 70
     1
102
RTVSPropertyOp3
 70
     1
102
RTVSPropertyOp4
 70
     1
102
RTVSPropertyOp5
 70
     1
102
RTVSPropertyOp6
 70
     1
102
RTVSPropertyOp7
 70
     1
102
RTVSPropertyOp8
 70
     1
102
RTVSPropertyOp9
 70
     1
102
RTVSPropertyOp10
 70
     1
102
RTVSPropertyOp11
 70
     1
102
RTVSPropertyOp12
 70
     1
102
RTVSPropertyOp13
 70
     1
102
RTVSPropertyOp14
 70
     1
102
RTVSPropertyOp15
 70
     1
102
RTVSPropertyOp16
 70
     1
102
RTVSPropertyOp17
 70
     1
102
RTVSPropertyOp18
 70
     1
102
RTVSPropertyOp19
 70
     1
102
RTVSPropertyOp20
 70
     1
102
RTVSPropertyOp21
 70
     1
102
RTVSPropertyOp22
 70
     1
102
RTVSPropertyOp23
 70
     1
102
RTVSPropertyOp24
 70
     1
102
RTVSPropertyOp25
 70
     1
102
RTVSPropertyOp26
 70
     1
102
RTVSPropertyOp27
 70
     1
102
RTVSPropertyOp28
 70
     1
102
RTVSPropertyOp29
 70
     1
102
RTVSPropertyOp30
 70
     1
102
RTVSPropertyOp31
 70
     1
102
RTVSPropertyOp32
 70
     1
102
RTVSPropertyOp33
 70
     1
102
RTVSPropertyOp34
 70
     1
102
RTVSPropertyOp35
 70
     1
102
RTVSPropertyOp36
 70
     1
102
RTVSPropertyOp37
 70
     1
102
RTVSPropertyOp38
 70
     1
102
RTVSPropertyOp39
 70
     1
102
RTVSPropertyOp40
 70
     1
102
RTVSPropertyOp41
 70
     1
102
RTVSPropertyOp42
 70
     1
102
RTVSPropertyOp43
 70
     1
102
RTVSPropertyOp44
 70
     1
102
RTVSPropertyOp45
 70
     1
102
RTVSPropertyOp46
 70
     1
102
RTVSPropertyOp47
 70
     1
102
RTVSPropertyOp48
 70
     1
102
RTVSPropertyOp49
 70
     1
102
RTVSPropertyOp50
 70
     1
102
RTVSPropertyOp51
 70
     0
102
RTVSPropertyOp52
 70
     0
102
RTVSPropertyOp53
 70
     1
102
RTVSPropertyOp54
 70
     1
102
RTVSPropertyOp55
 70
     1
102
RTVSPropertyOp56
 70
     1
102
RTVSPropertyOp57
 70
     1
102
RTVSPropertyOp58
 70
     1
102
RTVSPropertyOp59
 70
     1
102
RTVSPropertyOp60
 70
     1
102
RTVSPropertyOp61
 70
     1
102
RTVSPropertyOp62
 70
     1
  0
XRECORD
  5
1B9A
102
{ACAD_REACTORS
330
1B99
102
}
330
1B99
100
AcDbXrecord
280
     1
102
RTVSPost2010Prop28
280
     0
102
RTVSPost2010PropOp28
 70
     0
102
RTVSPost2010Prop29
280
     1
102
RTVSPost2010PropOp29
 70
     0
102
RTVSPost2010Prop30
280
     1
102
RTVSPost2010PropOp30
 70
     0
102
RTVSPost2010Prop31
280
     0
102
RTVSPost2010PropOp31
 70
     0
102
RTVSPost2010Prop32
280
     0
102
RTVSPost2010PropOp32
 70
     0
102
RTVSPost2010Prop33
280
     0
102
RTVSPost2010PropOp33
 70
     0
102
RTVSPost2010Prop34
280
     0
102
RTVSPost2010PropOp34
 70
     0
102
RTVSPost2010Prop35
280
     0
102
RTVSPost2010PropOp35
 70
     0
102
RTVSPost2010Prop36
280
     0
102
RTVSPost2010PropOp36
 70
     0
102
RTVSPost2010Prop37
 90
       50
102
RTVSPost2010PropOp37
 70
     0
102
RTVSPost2010Prop38
140
0.0
102
RTVSPost2010PropOp38
 70
     0
102
RTVSPost2010Prop39
140
1.0
102
RTVSPost2010PropOp39
 70
     0
102
RTVSPost2010Prop40
 90
        0
102
RTVSPost2010PropOp40
 70
     0
102
RTVSPost2010Prop41ColorIndex
 90
       18
102
RTVSPost2010Prop41ColorRGB
 90
        0
102
RTVSPost2010PropOp41
 70
     0
102
RTVSPost2010Prop42
 90
       50
102
RTVSPost2010PropOp42
 70
     0
102
RTVSPost2010Prop43
 90
        3
102
RTVSPost2010PropOp43
 70
     0
102
RTVSPost2010Prop44ColorIndex
 90
        5
102
RTVSPost2010Prop44ColorRGB
 90
      255
102
RTVSPost2010PropOp44
 70
     0
102
RTVSPost2010Prop45
280
     0
102
RTVSPost2010PropOp45
 70
     0
102
RTVSPost2010Prop46
 90
       50
102
RTVSPost2010PropOp46
 70
     0
102
RTVSPost2010Prop47
 90
       50
102
RTVSPost2010PropOp47
 70
     0
102
RTVSPost2010Prop48
 90
       50
102
RTVSPost2010PropOp48
 70
     0
102
RTVSPost2010Prop49
280
     0
102
RTVSPost2010PropOp49
 70
     0
102
RTVSPost2010Prop50
 90
       50
102
RTVSPost2010PropOp50
 70
     0
102
RTVSPost2010Prop51ColorIndex
 90
      256
102
RTVSPost2010Prop51ColorRGB
 90
-16777216
102
RTVSPost2010PropOp51
 70
     0
102
RTVSPost2010Prop52
140
1.0
102
RTVSPost2010PropOp52
 70
     0
102
RTVSPost2010Prop53
 90
        2
102
RTVSPost2010PropOp53
 70
     0
102
RTVSPost2010Prop54
  1
strokes_ogs.tif
102
RTVSPost2010PropOp54
 70
     0
102
RTVSPost2010Prop55
280
     0
102
RTVSPost2010PropOp55
 70
     0
102
RTVSPost2010Prop56
140
1.0
102
RTVSPost2010PropOp56
 70
     0
102
RTVSPost2010Prop57
140
1.0
102
RTVSPost2010PropOp57
 70
     0
102
RTVSPropertyOp0
 70
     0
102
RTVSPropertyOp1
 70
     0
102
RTVSPropertyOp2
 70
     0
102
RTVSPropertyOp3
 70
     0
102
RTVSPropertyOp4
 70
     0
102
RTVSPropertyOp5
 70
     0
102
RTVSPropertyOp6
 70
     0
102
RTVSPropertyOp7
 70
     0
102
RTVSPropertyOp8
 70
     0
102
RTVSPropertyOp9
 70
     0
102
RTVSPropertyOp10
 70
     0
102
RTVSPropertyOp11
 70
     0
102
RTVSPropertyOp12
 70
     0
102
RTVSPropertyOp13
 70
     0
102
RTVSPropertyOp14
 70
     2
102
RTVSPropertyOp15
 70
     0
102
RTVSPropertyOp16
 70
     0
102
RTVSPropertyOp17
 70
     0
102
RTVSPropertyOp18
 70
     0
102
RTVSPropertyOp19
 70
     0
102
RTVSPropertyOp20
 70
     0
102
RTVSPropertyOp21
 70
     0
102
RTVSPropertyOp22
 70
     0
102
RTVSPropertyOp23
 70
     0
102
RTVSPropertyOp24
 70
     0
102
RTVSPropertyOp25
 70
     0
102
RTVSPropertyOp26
 70
     0
102
RTVSPropertyOp27
 70
     0
102
RTVSPropertyOp28
 70
     0
102
RTVSPropertyOp29
 70
     0
102
RTVSPropertyOp30
 70
     0
102
RTVSPropertyOp31
 70
     0
102
RTVSPropertyOp32
 70
     0
102
RTVSPropertyOp33
 70
     0
102
RTVSPropertyOp34
 70
     0
102
RTVSPropertyOp35
 70
     0
102
RTVSPropertyOp36
 70
     0
102
RTVSPropertyOp37
 70
     0
102
RTVSPropertyOp38
 70
     0
102
RTVSPropertyOp39
 70
     0
102
RTVSPropertyOp40
 70
     0
102
RTVSPropertyOp41
 70
     0
102
RTVSPropertyOp42
 70
     0
102
RTVSPropertyOp43
 70
     0
102
RTVSPropertyOp44
 70
     0
102
RTVSPropertyOp45
 70
     0
102
RTVSPropertyOp46
 70
     0
102
RTVSPropertyOp47
 70
     0
102
RTVSPropertyOp48
 70
     0
102
RTVSPropertyOp49
 70
     0
102
RTVSPropertyOp50
 70
     0
102
RTVSPropertyOp51
 70
     0
102
RTVSPropertyOp52
 70
     0
102
RTVSPropertyOp53
 70
     0
102
RTVSPropertyOp54
 70
     0
102
RTVSPropertyOp55
 70
     0
102
RTVSPropertyOp56
 70
     0
102
RTVSPropertyOp57
 70
     0
102
RTVSPropertyOp58
 70
     0
102
RTVSPropertyOp59
 70
     0
102
RTVSPropertyOp60
 70
     0
102
RTVSPropertyOp61
 70
     0
102
RTVSPropertyOp62
 70
     0
  0
XRECORD
  5
1B80
102
{ACAD_REACTORS
330
1B7F
102
}
330
1B7F
100
AcDbXrecord
280
     1
102
RTVSPost2010Prop28
280
     0
102
RTVSPost2010PropOp28
 70
     1
102
RTVSPost2010Prop29
280
     1
102
RTVSPost2010PropOp29
 70
     1
102
RTVSPost2010Prop30
280
     1
102
RTVSPost2010PropOp30
 70
     1
102
RTVSPost2010Prop31
280
     0
102
RTVSPost2010PropOp31
 70
     1
102
RTVSPost2010Prop32
280
     0
102
RTVSPost2010PropOp32
 70
     1
102
RTVSPost2010Prop33
280
     0
102
RTVSPost2010PropOp33
 70
     1
102
RTVSPost2010Prop34
280
     0
102
RTVSPost2010PropOp34
 70
     1
102
RTVSPost2010Prop35
280
     0
102
RTVSPost2010PropOp35
 70
     1
102
RTVSPost2010Prop36
280
     0
102
RTVSPost2010PropOp36
 70
     1
102
RTVSPost2010Prop37
 90
       50
102
RTVSPost2010PropOp37
 70
     1
102
RTVSPost2010Prop38
140
0.0
102
RTVSPost2010PropOp38
 70
     1
102
RTVSPost2010Prop39
140
1.0
102
RTVSPost2010PropOp39
 70
     1
102
RTVSPost2010Prop40
 90
        0
102
RTVSPost2010PropOp40
 70
     1
102
RTVSPost2010Prop41ColorIndex
 90
       18
102
RTVSPost2010Prop41ColorRGB
 90
        0
102
RTVSPost2010PropOp41
 70
     1
102
RTVSPost2010Prop42
 90
       50
102
RTVSPost2010PropOp42
 70
     1
102
RTVSPost2010Prop43
 90
        3
102
RTVSPost2010PropOp43
 70
     1
102
RTVSPost2010Prop44ColorIndex
 90
        5
102
RTVSPost2010Prop44ColorRGB
 90
      255
102
RTVSPost2010PropOp44
 70
     1
102
RTVSPost2010Prop45
280
     0
102
RTVSPost2010PropOp45
 70
     1
102
RTVSPost2010Prop46
 90
       50
102
RTVSPost2010PropOp46
 70
     1
102
RTVSPost2010Prop47
 90
       50
102
RTVSPost2010PropOp47
 70
     1
102
RTVSPost2010Prop48
 90
       50
102
RTVSPost2010PropOp48
 70
     1
102
RTVSPost2010Prop49
280
     0
102
RTVSPost2010PropOp49
 70
     1
102
RTVSPost2010Prop50
 90
       50
102
RTVSPost2010PropOp50
 70
     1
102
RTVSPost2010Prop51ColorIndex
 90
      256
102
RTVSPost2010Prop51ColorRGB
 90
-16777216
102
RTVSPost2010PropOp51
 70
     0
102
RTVSPost2010Prop52
140
1.0
102
RTVSPost2010PropOp52
 70
     0
102
RTVSPost2010Prop53
 90
        2
102
RTVSPost2010PropOp53
 70
     1
102
RTVSPost2010Prop54
  1
strokes_ogs.tif
102
RTVSPost2010PropOp54
 70
     1
102
RTVSPost2010Prop55
280
     0
102
RTVSPost2010PropOp55
 70
     1
102
RTVSPost2010Prop56
140
1.0
102
RTVSPost2010PropOp56
 70
     1
102
RTVSPost2010Prop57
140
1.0
102
RTVSPost2010PropOp57
 70
     1
102
RTVSPropertyOp0
 70
     1
102
RTVSPropertyOp1
 70
     1
102
RTVSPropertyOp2
 70
     1
102
RTVSPropertyOp3
 70
     1
102
RTVSPropertyOp4
 70
     1
102
RTVSPropertyOp5
 70
     1
102
RTVSPropertyOp6
 70
     1
102
RTVSPropertyOp7
 70
     1
102
RTVSPropertyOp8
 70
     1
102
RTVSPropertyOp9
 70
     1
102
RTVSPropertyOp10
 70
     1
102
RTVSPropertyOp11
 70
     1
102
RTVSPropertyOp12
 70
     1
102
RTVSPropertyOp13
 70
     1
102
RTVSPropertyOp14
 70
     1
102
RTVSPropertyOp15
 70
     1
102
RTVSPropertyOp16
 70
     1
102
RTVSPropertyOp17
 70
     1
102
RTVSPropertyOp18
 70
     1
102
RTVSPropertyOp19
 70
     1
102
RTVSPropertyOp20
 70
     1
102
RTVSPropertyOp21
 70
     1
102
RTVSPropertyOp22
 70
     1
102
RTVSPropertyOp23
 70
     1
102
RTVSPropertyOp24
 70
     1
102
RTVSPropertyOp25
 70
     1
102
RTVSPropertyOp26
 70
     1
102
RTVSPropertyOp27
 70
     1
102
RTVSPropertyOp28
 70
     1
102
RTVSPropertyOp29
 70
     1
102
RTVSPropertyOp30
 70
     1
102
RTVSPropertyOp31
 70
     1
102
RTVSPropertyOp32
 70
     1
102
RTVSPropertyOp33
 70
     1
102
RTVSPropertyOp34
 70
     1
102
RTVSPropertyOp35
 70
     1
102
RTVSPropertyOp36
 70
     1
102
RTVSPropertyOp37
 70
     1
102
RTVSPropertyOp38
 70
     1
102
RTVSPropertyOp39
 70
     1
102
RTVSPropertyOp40
 70
     1
102
RTVSPropertyOp41
 70
     1
102
RTVSPropertyOp42
 70
     1
102
RTVSPropertyOp43
 70
     1
102
RTVSPropertyOp44
 70
     1
102
RTVSPropertyOp45
 70
     1
102
RTVSPropertyOp46
 70
     1
102
RTVSPropertyOp47
 70
     1
102
RTVSPropertyOp48
 70
     1
102
RTVSPropertyOp49
 70
     1
102
RTVSPropertyOp50
 70
     1
102
RTVSPropertyOp51
 70
     0
102
RTVSPropertyOp52
 70
     0
102
RTVSPropertyOp53
 70
     1
102
RTVSPropertyOp54
 70
     1
102
RTVSPropertyOp55
 70
     1
102
RTVSPropertyOp56
 70
     1
102
RTVSPropertyOp57
 70
     1
102
RTVSPropertyOp58
 70
     1
102
RTVSPropertyOp59
 70
     1
102
RTVSPropertyOp60
 70
     1
102
RTVSPropertyOp61
 70
     1
102
RTVSPropertyOp62
 70
     1
  0
XRECORD
  5
1B96
102
{ACAD_REACTORS
330
1B95
102
}
330
1B95
100
AcDbXrecord
280
     1
102
RTVSPost2010Prop28
280
     0
102
RTVSPost2010PropOp28
 70
     1
102
RTVSPost2010Prop29
280
     1
102
RTVSPost2010PropOp29
 70
     1
102
RTVSPost2010Prop30
280
     1
102
RTVSPost2010PropOp30
 70
     1
102
RTVSPost2010Prop31
280
     0
102
RTVSPost2010PropOp31
 70
     1
102
RTVSPost2010Prop32
280
     0
102
RTVSPost2010PropOp32
 70
     1
102
RTVSPost2010Prop33
280
     0
102
RTVSPost2010PropOp33
 70
     1
102
RTVSPost2010Prop34
280
     0
102
RTVSPost2010PropOp34
 70
     1
102
RTVSPost2010Prop35
280
     0
102
RTVSPost2010PropOp35
 70
     1
102
RTVSPost2010Prop36
280
     0
102
RTVSPost2010PropOp36
 70
     1
102
RTVSPost2010Prop37
 90
       50
102
RTVSPost2010PropOp37
 70
     1
102
RTVSPost2010Prop38
140
0.0
102
RTVSPost2010PropOp38
 70
     1
102
RTVSPost2010Prop39
140
1.0
102
RTVSPost2010PropOp39
 70
     1
102
RTVSPost2010Prop40
 90
        0
102
RTVSPost2010PropOp40
 70
     1
102
RTVSPost2010Prop41ColorIndex
 90
       18
102
RTVSPost2010Prop41ColorRGB
 90
        0
102
RTVSPost2010PropOp41
 70
     1
102
RTVSPost2010Prop42
 90
       50
102
RTVSPost2010PropOp42
 70
     1
102
RTVSPost2010Prop43
 90
        3
102
RTVSPost2010PropOp43
 70
     1
102
RTVSPost2010Prop44ColorIndex
 90
        5
102
RTVSPost2010Prop44ColorRGB
 90
      255
102
RTVSPost2010PropOp44
 70
     1
102
RTVSPost2010Prop45
280
     0
102
RTVSPost2010PropOp45
 70
     1
102
RTVSPost2010Prop46
 90
       50
102
RTVSPost2010PropOp46
 70
     1
102
RTVSPost2010Prop47
 90
       50
102
RTVSPost2010PropOp47
 70
     1
102
RTVSPost2010Prop48
 90
       50
102
RTVSPost2010PropOp48
 70
     1
102
RTVSPost2010Prop49
280
     0
102
RTVSPost2010PropOp49
 70
     1
102
RTVSPost2010Prop50
 90
       50
102
RTVSPost2010PropOp50
 70
     1
102
RTVSPost2010Prop51ColorIndex
 90
      256
102
RTVSPost2010Prop51ColorRGB
 90
-16777216
102
RTVSPost2010PropOp51
 70
     0
102
RTVSPost2010Prop52
140
1.0
102
RTVSPost2010PropOp52
 70
     0
102
RTVSPost2010Prop53
 90
        2
102
RTVSPost2010PropOp53
 70
     1
102
RTVSPost2010Prop54
  1
strokes_ogs.tif
102
RTVSPost2010PropOp54
 70
     1
102
RTVSPost2010Prop55
280
     0
102
RTVSPost2010PropOp55
 70
     1
102
RTVSPost2010Prop56
140
1.0
102
RTVSPost2010PropOp56
 70
     1
102
RTVSPost2010Prop57
140
1.0
102
RTVSPost2010PropOp57
 70
     1
102
RTVSPropertyOp0
 70
     1
102
RTVSPropertyOp1
 70
     1
102
RTVSPropertyOp2
 70
     1
102
RTVSPropertyOp3
 70
     1
102
RTVSPropertyOp4
 70
     1
102
RTVSPropertyOp5
 70
     1
102
RTVSPropertyOp6
 70
     1
102
RTVSPropertyOp7
 70
     1
102
RTVSPropertyOp8
 70
     1
102
RTVSPropertyOp9
 70
     1
102
RTVSPropertyOp10
 70
     1
102
RTVSPropertyOp11
 70
     1
102
RTVSPropertyOp12
 70
     1
102
RTVSPropertyOp13
 70
     1
102
RTVSPropertyOp14
 70
     1
102
RTVSPropertyOp15
 70
     1
102
RTVSPropertyOp16
 70
     1
102
RTVSPropertyOp17
 70
     1
102
RTVSPropertyOp18
 70
     1
102
RTVSPropertyOp19
 70
     1
102
RTVSPropertyOp20
 70
     1
102
RTVSPropertyOp21
 70
     1
102
RTVSPropertyOp22
 70
     1
102
RTVSPropertyOp23
 70
     1
102
RTVSPropertyOp24
 70
     1
102
RTVSPropertyOp25
 70
     1
102
RTVSPropertyOp26
 70
     1
102
RTVSPropertyOp27
 70
     1
102
RTVSPropertyOp28
 70
     1
102
RTVSPropertyOp29
 70
     1
102
RTVSPropertyOp30
 70
     1
102
RTVSPropertyOp31
 70
     1
102
RTVSPropertyOp32
 70
     1
102
RTVSPropertyOp33
 70
     1
102
RTVSPropertyOp34
 70
     1
102
RTVSPropertyOp35
 70
     1
102
RTVSPropertyOp36
 70
     1
102
RTVSPropertyOp37
 70
     1
102
RTVSPropertyOp38
 70
     1
102
RTVSPropertyOp39
 70
     1
102
RTVSPropertyOp40
 70
     1
102
RTVSPropertyOp41
 70
     1
102
RTVSPropertyOp42
 70
     1
102
RTVSPropertyOp43
 70
     1
102
RTVSPropertyOp44
 70
     1
102
RTVSPropertyOp45
 70
     1
102
RTVSPropertyOp46
 70
     1
102
RTVSPropertyOp47
 70
     1
102
RTVSPropertyOp48
 70
     1
102
RTVSPropertyOp49
 70
     1
102
RTVSPropertyOp50
 70
     1
102
RTVSPropertyOp51
 70
     0
102
RTVSPropertyOp52
 70
     0
102
RTVSPropertyOp53
 70
     1
102
RTVSPropertyOp54
 70
     1
102
RTVSPropertyOp55
 70
     1
102
RTVSPropertyOp56
 70
     1
102
RTVSPropertyOp57
 70
     1
102
RTVSPropertyOp58
 70
     1
102
RTVSPropertyOp59
 70
     1
102
RTVSPropertyOp60
 70
     1
102
RTVSPropertyOp61
 70
     1
102
RTVSPropertyOp62
 70
     1
  0
XRECORD
  5
1B94
102
{ACAD_REACTORS
330
1B93
102
}
330
1B93
100
AcDbXrecord
280
     1
102
RTVSPost2010Prop28
280
     0
102
RTVSPost2010PropOp28
 70
     1
102
RTVSPost2010Prop29
280
     1
102
RTVSPost2010PropOp29
 70
     1
102
RTVSPost2010Prop30
280
     1
102
RTVSPost2010PropOp30
 70
     1
102
RTVSPost2010Prop31
280
     0
102
RTVSPost2010PropOp31
 70
     1
102
RTVSPost2010Prop32
280
     0
102
RTVSPost2010PropOp32
 70
     1
102
RTVSPost2010Prop33
280
     0
102
RTVSPost2010PropOp33
 70
     1
102
RTVSPost2010Prop34
280
     0
102
RTVSPost2010PropOp34
 70
     1
102
RTVSPost2010Prop35
280
     0
102
RTVSPost2010PropOp35
 70
     1
102
RTVSPost2010Prop36
280
     0
102
RTVSPost2010PropOp36
 70
     1
102
RTVSPost2010Prop37
 90
       50
102
RTVSPost2010PropOp37
 70
     1
102
RTVSPost2010Prop38
140
0.0
102
RTVSPost2010PropOp38
 70
     1
102
RTVSPost2010Prop39
140
1.0
102
RTVSPost2010PropOp39
 70
     1
102
RTVSPost2010Prop40
 90
        0
102
RTVSPost2010PropOp40
 70
     1
102
RTVSPost2010Prop41ColorIndex
 90
       18
102
RTVSPost2010Prop41ColorRGB
 90
        0
102
RTVSPost2010PropOp41
 70
     1
102
RTVSPost2010Prop42
 90
       50
102
RTVSPost2010PropOp42
 70
     1
102
RTVSPost2010Prop43
 90
        3
102
RTVSPost2010PropOp43
 70
     1
102
RTVSPost2010Prop44ColorIndex
 90
        5
102
RTVSPost2010Prop44ColorRGB
 90
      255
102
RTVSPost2010PropOp44
 70
     1
102
RTVSPost2010Prop45
280
     0
102
RTVSPost2010PropOp45
 70
     1
102
RTVSPost2010Prop46
 90
       50
102
RTVSPost2010PropOp46
 70
     1
102
RTVSPost2010Prop47
 90
       50
102
RTVSPost2010PropOp47
 70
     1
102
RTVSPost2010Prop48
 90
       50
102
RTVSPost2010PropOp48
 70
     1
102
RTVSPost2010Prop49
280
     0
102
RTVSPost2010PropOp49
 70
     1
102
RTVSPost2010Prop50
 90
       50
102
RTVSPost2010PropOp50
 70
     1
102
RTVSPost2010Prop51ColorIndex
 90
      256
102
RTVSPost2010Prop51ColorRGB
 90
-16777216
102
RTVSPost2010PropOp51
 70
     0
102
RTVSPost2010Prop52
140
1.0
102
RTVSPost2010PropOp52
 70
     0
102
RTVSPost2010Prop53
 90
        2
102
RTVSPost2010PropOp53
 70
     1
102
RTVSPost2010Prop54
  1
strokes_ogs.tif
102
RTVSPost2010PropOp54
 70
     1
102
RTVSPost2010Prop55
280
     0
102
RTVSPost2010PropOp55
 70
     1
102
RTVSPost2010Prop56
140
1.0
102
RTVSPost2010PropOp56
 70
     1
102
RTVSPost2010Prop57
140
1.0
102
RTVSPost2010PropOp57
 70
     1
102
RTVSPropertyOp0
 70
     1
102
RTVSPropertyOp1
 70
     1
102
RTVSPropertyOp2
 70
     1
102
RTVSPropertyOp3
 70
     1
102
RTVSPropertyOp4
 70
     1
102
RTVSPropertyOp5
 70
     1
102
RTVSPropertyOp6
 70
     1
102
RTVSPropertyOp7
 70
     1
102
RTVSPropertyOp8
 70
     1
102
RTVSPropertyOp9
 70
     1
102
RTVSPropertyOp10
 70
     1
102
RTVSPropertyOp11
 70
     1
102
RTVSPropertyOp12
 70
     1
102
RTVSPropertyOp13
 70
     1
102
RTVSPropertyOp14
 70
     1
102
RTVSPropertyOp15
 70
     1
102
RTVSPropertyOp16
 70
     1
102
RTVSPropertyOp17
 70
     1
102
RTVSPropertyOp18
 70
     1
102
RTVSPropertyOp19
 70
     1
102
RTVSPropertyOp20
 70
     1
102
RTVSPropertyOp21
 70
     1
102
RTVSPropertyOp22
 70
     1
102
RTVSPropertyOp23
 70
     1
102
RTVSPropertyOp24
 70
     1
102
RTVSPropertyOp25
 70
     1
102
RTVSPropertyOp26
 70
     1
102
RTVSPropertyOp27
 70
     1
102
RTVSPropertyOp28
 70
     1
102
RTVSPropertyOp29
 70
     1
102
RTVSPropertyOp30
 70
     1
102
RTVSPropertyOp31
 70
     1
102
RTVSPropertyOp32
 70
     1
102
RTVSPropertyOp33
 70
     1
102
RTVSPropertyOp34
 70
     1
102
RTVSPropertyOp35
 70
     1
102
RTVSPropertyOp36
 70
     1
102
RTVSPropertyOp37
 70
     1
102
RTVSPropertyOp38
 70
     1
102
RTVSPropertyOp39
 70
     1
102
RTVSPropertyOp40
 70
     1
102
RTVSPropertyOp41
 70
     1
102
RTVSPropertyOp42
 70
     1
102
RTVSPropertyOp43
 70
     1
102
RTVSPropertyOp44
 70
     1
102
RTVSPropertyOp45
 70
     1
102
RTVSPropertyOp46
 70
     1
102
RTVSPropertyOp47
 70
     1
102
RTVSPropertyOp48
 70
     1
102
RTVSPropertyOp49
 70
     1
102
RTVSPropertyOp50
 70
     1
102
RTVSPropertyOp51
 70
     0
102
RTVSPropertyOp52
 70
     0
102
RTVSPropertyOp53
 70
     1
102
RTVSPropertyOp54
 70
     1
102
RTVSPropertyOp55
 70
     1
102
RTVSPropertyOp56
 70
     1
102
RTVSPropertyOp57
 70
     1
102
RTVSPropertyOp58
 70
     1
102
RTVSPropertyOp59
 70
     1
102
RTVSPropertyOp60
 70
     1
102
RTVSPropertyOp61
 70
     1
102
RTVSPropertyOp62
 70
     1
  0
XRECORD
  5
1B8E
102
{ACAD_REACTORS
330
1B8D
102
}
330
1B8D
100
AcDbXrecord
280
     1
102
RTVSPost2010Prop28
280
     0
102
RTVSPost2010PropOp28
 70
     1
102
RTVSPost2010Prop29
280
     1
102
RTVSPost2010PropOp29
 70
     1
102
RTVSPost2010Prop30
280
     1
102
RTVSPost2010PropOp30
 70
     1
102
RTVSPost2010Prop31
280
     0
102
RTVSPost2010PropOp31
 70
     1
102
RTVSPost2010Prop32
280
     0
102
RTVSPost2010PropOp32
 70
     1
102
RTVSPost2010Prop33
280
     0
102
RTVSPost2010PropOp33
 70
     1
102
RTVSPost2010Prop34
280
     0
102
RTVSPost2010PropOp34
 70
     1
102
RTVSPost2010Prop35
280
     0
102
RTVSPost2010PropOp35
 70
     1
102
RTVSPost2010Prop36
280
     0
102
RTVSPost2010PropOp36
 70
     1
102
RTVSPost2010Prop37
 90
       50
102
RTVSPost2010PropOp37
 70
     1
102
RTVSPost2010Prop38
140
0.0
102
RTVSPost2010PropOp38
 70
     1
102
RTVSPost2010Prop39
140
1.0
102
RTVSPost2010PropOp39
 70
     1
102
RTVSPost2010Prop40
 90
        0
102
RTVSPost2010PropOp40
 70
     1
102
RTVSPost2010Prop41ColorIndex
 90
       18
102
RTVSPost2010Prop41ColorRGB
 90
        0
102
RTVSPost2010PropOp41
 70
     1
102
RTVSPost2010Prop42
 90
       50
102
RTVSPost2010PropOp42
 70
     1
102
RTVSPost2010Prop43
 90
        3
102
RTVSPost2010PropOp43
 70
     1
102
RTVSPost2010Prop44ColorIndex
 90
        5
102
RTVSPost2010Prop44ColorRGB
 90
      255
102
RTVSPost2010PropOp44
 70
     1
102
RTVSPost2010Prop45
280
     0
102
RTVSPost2010PropOp45
 70
     1
102
RTVSPost2010Prop46
 90
       50
102
RTVSPost2010PropOp46
 70
     1
102
RTVSPost2010Prop47
 90
       50
102
RTVSPost2010PropOp47
 70
     1
102
RTVSPost2010Prop48
 90
       50
102
RTVSPost2010PropOp48
 70
     1
102
RTVSPost2010Prop49
280
     0
102
RTVSPost2010PropOp49
 70
     1
102
RTVSPost2010Prop50
 90
       50
102
RTVSPost2010PropOp50
 70
     1
102
RTVSPost2010Prop51ColorIndex
 90
      256
102
RTVSPost2010Prop51ColorRGB
 90
-16777216
102
RTVSPost2010PropOp51
 70
     0
102
RTVSPost2010Prop52
140
1.0
102
RTVSPost2010PropOp52
 70
     0
102
RTVSPost2010Prop53
 90
        2
102
RTVSPost2010PropOp53
 70
     1
102
RTVSPost2010Prop54
  1
strokes_ogs.tif
102
RTVSPost2010PropOp54
 70
     1
102
RTVSPost2010Prop55
280
     0
102
RTVSPost2010PropOp55
 70
     1
102
RTVSPost2010Prop56
140
1.0
102
RTVSPost2010PropOp56
 70
     1
102
RTVSPost2010Prop57
140
1.0
102
RTVSPost2010PropOp57
 70
     1
102
RTVSPropertyOp0
 70
     1
102
RTVSPropertyOp1
 70
     1
102
RTVSPropertyOp2
 70
     1
102
RTVSPropertyOp3
 70
     1
102
RTVSPropertyOp4
 70
     1
102
RTVSPropertyOp5
 70
     1
102
RTVSPropertyOp6
 70
     1
102
RTVSPropertyOp7
 70
     1
102
RTVSPropertyOp8
 70
     1
102
RTVSPropertyOp9
 70
     1
102
RTVSPropertyOp10
 70
     1
102
RTVSPropertyOp11
 70
     1
102
RTVSPropertyOp12
 70
     1
102
RTVSPropertyOp13
 70
     1
102
RTVSPropertyOp14
 70
     1
102
RTVSPropertyOp15
 70
     1
102
RTVSPropertyOp16
 70
     1
102
RTVSPropertyOp17
 70
     1
102
RTVSPropertyOp18
 70
     1
102
RTVSPropertyOp19
 70
     1
102
RTVSPropertyOp20
 70
     1
102
RTVSPropertyOp21
 70
     1
102
RTVSPropertyOp22
 70
     1
102
RTVSPropertyOp23
 70
     1
102
RTVSPropertyOp24
 70
     1
102
RTVSPropertyOp25
 70
     1
102
RTVSPropertyOp26
 70
     1
102
RTVSPropertyOp27
 70
     1
102
RTVSPropertyOp28
 70
     1
102
RTVSPropertyOp29
 70
     1
102
RTVSPropertyOp30
 70
     1
102
RTVSPropertyOp31
 70
     1
102
RTVSPropertyOp32
 70
     1
102
RTVSPropertyOp33
 70
     1
102
RTVSPropertyOp34
 70
     1
102
RTVSPropertyOp35
 70
     1
102
RTVSPropertyOp36
 70
     1
102
RTVSPropertyOp37
 70
     1
102
RTVSPropertyOp38
 70
     1
102
RTVSPropertyOp39
 70
     1
102
RTVSPropertyOp40
 70
     1
102
RTVSPropertyOp41
 70
     1
102
RTVSPropertyOp42
 70
     1
102
RTVSPropertyOp43
 70
     1
102
RTVSPropertyOp44
 70
     1
102
RTVSPropertyOp45
 70
     1
102
RTVSPropertyOp46
 70
     1
102
RTVSPropertyOp47
 70
     1
102
RTVSPropertyOp48
 70
     1
102
RTVSPropertyOp49
 70
     1
102
RTVSPropertyOp50
 70
     1
102
RTVSPropertyOp51
 70
     0
102
RTVSPropertyOp52
 70
     0
102
RTVSPropertyOp53
 70
     1
102
RTVSPropertyOp54
 70
     1
102
RTVSPropertyOp55
 70
     1
102
RTVSPropertyOp56
 70
     1
102
RTVSPropertyOp57
 70
     1
102
RTVSPropertyOp58
 70
     1
102
RTVSPropertyOp59
 70
     1
102
RTVSPropertyOp60
 70
     1
102
RTVSPropertyOp61
 70
     1
102
RTVSPropertyOp62
 70
     1
  0
XRECORD
  5
1B90
102
{ACAD_REACTORS
330
1B8F
102
}
330
1B8F
100
AcDbXrecord
280
     1
102
RTVSPost2010Prop28
280
     0
102
RTVSPost2010PropOp28
 70
     1
102
RTVSPost2010Prop29
280
     1
102
RTVSPost2010PropOp29
 70
     1
102
RTVSPost2010Prop30
280
     1
102
RTVSPost2010PropOp30
 70
     1
102
RTVSPost2010Prop31
280
     0
102
RTVSPost2010PropOp31
 70
     1
102
RTVSPost2010Prop32
280
     0
102
RTVSPost2010PropOp32
 70
     1
102
RTVSPost2010Prop33
280
     0
102
RTVSPost2010PropOp33
 70
     1
102
RTVSPost2010Prop34
280
     0
102
RTVSPost2010PropOp34
 70
     1
102
RTVSPost2010Prop35
280
     0
102
RTVSPost2010PropOp35
 70
     1
102
RTVSPost2010Prop36
280
     0
102
RTVSPost2010PropOp36
 70
     1
102
RTVSPost2010Prop37
 90
       50
102
RTVSPost2010PropOp37
 70
     1
102
RTVSPost2010Prop38
140
0.0
102
RTVSPost2010PropOp38
 70
     1
102
RTVSPost2010Prop39
140
1.0
102
RTVSPost2010PropOp39
 70
     1
102
RTVSPost2010Prop40
 90
        0
102
RTVSPost2010PropOp40
 70
     1
102
RTVSPost2010Prop41ColorIndex
 90
       18
102
RTVSPost2010Prop41ColorRGB
 90
        0
102
RTVSPost2010PropOp41
 70
     1
102
RTVSPost2010Prop42
 90
       50
102
RTVSPost2010PropOp42
 70
     1
102
RTVSPost2010Prop43
 90
        3
102
RTVSPost2010PropOp43
 70
     1
102
RTVSPost2010Prop44ColorIndex
 90
        5
102
RTVSPost2010Prop44ColorRGB
 90
      255
102
RTVSPost2010PropOp44
 70
     1
102
RTVSPost2010Prop45
280
     0
102
RTVSPost2010PropOp45
 70
     1
102
RTVSPost2010Prop46
 90
       50
102
RTVSPost2010PropOp46
 70
     1
102
RTVSPost2010Prop47
 90
       50
102
RTVSPost2010PropOp47
 70
     1
102
RTVSPost2010Prop48
 90
       50
102
RTVSPost2010PropOp48
 70
     1
102
RTVSPost2010Prop49
280
     0
102
RTVSPost2010PropOp49
 70
     1
102
RTVSPost2010Prop50
 90
       50
102
RTVSPost2010PropOp50
 70
     1
102
RTVSPost2010Prop51ColorIndex
 90
      256
102
RTVSPost2010Prop51ColorRGB
 90
-16777216
102
RTVSPost2010PropOp51
 70
     0
102
RTVSPost2010Prop52
140
1.0
102
RTVSPost2010PropOp52
 70
     0
102
RTVSPost2010Prop53
 90
        2
102
RTVSPost2010PropOp53
 70
     1
102
RTVSPost2010Prop54
  1
strokes_ogs.tif
102
RTVSPost2010PropOp54
 70
     1
102
RTVSPost2010Prop55
280
     0
102
RTVSPost2010PropOp55
 70
     1
102
RTVSPost2010Prop56
140
1.0
102
RTVSPost2010PropOp56
 70
     1
102
RTVSPost2010Prop57
140
1.0
102
RTVSPost2010PropOp57
 70
     1
102
RTVSPropertyOp0
 70
     1
102
RTVSPropertyOp1
 70
     1
102
RTVSPropertyOp2
 70
     1
102
RTVSPropertyOp3
 70
     1
102
RTVSPropertyOp4
 70
     1
102
RTVSPropertyOp5
 70
     1
102
RTVSPropertyOp6
 70
     1
102
RTVSPropertyOp7
 70
     1
102
RTVSPropertyOp8
 70
     1
102
RTVSPropertyOp9
 70
     1
102
RTVSPropertyOp10
 70
     1
102
RTVSPropertyOp11
 70
     1
102
RTVSPropertyOp12
 70
     1
102
RTVSPropertyOp13
 70
     1
102
RTVSPropertyOp14
 70
     1
102
RTVSPropertyOp15
 70
     1
102
RTVSPropertyOp16
 70
     1
102
RTVSPropertyOp17
 70
     1
102
RTVSPropertyOp18
 70
     1
102
RTVSPropertyOp19
 70
     1
102
RTVSPropertyOp20
 70
     1
102
RTVSPropertyOp21
 70
     1
102
RTVSPropertyOp22
 70
     1
102
RTVSPropertyOp23
 70
     1
102
RTVSPropertyOp24
 70
     1
102
RTVSPropertyOp25
 70
     1
102
RTVSPropertyOp26
 70
     1
102
RTVSPropertyOp27
 70
     1
102
RTVSPropertyOp28
 70
     1
102
RTVSPropertyOp29
 70
     1
102
RTVSPropertyOp30
 70
     1
102
RTVSPropertyOp31
 70
     1
102
RTVSPropertyOp32
 70
     1
102
RTVSPropertyOp33
 70
     1
102
RTVSPropertyOp34
 70
     1
102
RTVSPropertyOp35
 70
     1
102
RTVSPropertyOp36
 70
     1
102
RTVSPropertyOp37
 70
     1
102
RTVSPropertyOp38
 70
     1
102
RTVSPropertyOp39
 70
     1
102
RTVSPropertyOp40
 70
     1
102
RTVSPropertyOp41
 70
     1
102
RTVSPropertyOp42
 70
     1
102
RTVSPropertyOp43
 70
     1
102
RTVSPropertyOp44
 70
     1
102
RTVSPropertyOp45
 70
     1
102
RTVSPropertyOp46
 70
     1
102
RTVSPropertyOp47
 70
     1
102
RTVSPropertyOp48
 70
     1
102
RTVSPropertyOp49
 70
     1
102
RTVSPropertyOp50
 70
     1
102
RTVSPropertyOp51
 70
     0
102
RTVSPropertyOp52
 70
     0
102
RTVSPropertyOp53
 70
     1
102
RTVSPropertyOp54
 70
     1
102
RTVSPropertyOp55
 70
     1
102
RTVSPropertyOp56
 70
     1
102
RTVSPropertyOp57
 70
     1
102
RTVSPropertyOp58
 70
     1
102
RTVSPropertyOp59
 70
     1
102
RTVSPropertyOp60
 70
     1
102
RTVSPropertyOp61
 70
     1
102
RTVSPropertyOp62
 70
     1
  0
XRECORD
  5
1B86
102
{ACAD_REACTORS
330
1B85
102
}
330
1B85
100
AcDbXrecord
280
     1
102
RTVSPost2010Prop28
280
     0
102
RTVSPost2010PropOp28
 70
     1
102
RTVSPost2010Prop29
280
     1
102
RTVSPost2010PropOp29
 70
     1
102
RTVSPost2010Prop30
280
     1
102
RTVSPost2010PropOp30
 70
     1
102
RTVSPost2010Prop31
280
     0
102
RTVSPost2010PropOp31
 70
     1
102
RTVSPost2010Prop32
280
     0
102
RTVSPost2010PropOp32
 70
     1
102
RTVSPost2010Prop33
280
     0
102
RTVSPost2010PropOp33
 70
     1
102
RTVSPost2010Prop34
280
     0
102
RTVSPost2010PropOp34
 70
     1
102
RTVSPost2010Prop35
280
     0
102
RTVSPost2010PropOp35
 70
     1
102
RTVSPost2010Prop36
280
     0
102
RTVSPost2010PropOp36
 70
     1
102
RTVSPost2010Prop37
 90
       50
102
RTVSPost2010PropOp37
 70
     1
102
RTVSPost2010Prop38
140
0.0
102
RTVSPost2010PropOp38
 70
     1
102
RTVSPost2010Prop39
140
1.0
102
RTVSPost2010PropOp39
 70
     1
102
RTVSPost2010Prop40
 90
        0
102
RTVSPost2010PropOp40
 70
     1
102
RTVSPost2010Prop41ColorIndex
 90
       18
102
RTVSPost2010Prop41ColorRGB
 90
        0
102
RTVSPost2010PropOp41
 70
     1
102
RTVSPost2010Prop42
 90
       50
102
RTVSPost2010PropOp42
 70
     1
102
RTVSPost2010Prop43
 90
        3
102
RTVSPost2010PropOp43
 70
     1
102
RTVSPost2010Prop44ColorIndex
 90
        5
102
RTVSPost2010Prop44ColorRGB
 90
      255
102
RTVSPost2010PropOp44
 70
     1
102
RTVSPost2010Prop45
280
     0
102
RTVSPost2010PropOp45
 70
     1
102
RTVSPost2010Prop46
 90
       50
102
RTVSPost2010PropOp46
 70
     1
102
RTVSPost2010Prop47
 90
       50
102
RTVSPost2010PropOp47
 70
     1
102
RTVSPost2010Prop48
 90
       50
102
RTVSPost2010PropOp48
 70
     1
102
RTVSPost2010Prop49
280
     0
102
RTVSPost2010PropOp49
 70
     1
102
RTVSPost2010Prop50
 90
       50
102
RTVSPost2010PropOp50
 70
     1
102
RTVSPost2010Prop51ColorIndex
 90
      256
102
RTVSPost2010Prop51ColorRGB
 90
-16777216
102
RTVSPost2010PropOp51
 70
     0
102
RTVSPost2010Prop52
140
1.0
102
RTVSPost2010PropOp52
 70
     0
102
RTVSPost2010Prop53
 90
        2
102
RTVSPost2010PropOp53
 70
     1
102
RTVSPost2010Prop54
  1
strokes_ogs.tif
102
RTVSPost2010PropOp54
 70
     1
102
RTVSPost2010Prop55
280
     0
102
RTVSPost2010PropOp55
 70
     1
102
RTVSPost2010Prop56
140
1.0
102
RTVSPost2010PropOp56
 70
     1
102
RTVSPost2010Prop57
140
1.0
102
RTVSPost2010PropOp57
 70
     1
102
RTVSPropertyOp0
 70
     1
102
RTVSPropertyOp1
 70
     1
102
RTVSPropertyOp2
 70
     1
102
RTVSPropertyOp3
 70
     1
102
RTVSPropertyOp4
 70
     1
102
RTVSPropertyOp5
 70
     1
102
RTVSPropertyOp6
 70
     1
102
RTVSPropertyOp7
 70
     1
102
RTVSPropertyOp8
 70
     1
102
RTVSPropertyOp9
 70
     1
102
RTVSPropertyOp10
 70
     1
102
RTVSPropertyOp11
 70
     1
102
RTVSPropertyOp12
 70
     1
102
RTVSPropertyOp13
 70
     1
102
RTVSPropertyOp14
 70
     1
102
RTVSPropertyOp15
 70
     1
102
RTVSPropertyOp16
 70
     1
102
RTVSPropertyOp17
 70
     1
102
RTVSPropertyOp18
 70
     1
102
RTVSPropertyOp19
 70
     1
102
RTVSPropertyOp20
 70
     1
102
RTVSPropertyOp21
 70
     1
102
RTVSPropertyOp22
 70
     1
102
RTVSPropertyOp23
 70
     1
102
RTVSPropertyOp24
 70
     1
102
RTVSPropertyOp25
 70
     1
102
RTVSPropertyOp26
 70
     1
102
RTVSPropertyOp27
 70
     1
102
RTVSPropertyOp28
 70
     1
102
RTVSPropertyOp29
 70
     1
102
RTVSPropertyOp30
 70
     1
102
RTVSPropertyOp31
 70
     1
102
RTVSPropertyOp32
 70
     1
102
RTVSPropertyOp33
 70
     1
102
RTVSPropertyOp34
 70
     1
102
RTVSPropertyOp35
 70
     1
102
RTVSPropertyOp36
 70
     1
102
RTVSPropertyOp37
 70
     1
102
RTVSPropertyOp38
 70
     1
102
RTVSPropertyOp39
 70
     1
102
RTVSPropertyOp40
 70
     1
102
RTVSPropertyOp41
 70
     1
102
RTVSPropertyOp42
 70
     1
102
RTVSPropertyOp43
 70
     1
102
RTVSPropertyOp44
 70
     1
102
RTVSPropertyOp45
 70
     1
102
RTVSPropertyOp46
 70
     1
102
RTVSPropertyOp47
 70
     1
102
RTVSPropertyOp48
 70
     1
102
RTVSPropertyOp49
 70
     1
102
RTVSPropertyOp50
 70
     1
102
RTVSPropertyOp51
 70
     0
102
RTVSPropertyOp52
 70
     0
102
RTVSPropertyOp53
 70
     1
102
RTVSPropertyOp54
 70
     1
102
RTVSPropertyOp55
 70
     1
102
RTVSPropertyOp56
 70
     1
102
RTVSPropertyOp57
 70
     1
102
RTVSPropertyOp58
 70
     1
102
RTVSPropertyOp59
 70
     1
102
RTVSPropertyOp60
 70
     1
102
RTVSPropertyOp61
 70
     1
102
RTVSPropertyOp62
 70
     1
  0
XRECORD
  5
1B7A
102
{ACAD_REACTORS
330
1B79
102
}
330
1B79
100
AcDbXrecord
280
     1
102
RTVSPost2010Prop28
280
     0
102
RTVSPost2010PropOp28
 70
     1
102
RTVSPost2010Prop29
280
     1
102
RTVSPost2010PropOp29
 70
     1
102
RTVSPost2010Prop30
280
     1
102
RTVSPost2010PropOp30
 70
     1
102
RTVSPost2010Prop31
280
     0
102
RTVSPost2010PropOp31
 70
     1
102
RTVSPost2010Prop32
280
     0
102
RTVSPost2010PropOp32
 70
     1
102
RTVSPost2010Prop33
280
     0
102
RTVSPost2010PropOp33
 70
     1
102
RTVSPost2010Prop34
280
     0
102
RTVSPost2010PropOp34
 70
     1
102
RTVSPost2010Prop35
280
     0
102
RTVSPost2010PropOp35
 70
     1
102
RTVSPost2010Prop36
280
     0
102
RTVSPost2010PropOp36
 70
     1
102
RTVSPost2010Prop37
 90
       50
102
RTVSPost2010PropOp37
 70
     1
102
RTVSPost2010Prop38
140
0.0
102
RTVSPost2010PropOp38
 70
     1
102
RTVSPost2010Prop39
140
1.0
102
RTVSPost2010PropOp39
 70
     1
102
RTVSPost2010Prop40
 90
        0
102
RTVSPost2010PropOp40
 70
     1
102
RTVSPost2010Prop41ColorIndex
 90
       18
102
RTVSPost2010Prop41ColorRGB
 90
        0
102
RTVSPost2010PropOp41
 70
     1
102
RTVSPost2010Prop42
 90
       50
102
RTVSPost2010PropOp42
 70
     1
102
RTVSPost2010Prop43
 90
        3
102
RTVSPost2010PropOp43
 70
     1
102
RTVSPost2010Prop44ColorIndex
 90
        5
102
RTVSPost2010Prop44ColorRGB
 90
      255
102
RTVSPost2010PropOp44
 70
     1
102
RTVSPost2010Prop45
280
     0
102
RTVSPost2010PropOp45
 70
     1
102
RTVSPost2010Prop46
 90
       50
102
RTVSPost2010PropOp46
 70
     1
102
RTVSPost2010Prop47
 90
       50
102
RTVSPost2010PropOp47
 70
     1
102
RTVSPost2010Prop48
 90
       50
102
RTVSPost2010PropOp48
 70
     1
102
RTVSPost2010Prop49
280
     0
102
RTVSPost2010PropOp49
 70
     1
102
RTVSPost2010Prop50
 90
       50
102
RTVSPost2010PropOp50
 70
     1
102
RTVSPost2010Prop51ColorIndex
 90
      256
102
RTVSPost2010Prop51ColorRGB
 90
-16777216
102
RTVSPost2010PropOp51
 70
     0
102
RTVSPost2010Prop52
140
1.0
102
RTVSPost2010PropOp52
 70
     0
102
RTVSPost2010Prop53
 90
        2
102
RTVSPost2010PropOp53
 70
     1
102
RTVSPost2010Prop54
  1
strokes_ogs.tif
102
RTVSPost2010PropOp54
 70
     1
102
RTVSPost2010Prop55
280
     0
102
RTVSPost2010PropOp55
 70
     1
102
RTVSPost2010Prop56
140
1.0
102
RTVSPost2010PropOp56
 70
     1
102
RTVSPost2010Prop57
140
1.0
102
RTVSPost2010PropOp57
 70
     1
102
RTVSPropertyOp0
 70
     1
102
RTVSPropertyOp1
 70
     1
102
RTVSPropertyOp2
 70
     1
102
RTVSPropertyOp3
 70
     1
102
RTVSPropertyOp4
 70
     1
102
RTVSPropertyOp5
 70
     1
102
RTVSPropertyOp6
 70
     1
102
RTVSPropertyOp7
 70
     1
102
RTVSPropertyOp8
 70
     1
102
RTVSPropertyOp9
 70
     1
102
RTVSPropertyOp10
 70
     1
102
RTVSPropertyOp11
 70
     1
102
RTVSPropertyOp12
 70
     1
102
RTVSPropertyOp13
 70
     1
102
RTVSPropertyOp14
 70
     1
102
RTVSPropertyOp15
 70
     1
102
RTVSPropertyOp16
 70
     1
102
RTVSPropertyOp17
 70
     1
102
RTVSPropertyOp18
 70
     1
102
RTVSPropertyOp19
 70
     1
102
RTVSPropertyOp20
 70
     1
102
RTVSPropertyOp21
 70
     1
102
RTVSPropertyOp22
 70
     1
102
RTVSPropertyOp23
 70
     1
102
RTVSPropertyOp24
 70
     1
102
RTVSPropertyOp25
 70
     1
102
RTVSPropertyOp26
 70
     1
102
RTVSPropertyOp27
 70
     1
102
RTVSPropertyOp28
 70
     1
102
RTVSPropertyOp29
 70
     1
102
RTVSPropertyOp30
 70
     1
102
RTVSPropertyOp31
 70
     1
102
RTVSPropertyOp32
 70
     1
102
RTVSPropertyOp33
 70
     1
102
RTVSPropertyOp34
 70
     1
102
RTVSPropertyOp35
 70
     1
102
RTVSPropertyOp36
 70
     1
102
RTVSPropertyOp37
 70
     1
102
RTVSPropertyOp38
 70
     1
102
RTVSPropertyOp39
 70
     1
102
RTVSPropertyOp40
 70
     1
102
RTVSPropertyOp41
 70
     1
102
RTVSPropertyOp42
 70
     1
102
RTVSPropertyOp43
 70
     1
102
RTVSPropertyOp44
 70
     1
102
RTVSPropertyOp45
 70
     1
102
RTVSPropertyOp46
 70
     1
102
RTVSPropertyOp47
 70
     1
102
RTVSPropertyOp48
 70
     1
102
RTVSPropertyOp49
 70
     1
102
RTVSPropertyOp50
 70
     1
102
RTVSPropertyOp51
 70
     0
102
RTVSPropertyOp52
 70
     0
102
RTVSPropertyOp53
 70
     1
102
RTVSPropertyOp54
 70
     1
102
RTVSPropertyOp55
 70
     1
102
RTVSPropertyOp56
 70
     1
102
RTVSPropertyOp57
 70
     1
102
RTVSPropertyOp58
 70
     1
102
RTVSPropertyOp59
 70
     1
102
RTVSPropertyOp60
 70
     1
102
RTVSPropertyOp61
 70
     1
102
RTVSPropertyOp62
 70
     1
  0
XRECORD
  5
1B92
102
{ACAD_REACTORS
330
1B91
102
}
330
1B91
100
AcDbXrecord
280
     1
102
RTVSPost2010Prop28
280
     0
102
RTVSPost2010PropOp28
 70
     1
102
RTVSPost2010Prop29
280
     1
102
RTVSPost2010PropOp29
 70
     1
102
RTVSPost2010Prop30
280
     1
102
RTVSPost2010PropOp30
 70
     1
102
RTVSPost2010Prop31
280
     0
102
RTVSPost2010PropOp31
 70
     1
102
RTVSPost2010Prop32
280
     0
102
RTVSPost2010PropOp32
 70
     1
102
RTVSPost2010Prop33
280
     0
102
RTVSPost2010PropOp33
 70
     1
102
RTVSPost2010Prop34
280
     0
102
RTVSPost2010PropOp34
 70
     1
102
RTVSPost2010Prop35
280
     0
102
RTVSPost2010PropOp35
 70
     1
102
RTVSPost2010Prop36
280
     0
102
RTVSPost2010PropOp36
 70
     1
102
RTVSPost2010Prop37
 90
       50
102
RTVSPost2010PropOp37
 70
     1
102
RTVSPost2010Prop38
140
0.0
102
RTVSPost2010PropOp38
 70
     1
102
RTVSPost2010Prop39
140
1.0
102
RTVSPost2010PropOp39
 70
     1
102
RTVSPost2010Prop40
 90
        0
102
RTVSPost2010PropOp40
 70
     1
102
RTVSPost2010Prop41ColorIndex
 90
       18
102
RTVSPost2010Prop41ColorRGB
 90
        0
102
RTVSPost2010PropOp41
 70
     1
102
RTVSPost2010Prop42
 90
       50
102
RTVSPost2010PropOp42
 70
     1
102
RTVSPost2010Prop43
 90
        3
102
RTVSPost2010PropOp43
 70
     1
102
RTVSPost2010Prop44ColorIndex
 90
        5
102
RTVSPost2010Prop44ColorRGB
 90
      255
102
RTVSPost2010PropOp44
 70
     1
102
RTVSPost2010Prop45
280
     0
102
RTVSPost2010PropOp45
 70
     1
102
RTVSPost2010Prop46
 90
       50
102
RTVSPost2010PropOp46
 70
     1
102
RTVSPost2010Prop47
 90
       50
102
RTVSPost2010PropOp47
 70
     1
102
RTVSPost2010Prop48
 90
       50
102
RTVSPost2010PropOp48
 70
     1
102
RTVSPost2010Prop49
280
     0
102
RTVSPost2010PropOp49
 70
     1
102
RTVSPost2010Prop50
 90
       50
102
RTVSPost2010PropOp50
 70
     1
102
RTVSPost2010Prop51ColorIndex
 90
      256
102
RTVSPost2010Prop51ColorRGB
 90
-16777216
102
RTVSPost2010PropOp51
 70
     0
102
RTVSPost2010Prop52
140
1.0
102
RTVSPost2010PropOp52
 70
     0
102
RTVSPost2010Prop53
 90
        2
102
RTVSPost2010PropOp53
 70
     1
102
RTVSPost2010Prop54
  1
strokes_ogs.tif
102
RTVSPost2010PropOp54
 70
     1
102
RTVSPost2010Prop55
280
     0
102
RTVSPost2010PropOp55
 70
     1
102
RTVSPost2010Prop56
140
1.0
102
RTVSPost2010PropOp56
 70
     1
102
RTVSPost2010Prop57
140
1.0
102
RTVSPost2010PropOp57
 70
     1
102
RTVSPropertyOp0
 70
     1
102
RTVSPropertyOp1
 70
     1
102
RTVSPropertyOp2
 70
     1
102
RTVSPropertyOp3
 70
     1
102
RTVSPropertyOp4
 70
     1
102
RTVSPropertyOp5
 70
     1
102
RTVSPropertyOp6
 70
     1
102
RTVSPropertyOp7
 70
     1
102
RTVSPropertyOp8
 70
     1
102
RTVSPropertyOp9
 70
     1
102
RTVSPropertyOp10
 70
     1
102
RTVSPropertyOp11
 70
     1
102
RTVSPropertyOp12
 70
     1
102
RTVSPropertyOp13
 70
     1
102
RTVSPropertyOp14
 70
     1
102
RTVSPropertyOp15
 70
     1
102
RTVSPropertyOp16
 70
     1
102
RTVSPropertyOp17
 70
     1
102
RTVSPropertyOp18
 70
     1
102
RTVSPropertyOp19
 70
     1
102
RTVSPropertyOp20
 70
     1
102
RTVSPropertyOp21
 70
     1
102
RTVSPropertyOp22
 70
     1
102
RTVSPropertyOp23
 70
     1
102
RTVSPropertyOp24
 70
     1
102
RTVSPropertyOp25
 70
     1
102
RTVSPropertyOp26
 70
     1
102
RTVSPropertyOp27
 70
     1
102
RTVSPropertyOp28
 70
     1
102
RTVSPropertyOp29
 70
     1
102
RTVSPropertyOp30
 70
     1
102
RTVSPropertyOp31
 70
     1
102
RTVSPropertyOp32
 70
     1
102
RTVSPropertyOp33
 70
     1
102
RTVSPropertyOp34
 70
     1
102
RTVSPropertyOp35
 70
     1
102
RTVSPropertyOp36
 70
     1
102
RTVSPropertyOp37
 70
     1
102
RTVSPropertyOp38
 70
     1
102
RTVSPropertyOp39
 70
     1
102
RTVSPropertyOp40
 70
     1
102
RTVSPropertyOp41
 70
     1
102
RTVSPropertyOp42
 70
     1
102
RTVSPropertyOp43
 70
     1
102
RTVSPropertyOp44
 70
     1
102
RTVSPropertyOp45
 70
     1
102
RTVSPropertyOp46
 70
     1
102
RTVSPropertyOp47
 70
     1
102
RTVSPropertyOp48
 70
     1
102
RTVSPropertyOp49
 70
     1
102
RTVSPropertyOp50
 70
     1
102
RTVSPropertyOp51
 70
     0
102
RTVSPropertyOp52
 70
     0
102
RTVSPropertyOp53
 70
     1
102
RTVSPropertyOp54
 70
     1
102
RTVSPropertyOp55
 70
     1
102
RTVSPropertyOp56
 70
     1
102
RTVSPropertyOp57
 70
     1
102
RTVSPropertyOp58
 70
     1
102
RTVSPropertyOp59
 70
     1
102
RTVSPropertyOp60
 70
     1
102
RTVSPropertyOp61
 70
     1
102
RTVSPropertyOp62
 70
     1
  0
ENDSEC
  0
EOF
