  0
SECTION
  2
HEADER
  9
$ACADVER
  1
AC1018
  9
$ACADMAINTVER
 70
     2
  9
$DWGCODEPAGE
  3
ANSI_1252
  9
$INSBASE
 10
214.18963059078
 20
83.98788932831553
 30
0.0
  9
$EXTMIN
 10
-0.0067025813004875
 20
-0.004614664636506
 30
-0.0000000000000053
  9
$EXTMAX
 10
420.0007678246157
 20
297.0062736891823
 30
0.0000000000000099
  9
$LIMMIN
 10
0.0
 20
0.0
  9
$LIMMAX
 10
419.9999999999999
 20
297.0000000000001
  9
$ORTHOMODE
 70
     0
  9
$REGENMODE
 70
     1
  9
$FILLMODE
 70
     1
  9
$QTEXTMODE
 70
     0
  9
$MIRRTEXT
 70
     1
  9
$LTSCALE
 40
10.0
  9
$ATTMODE
 70
     1
  9
$TEXTSIZE
 40
1.8
  9
$TRACEWID
 40
1.0
  9
$TEXTSTYLE
  7
GREEKS
  9
$CLAYER
  8
BEM
  9
$CELTYPE
  6
ByLayer
  9
$CECOLOR
 62
   256
  9
$CELTSCALE
 40
1.0
  9
$DISPSILH
 70
     0
  9
$DIMSCALE
 40
1.0
  9
$DIMASZ
 40
3.5
  9
$DIMEXO
 40
1.0
  9
$DIMDLI
 40
7.0
  9
$DIMRND
 40
0.0
  9
$DIMDLE
 40
0.0
  9
$DIMEXE
 40
1.0
  9
$DIMTP
 40
0.0
  9
$DIMTM
 40
0.0
  9
$DIMTXT
 40
3.5
  9
$DIMCEN
 40
1.5
  9
$DIMTSZ
 40
0.0
  9
$DIMTOL
 70
     0
  9
$DIMLIM
 70
     0
  9
$DIMTIH
 70
     0
  9
$DIMTOH
 70
     0
  9
$DIMSE1
 70
     0
  9
$DIMSE2
 70
     0
  9
$DIMTAD
 70
     1
  9
$DIMZIN
 70
     8
  9
$DIMBLK
  1

  9
$DIMASO
 70
     1
  9
$DIMSHO
 70
     0
  9
$DIMPOST
  1

  9
$DIMAPOST
  1

  9
$DIMALT
 70
     0
  9
$DIMALTD
 70
     2
  9
$DIMALTF
 40
25.4
  9
$DIMLFAC
 40
1.0
  9
$DIMTOFL
 70
     1
  9
$DIMTVP
 40
0.5714285714285714
  9
$DIMTIX
 70
     0
  9
$DIMSOXD
 70
     0
  9
$DIMSAH
 70
     0
  9
$DIMBLK1
  1

  9
$DIMBLK2
  1

  9
$DIMSTYLE
  2
Standard
  9
$DIMCLRD
 70
     0
  9
$DIMCLRE
 70
     0
  9
$DIMCLRT
 70
     1
  9
$DIMTFAC
 40
0.5142857142857144
  9
$DIMGAP
 40
1.5
  9
$DIMJUST
 70
     0
  9
$DIMSD1
 70
     0
  9
$DIMSD2
 70
     0
  9
$DIMTOLJ
 70
     1
  9
$DIMTZIN
 70
     8
  9
$DIMALTZ
 70
     8
  9
$DIMALTTZ
 70
     8
  9
$DIMUPT
 70
     0
  9
$DIMDEC
 70
     1
  9
$DIMTDEC
 70
     1
  9
$DIMALTU
 70
     2
  9
$DIMALTTD
 70
     2
  9
$DIMTXSTY
  7
GREEKS
  9
$DIMAUNIT
 70
     0
  9
$DIMADEC
 70
     2
  9
$DIMALTRND
 40
0.0
  9
$DIMAZIN
 70
     2
  9
$DIMDSEP
 70
    46
  9
$DIMATFIT
 70
     3
  9
$DIMFRAC
 70
     0
  9
$DIMLDRBLK
  1

  9
$DIMLUNIT
 70
     2
  9
$DIMLWD
 70
    -2
  9
$DIMLWE
 70
    -2
  9
$DIMTMOVE
 70
     0
  9
$LUNITS
 70
     2
  9
$LUPREC
 70
     1
  9
$SKETCHINC
 40
1.0
  9
$FILLETRAD
 40
0.0
  9
$AUNITS
 70
     0
  9
$AUPREC
 70
     0
  9
$MENU
  1
ACAD
  9
$ELEVATION
 40
0.0
  9
$PELEVATION
 40
0.0
  9
$THICKNESS
 40
0.0
  9
$LIMCHECK
 70
     0
  9
$CHAMFERA
 40
0.5
  9
$CHAMFERB
 40
0.5
  9
$CHAMFERC
 40
0.0
  9
$CHAMFERD
 40
0.0
  9
$SKPOLY
 70
     0
  9
$TDCREATE
 40
2450490.590765625
  9
$TDUCREATE
 40
2450490.507432292
  9
$TDUPDATE
 40
2455449.566592882
  9
$TDUUPDATE
 40
2455449.483259549
  9
$TDINDWG
 40
0.0302007060
  9
$TDUSRTIMER
 40
0.0302007060
  9
$USRTIMER
 70
     1
  9
$ANGBASE
 50
0.0
  9
$ANGDIR
 70
     0
  9
$PDMODE
 70
     0
  9
$PDSIZE
 40
0.0
  9
$PLINEWID
 40
0.0
  9
$SPLFRAME
 70
     0
  9
$SPLINETYPE
 70
     6
  9
$SPLINESEGS
 70
     8
  9
$HANDSEED
  5
3F6
  9
$SURFTAB1
 70
     6
  9
$SURFTAB2
 70
     6
  9
$SURFTYPE
 70
     6
  9
$SURFU
 70
     6
  9
$SURFV
 70
     6
  9
$UCSBASE
  2

  9
$UCSNAME
  2

  9
$UCSORG
 10
0.0
 20
0.0
 30
0.0
  9
$UCSXDIR
 10
1.0
 20
0.0
 30
0.0
  9
$UCSYDIR
 10
0.0
 20
1.0
 30
0.0
  9
$UCSORTHOREF
  2

  9
$UCSORTHOVIEW
 70
     0
  9
$UCSORGTOP
 10
0.0
 20
0.0
 30
0.0
  9
$UCSORGBOTTOM
 10
0.0
 20
0.0
 30
0.0
  9
$UCSORGLEFT
 10
0.0
 20
0.0
 30
0.0
  9
$UCSORGRIGHT
 10
0.0
 20
0.0
 30
0.0
  9
$UCSORGFRONT
 10
0.0
 20
0.0
 30
0.0
  9
$UCSORGBACK
 10
0.0
 20
0.0
 30
0.0
  9
$PUCSBASE
  2

  9
$PUCSNAME
  2

  9
$PUCSORG
 10
0.0
 20
0.0
 30
0.0
  9
$PUCSXDIR
 10
1.0
 20
0.0
 30
0.0
  9
$PUCSYDIR
 10
0.0
 20
1.0
 30
0.0
  9
$PUCSORTHOREF
  2

  9
$PUCSORTHOVIEW
 70
     0
  9
$PUCSORGTOP
 10
0.0
 20
0.0
 30
0.0
  9
$PUCSORGBOTTOM
 10
0.0
 20
0.0
 30
0.0
  9
$PUCSORGLEFT
 10
0.0
 20
0.0
 30
0.0
  9
$PUCSORGRIGHT
 10
0.0
 20
0.0
 30
0.0
  9
$PUCSORGFRONT
 10
0.0
 20
0.0
 30
0.0
  9
$PUCSORGBACK
 10
0.0
 20
0.0
 30
0.0
  9
$USERI1
 70
     0
  9
$USERI2
 70
     0
  9
$USERI3
 70
     0
  9
$USERI4
 70
     0
  9
$USERI5
 70
     0
  9
$USERR1
 40
0.0
  9
$USERR2
 40
0.0
  9
$USERR3
 40
0.0
  9
$USERR4
 40
0.0
  9
$USERR5
 40
0.0
  9
$WORLDVIEW
 70
     1
  9
$SHADEDGE
 70
     3
  9
$SHADEDIF
 70
    70
  9
$TILEMODE
 70
     1
  9
$MAXACTVP
 70
    16
  9
$PINSBASE
 10
0.0
 20
0.0
 30
0.0
  9
$PLIMCHECK
 70
     0
  9
$PEXTMIN
 10
1.000000000000000E+20
 20
1.000000000000000E+20
 30
1.000000000000000E+20
  9
$PEXTMAX
 10
-1.000000000000000E+20
 20
-1.000000000000000E+20
 30
-1.000000000000000E+20
  9
$PLIMMIN
 10
0.0
 20
0.0
  9
$PLIMMAX
 10
12.0
 20
9.0
  9
$UNITMODE
 70
     0
  9
$VISRETAIN
 70
     0
  9
$PLINEGEN
 70
     0
  9
$PSLTSCALE
 70
     0
  9
$TREEDEPTH
 70
  3020
  9
$CMLSTYLE
  2
Standard
  9
$CMLJUST
 70
     0
  9
$CMLSCALE
 40
1.0
  9
$PROXYGRAPHICS
 70
     1
  9
$MEASUREMENT
 70
     0
  9
$CELWEIGHT
370
    -1
  9
$ENDCAPS
280
     0
  9
$JOINSTYLE
280
     0
  9
$LWDISPLAY
290
     0
  9
$INSUNITS
 70
     0
  9
$HYPERLINKBASE
  1

  9
$STYLESHEET
  1
monochrome 1.ctb
  9
$XEDIT
290
     1
  9
$CEPSNTYPE
380
     0
  9
$PSTYLEMODE
290
     1
  9
$FINGERPRINTGUID
  2
{331C7F4E-ED89-11D7-B699-000102183313}
  9
$VERSIONGUID
  2
{9D9B1F31-1D5F-4EAE-9661-5AFF32C31659}
  9
$EXTNAMES
290
     1
  9
$PSVPSCALE
 40
0.0
  9
$OLESTARTUP
290
     0
  9
$SORTENTS
280
    96
  9
$INDEXCTL
280
     0
  9
$HIDETEXT
280
     0
  9
$XCLIPFRAME
290
     0
  9
$HALOGAP
280
     0
  9
$OBSCOLOR
 70
   257
  9
$OBSLTYPE
280
     0
  9
$INTERSECTIONDISPLAY
280
     0
  9
$INTERSECTIONCOLOR
 70
   257
  9
$DIMASSOC
280
     1
  9
$PROJECTNAME
  1

  0
ENDSEC
  0
SECTION
  2
CLASSES
  0
CLASS
  1
ACDBDICTIONARYWDFLT
  2
AcDbDictionaryWithDefault
  3
ObjectDBX Classes
 90
        0
 91
        1
280
     0
281
     0
  0
CLASS
  1
DICTIONARYVAR
  2
AcDbDictionaryVar
  3
ObjectDBX Classes
 90
        0
 91
        1
280
     0
281
     0
  0
ENDSEC
  0
SECTION
  2
TABLES
  0
TABLE
  2
VPORT
  5
8
330
0
100
AcDbSymbolTable
 70
     2
  0
VPORT
  5
3F5
330
8
100
AcDbSymbolTableRecord
100
AcDbViewportTableRecord
  2
*Active
 70
     0
 10
0.0
 20
0.0
 11
1.0
 21
1.0
 12
209.9970326216576
 22
148.5008295122729
 13
0.0
 23
0.0
 14
2.5
 24
2.5
 15
10.0
 25
10.0
 16
0.0
 26
0.0
 36
1.0
 17
0.0
 27
0.0
 37
0.0
 40
316.0564102558378
 41
1.336927223719676
 42
50.0
 43
0.0
 44
0.0
 50
0.0
 51
0.0
 71
     0
 72
   500
 73
     1
 74
     0
 75
     0
 76
     0
 77
     0
 78
     0
281
     0
 65
     1
110
0.0
120
0.0
130
0.0
111
1.0
121
0.0
131
0.0
112
0.0
122
1.0
132
0.0
 79
     0
146
0.0
  0
ENDTAB
  0
TABLE
  2
LTYPE
  5
5
330
0
100
AcDbSymbolTable
 70
     2
  0
LTYPE
  5
13
330
5
100
AcDbSymbolTableRecord
100
AcDbLinetypeTableRecord
  2
ByBlock
 70
     0
  3

 72
    65
 73
     0
 40
0.0
  0
LTYPE
  5
14
330
5
100
AcDbSymbolTableRecord
100
AcDbLinetypeTableRecord
  2
ByLayer
 70
     0
  3

 72
    65
 73
     0
 40
0.0
  0
LTYPE
  5
15
330
5
100
AcDbSymbolTableRecord
100
AcDbLinetypeTableRecord
  2
Continuous
 70
     0
  3
Solid line
 72
    65
 73
     0
 40
0.0
  0
LTYPE
  5
2C
330
5
100
AcDbSymbolTableRecord
100
AcDbLinetypeTableRecord
  2
STRICHPUNKT
 70
     0
  3
__ . __ . __ . __ . __ . __ . __ . __ . __ . __
 72
    65
 73
     4
 40
1.0
 49
0.5
 74
     0
 49
-0.25
 74
     0
 49
0.0
 74
     0
 49
-0.25
 74
     0
  0
ENDTAB
  0
TABLE
  2
LAYER
  5
2
330
0
100
AcDbSymbolTable
 70
     9
  0
LAYER
  5
10
330
2
100
AcDbSymbolTableRecord
100
AcDbLayerTableRecord
  2
0
 70
     0
 62
     7
  6
Continuous
370
    -3
390
F
  0
LAYER
  5
33
330
2
100
AcDbSymbolTableRecord
100
AcDbLayerTableRecord
  2
VOLL
 70
     0
 62
     1
  6
Continuous
370
    -3
390
F
  0
LAYER
  5
34
330
2
100
AcDbSymbolTableRecord
100
AcDbLayerTableRecord
  2
MITTEL
 70
     0
 62
     2
  6
STRICHPUNKT
370
    -3
390
F
  0
LAYER
  5
35
330
2
100
AcDbSymbolTableRecord
100
AcDbLayerTableRecord
  2
BEM
 70
     0
 62
     7
  6
Continuous
370
    -3
390
F
  0
LAYER
  5
36
330
2
100
AcDbSymbolTableRecord
100
AcDbLayerTableRecord
  2
HILF
 70
     0
 62
     2
  6
Continuous
370
    -3
390
F
  0
LAYER
  5
38
330
2
100
AcDbSymbolTableRecord
100
AcDbLayerTableRecord
  2
STEMPEL
 70
     0
 62
     3
  6
Continuous
370
    -3
390
F
  0
LAYER
  5
39
330
2
100
AcDbSymbolTableRecord
100
AcDbLayerTableRecord
  2
DEFPOINTS
 70
     0
 62
     7
  6
Continuous
290
     0
370
    -3
390
F
  0
LAYER
  5
3A
330
2
100
AcDbSymbolTableRecord
100
AcDbLayerTableRecord
  2
TEXT
 70
     0
 62
     7
  6
Continuous
370
    -3
390
F
  0
LAYER
  5
39D
330
2
100
AcDbSymbolTableRecord
100
AcDbLayerTableRecord
  2
SCHRAFF
 70
     0
 62
     7
  6
Continuous
370
    -3
390
F
  0
ENDTAB
  0
TABLE
  2
STYLE
  5
3
330
0
100
AcDbSymbolTable
 70
     2
  0
STYLE
  5
11
330
3
100
AcDbSymbolTableRecord
100
AcDbTextStyleTableRecord
  2
STANDARD
 70
     0
 40
0.0
 41
1.0
 50
0.0
 71
     0
 42
3.5
  3
txt
  4

  0
STYLE
  5
2B
330
3
100
AcDbSymbolTableRecord
100
AcDbTextStyleTableRecord
  2
GREEKS
 70
     0
 40
0.0
 41
0.8
 50
0.0
 71
     0
 42
1.8
  3
SIMPLEX.shx
  4

  0
ENDTAB
  0
TABLE
  2
VIEW
  5
6
330
0
100
AcDbSymbolTable
 70
     0
  0
ENDTAB
  0
TABLE
  2
UCS
  5
7
330
0
100
AcDbSymbolTable
 70
     0
  0
ENDTAB
  0
TABLE
  2
APPID
  5
9
330
0
100
AcDbSymbolTable
 70
     1
  0
APPID
  5
12
330
9
100
AcDbSymbolTableRecord
100
AcDbRegAppTableRecord
  2
ACAD
 70
     0
  0
ENDTAB
  0
TABLE
  2
DIMSTYLE
  5
A
330
0
100
AcDbSymbolTable
 70
     1
100
AcDbDimStyleTable
 71
     1
340
260
  0
DIMSTYLE
105
260
102
{ACAD_REACTORS
330
1E4
330
1E9
330
1E1
330
1E2
330
1E3
102
}
330
A
100
AcDbSymbolTableRecord
100
AcDbDimStyleTableRecord
  2
Standard
 70
     0
340
11
  0
ENDTAB
  0
TABLE
  2
BLOCK_RECORD
  5
1
330
0
100
AcDbSymbolTable
 70
     6
  0
BLOCK_RECORD
  5
1E
330
1
100
AcDbSymbolTableRecord
100
AcDbBlockTableRecord
  2
*Model_Space
340
21
  0
BLOCK_RECORD
  5
1A
330
1
100
AcDbSymbolTableRecord
100
AcDbBlockTableRecord
  2
*Paper_Space
340
1D
  0
BLOCK_RECORD
  5
22
330
1
100
AcDbSymbolTableRecord
100
AcDbBlockTableRecord
  2
LOGO
340
0
102
{BLKREFS
331
2F7
102
}
  0
BLOCK_RECORD
  5
311
330
1
100
AcDbSymbolTableRecord
100
AcDbBlockTableRecord
  2
*D1
340
0
  0
BLOCK_RECORD
  5
31D
330
1
100
AcDbSymbolTableRecord
100
AcDbBlockTableRecord
  2
*D2
340
0
  0
BLOCK_RECORD
  5
329
330
1
100
AcDbSymbolTableRecord
100
AcDbBlockTableRecord
  2
*D3
340
0
  0
BLOCK_RECORD
  5
335
330
1
100
AcDbSymbolTableRecord
100
AcDbBlockTableRecord
  2
*D4
340
0
  0
BLOCK_RECORD
  5
341
330
1
100
AcDbSymbolTableRecord
100
AcDbBlockTableRecord
  2
*D5
340
0
  0
ENDTAB
  0
ENDSEC
  0
SECTION
  2
BLOCKS
  0
BLOCK
  5
3E
330
1E
100
AcDbEntity
  8
0
100
AcDbBlockBegin
  2
*Model_Space
 70
     0
 10
0.0
 20
0.0
 30
0.0
  3
*Model_Space
  1

  0
ENDBLK
  5
3F
330
1E
100
AcDbEntity
  8
0
100
AcDbBlockEnd
  0
BLOCK
  5
3C
330
1A
100
AcDbEntity
 67
     1
  8
0
100
AcDbBlockBegin
  2
*Paper_Space
 70
     0
 10
0.0
 20
0.0
 30
0.0
  3
*Paper_Space
  1

  0
ENDBLK
  5
3D
330
1A
100
AcDbEntity
 67
     1
  8
0
100
AcDbBlockEnd
  0
BLOCK
  5
40
330
22
100
AcDbEntity
  8
0
100
AcDbBlockBegin
  2
LOGO
 70
     0
 10
0.0
 20
0.0
 30
0.0
  3
LOGO
  1

  0
ARC
  5
41
330
22
100
AcDbEntity
  8
0
100
AcDbCircle
 10
11.59973089678112
 20
-9.271599258481501
 30
0.0
 40
4.5
100
AcDbArc
 50
270.0
 51
231.0575587310159
  0
LINE
  5
42
330
22
100
AcDbEntity
  8
0
100
AcDbLine
 10
3.599730896781125
 20
-4.771599258481529
 30
0.0
 11
3.599730896781153
 21
-11.77159925848133
 31
0.0
  0
LINE
  5
43
330
22
100
AcDbEntity
  8
0
100
AcDbLine
 10
2.599730896781125
 20
-4.771599258481529
 30
0.0
 11
2.599730896781153
 21
-11.77159925848133
 31
0.0
  0
CIRCLE
  5
44
330
22
100
AcDbEntity
  8
0
100
AcDbCircle
 10
11.59973089678112
 20
-9.271599258481501
 30
0.0
 40
3.5
  0
ARC
  5
45
330
22
100
AcDbEntity
  8
0
100
AcDbCircle
 10
31.59973089678115
 20
-9.271599258481472
 30
0.0
 40
4.5
100
AcDbArc
 50
270.0
 51
231.0575587310182
  0
LINE
  5
46
330
22
100
AcDbEntity
  8
0
100
AcDbLine
 10
17.59973089678112
 20
-4.771599258481472
 30
0.0
 11
17.59973089678115
 21
-13.77159925848147
 31
0.0
  0
ARC
  5
47
330
22
100
AcDbEntity
  8
0
100
AcDbCircle
 10
22.59973089678116
 20
-7.271599258481472
 30
0.0
 40
2.5
100
AcDbArc
 50
293.1161887722295
 51
90.0
  0
CIRCLE
  5
48
330
22
100
AcDbEntity
  8
0
100
AcDbCircle
 10
31.59973089678115
 20
-9.271599258481472
 30
0.0
 40
3.5
  0
ARC
  5
49
330
22
100
AcDbEntity
  8
0
100
AcDbCircle
 10
4.599730896781153
 20
-11.77159925848133
 30
0.0
 40
1.0
100
AcDbArc
 50
180.0
 51
270.0
  0
ARC
  5
4A
330
22
100
AcDbEntity
  8
0
100
AcDbCircle
 10
4.599730896781153
 20
-11.77159925848133
 30
0.0
 40
2.0
100
AcDbArc
 50
179.9999999999992
 51
270.0
  0
LINE
  5
4B
330
22
100
AcDbEntity
  8
0
100
AcDbLine
 10
11.59973089678115
 20
-13.77159925848144
 30
0.0
 11
4.599730896781153
 21
-13.77159925848147
 31
0.0
  0
LINE
  5
4C
330
22
100
AcDbEntity
  8
0
100
AcDbLine
 10
8.771303772034769
 20
-12.77159925848136
 30
0.0
 11
4.599730896781153
 21
-12.77159925848133
 31
0.0
  0
LINE
  5
4D
330
22
100
AcDbEntity
  8
0
100
AcDbLine
 10
31.59973089678115
 20
-13.77159925848147
 30
0.0
 11
23.6715276665056
 21
-13.77159925848144
 31
0.0
  0
LINE
  5
4E
330
22
100
AcDbEntity
  8
0
100
AcDbLine
 10
23.56565672307022
 20
-9.51278021337896
 30
0.0
 11
24.4388546544846
 21
-12.77159925848144
 31
0.0
  0
LINE
  5
4F
330
22
100
AcDbEntity
  8
0
100
AcDbLine
 10
22.59973089678116
 20
-9.771599258481472
 30
0.0
 11
18.59973089678112
 21
-9.771599258481472
 31
0.0
  0
LINE
  5
50
330
22
100
AcDbEntity
  8
0
100
AcDbLine
 10
18.59973089678115
 20
-13.77159925848144
 30
0.0
 11
17.59973089678115
 21
-13.77159925848144
 31
0.0
  0
LINE
  5
51
330
22
100
AcDbEntity
  8
0
100
AcDbLine
 10
18.59973089678115
 20
-9.771599258481472
 30
0.0
 11
18.59973089678115
 21
-13.77159925848144
 31
0.0
  0
LINE
  5
52
330
22
100
AcDbEntity
  8
0
100
AcDbLine
 10
22.59973089678116
 20
-9.771599258481472
 30
0.0
 11
23.67152766650562
 21
-13.77159925848147
 31
0.0
  0
ARC
  5
53
330
22
100
AcDbEntity
  8
0
100
AcDbCircle
 10
22.59973089678116
 20
-7.271599258481472
 30
0.0
 40
2.5
100
AcDbArc
 50
270.0
 51
270.0000000000007
  0
LINE
  5
54
330
22
100
AcDbEntity
  8
0
100
AcDbLine
 10
28.77130377203494
 20
-12.77159925848147
 30
0.0
 11
24.43885465448463
 21
-12.77159925848144
 31
0.0
  0
LINE
  5
55
330
22
100
AcDbEntity
  8
0
100
AcDbLine
 10
3.599730896781125
 20
-4.771599258481472
 30
0.0
 11
2.599730896781125
 21
-4.771599258481472
 31
0.0
  0
LINE
  5
56
330
22
100
AcDbEntity
  8
0
100
AcDbLine
 10
22.59973089678116
 20
-8.771599258481472
 30
0.0
 11
18.59973089678115
 21
-8.771599258481472
 31
0.0
  0
LINE
  5
57
330
22
100
AcDbEntity
  8
0
100
AcDbLine
 10
22.59973089678116
 20
-5.771599258481472
 30
0.0
 11
18.59973089678115
 21
-5.771599258481472
 31
0.0
  0
LINE
  5
58
330
22
100
AcDbEntity
  8
0
100
AcDbLine
 10
22.59973089678116
 20
-4.771599258481472
 30
0.0
 11
17.59973089678115
 21
-4.771599258481472
 31
0.0
  0
LINE
  5
59
330
22
100
AcDbEntity
  8
0
100
AcDbLine
 10
18.59973089678115
 20
-5.771599258481472
 30
0.0
 11
18.59973089678115
 21
-8.771599258481472
 31
0.0
  0
ARC
  5
5A
330
22
100
AcDbEntity
  8
0
100
AcDbCircle
 10
22.59973089678116
 20
-7.271599258481472
 30
0.0
 40
1.5
100
AcDbArc
 50
270.0
 51
90.0
  0
ENDBLK
  5
5B
330
22
100
AcDbEntity
  8
0
100
AcDbBlockEnd
  0
BLOCK
  5
31B
330
311
100
AcDbEntity
  8
0
100
AcDbBlockBegin
  2
*D1
 70
     1
 10
0.0
 20
0.0
 30
0.0
  3
*D1
  1

  0
LINE
  5
380
330
311
100
AcDbEntity
  8
BEM
 62
     0
370
    -2
100
AcDbLine
 10
242.2726243643475
 20
120.6391317642906
 30
0.0
 11
242.2726243643475
 21
78.04913021447791
 31
0.0
  0
LINE
  5
381
330
311
100
AcDbEntity
  8
BEM
 62
     0
370
    -2
100
AcDbLine
 10
317.2726243643475
 20
120.6391317642906
 30
0.0
 11
317.2726243643475
 21
78.04913021447791
 31
0.0
  0
LINE
  5
382
330
311
100
AcDbEntity
  8
BEM
 62
     0
370
    -2
100
AcDbLine
 10
245.7726243643474
 20
79.04913021447791
 30
0.0
 11
313.7726243643475
 21
79.04913021447791
 31
0.0
  0
SOLID
  5
383
330
311
100
AcDbEntity
  8
BEM
 62
     0
100
AcDbTrace
 10
245.7726243643474
 20
79.63246354781124
 30
0.0
 11
245.7726243643474
 21
78.46579688114458
 31
0.0
 12
242.2726243643475
 22
79.04913021447791
 32
0.0
 13
242.2726243643475
 23
79.04913021447791
 33
0.0
  0
SOLID
  5
384
330
311
100
AcDbEntity
  8
BEM
 62
     0
100
AcDbTrace
 10
313.7726243643475
 20
79.63246354781124
 30
0.0
 11
313.7726243643475
 21
78.46579688114458
 31
0.0
 12
317.2726243643475
 22
79.04913021447791
 32
0.0
 13
317.2726243643475
 23
79.04913021447791
 33
0.0
  0
MTEXT
  5
385
330
311
100
AcDbEntity
  8
BEM
 62
     1
100
AcDbMText
 10
279.7726243643475
 20
82.2991302144779
 30
0.0
 40
3.5
 41
0.0
 71
     5
 72
     1
  1
\A1;75
  7
GREEKS
 73
     1
 44
1.0
  0
POINT
  5
386
330
311
100
AcDbEntity
  8
DEFPOINTS
 62
     0
100
AcDbPoint
 10
242.2726243643475
 20
121.6391317642906
 30
0.0
  0
POINT
  5
387
330
311
100
AcDbEntity
  8
DEFPOINTS
 62
     0
100
AcDbPoint
 10
317.2726243643475
 20
121.6391317642906
 30
0.0
  0
POINT
  5
388
330
311
100
AcDbEntity
  8
DEFPOINTS
 62
     0
100
AcDbPoint
 10
317.2726243643475
 20
79.04913021447791
 30
0.0
  0
ENDBLK
  5
31C
330
311
100
AcDbEntity
  8
0
100
AcDbBlockEnd
  0
BLOCK
  5
327
330
31D
100
AcDbEntity
  8
0
100
AcDbBlockBegin
  2
*D2
 70
     1
 10
0.0
 20
0.0
 30
0.0
  3
*D2
  1

  0
LINE
  5
377
330
31D
100
AcDbEntity
  8
BEM
 62
     0
370
    -2
100
AcDbLine
 10
250.7726243643475
 20
110.6391317642906
 30
0.0
 11
250.7726243643475
 21
86.99808847648952
 31
0.0
  0
LINE
  5
378
330
31D
100
AcDbEntity
  8
BEM
 62
     0
370
    -2
100
AcDbLine
 10
308.7726243643475
 20
110.6391317642906
 30
0.0
 11
308.7726243643475
 21
86.99808847648952
 31
0.0
  0
LINE
  5
379
330
31D
100
AcDbEntity
  8
BEM
 62
     0
370
    -2
100
AcDbLine
 10
254.2726243643475
 20
87.99808847648952
 30
0.0
 11
305.2726243643475
 21
87.99808847648952
 31
0.0
  0
SOLID
  5
37A
330
31D
100
AcDbEntity
  8
BEM
 62
     0
100
AcDbTrace
 10
254.2726243643475
 20
88.58142180982286
 30
0.0
 11
254.2726243643475
 21
87.4147551431562
 31
0.0
 12
250.7726243643475
 22
87.99808847648952
 32
0.0
 13
250.7726243643475
 23
87.99808847648952
 33
0.0
  0
SOLID
  5
37B
330
31D
100
AcDbEntity
  8
BEM
 62
     0
100
AcDbTrace
 10
305.2726243643475
 20
88.58142180982286
 30
0.0
 11
305.2726243643475
 21
87.4147551431562
 31
0.0
 12
308.7726243643475
 22
87.99808847648952
 32
0.0
 13
308.7726243643475
 23
87.99808847648952
 33
0.0
  0
MTEXT
  5
37C
330
31D
100
AcDbEntity
  8
BEM
 62
     1
100
AcDbMText
 10
279.7726243643475
 20
91.24808847648953
 30
0.0
 40
3.5
 41
0.0
 71
     5
 72
     1
  1
\A1;58
  7
GREEKS
 73
     1
 44
1.0
  0
POINT
  5
37D
330
31D
100
AcDbEntity
  8
DEFPOINTS
 62
     0
100
AcDbPoint
 10
250.7726243643475
 20
111.6391317642906
 30
0.0
  0
POINT
  5
37E
330
31D
100
AcDbEntity
  8
DEFPOINTS
 62
     0
100
AcDbPoint
 10
308.7726243643475
 20
111.6391317642906
 30
0.0
  0
POINT
  5
37F
330
31D
100
AcDbEntity
  8
DEFPOINTS
 62
     0
100
AcDbPoint
 10
308.7726243643475
 20
87.99808847648952
 30
0.0
  0
ENDBLK
  5
328
330
31D
100
AcDbEntity
  8
0
100
AcDbBlockEnd
  0
BLOCK
  5
333
330
329
100
AcDbEntity
  8
0
100
AcDbBlockBegin
  2
*D3
 70
     1
 10
0.0
 20
0.0
 30
0.0
  3
*D3
  1

  0
LINE
  5
389
330
329
100
AcDbEntity
  8
BEM
 62
     0
370
    -2
100
AcDbLine
 10
249.7726243643475
 20
114.6391317642906
 30
0.0
 11
232.390631868265
 21
114.6391317642906
 31
0.0
  0
LINE
  5
38A
330
329
100
AcDbEntity
  8
BEM
 62
     0
370
    -2
100
AcDbLine
 10
249.7726243643475
 20
124.6391317642906
 30
0.0
 11
232.390631868265
 21
124.6391317642906
 31
0.0
  0
LINE
  5
38B
330
329
100
AcDbEntity
  8
BEM
 62
     0
370
    -2
100
AcDbLine
 10
233.390631868265
 20
111.1391317642906
 30
0.0
 11
233.390631868265
 21
107.6391317642906
 31
0.0
  0
LINE
  5
38C
330
329
100
AcDbEntity
  8
BEM
 62
     0
370
    -2
100
AcDbLine
 10
233.390631868265
 20
128.1391317642906
 30
0.0
 11
233.390631868265
 21
131.6391317642906
 31
0.0
  0
LINE
  5
38D
330
329
100
AcDbEntity
  8
BEM
 62
     0
370
    -2
100
AcDbLine
 10
233.390631868265
 20
114.6391317642906
 30
0.0
 11
233.390631868265
 21
124.6391317642906
 31
0.0
  0
SOLID
  5
38E
330
329
100
AcDbEntity
  8
BEM
 62
     0
100
AcDbTrace
 10
232.8072985349317
 20
111.1391317642906
 30
0.0
 11
233.9739652015984
 21
111.1391317642906
 31
0.0
 12
233.390631868265
 22
114.6391317642906
 32
0.0
 13
233.390631868265
 23
114.6391317642906
 33
0.0
  0
SOLID
  5
38F
330
329
100
AcDbEntity
  8
BEM
 62
     0
100
AcDbTrace
 10
232.8072985349317
 20
128.1391317642906
 30
0.0
 11
233.9739652015984
 21
128.1391317642906
 31
0.0
 12
233.390631868265
 22
124.6391317642906
 32
0.0
 13
233.390631868265
 23
124.6391317642906
 33
0.0
  0
MTEXT
  5
390
330
329
100
AcDbEntity
  8
BEM
 62
     1
100
AcDbMText
 10
230.140631868265
 20
119.6391317642906
 30
0.0
 40
3.5
 41
0.0
 71
     5
 72
     1
  1
\A1;10
  7
GREEKS
 11
0.0000000000000001
 21
1.0
 31
0.0
 73
     1
 44
1.0
  0
POINT
  5
391
330
329
100
AcDbEntity
  8
DEFPOINTS
 62
     0
100
AcDbPoint
 10
250.7726243643475
 20
114.6391317642906
 30
0.0
  0
POINT
  5
392
330
329
100
AcDbEntity
  8
DEFPOINTS
 62
     0
100
AcDbPoint
 10
250.7726243643475
 20
124.6391317642906
 30
0.0
  0
POINT
  5
393
330
329
100
AcDbEntity
  8
DEFPOINTS
 62
     0
100
AcDbPoint
 10
233.390631868265
 20
124.6391317642906
 30
0.0
  0
ENDBLK
  5
334
330
329
100
AcDbEntity
  8
0
100
AcDbBlockEnd
  0
BLOCK
  5
33F
330
335
100
AcDbEntity
  8
0
100
AcDbBlockBegin
  2
*D4
 70
     1
 10
0.0
 20
0.0
 30
0.0
  3
*D4
  1

  0
LINE
  5
36E
330
335
100
AcDbEntity
  8
BEM
 62
     0
370
    -2
100
AcDbLine
 10
302.6202662235191
 20
101.6391317642906
 30
0.0
 11
339.8887163846967
 21
101.6391317642906
 31
0.0
  0
LINE
  5
36F
330
335
100
AcDbEntity
  8
BEM
 62
     0
370
    -2
100
AcDbLine
 10
302.6202662235191
 20
141.6391317642906
 30
0.0
 11
339.8887163846968
 21
141.6391317642906
 31
0.0
  0
LINE
  5
370
330
335
100
AcDbEntity
  8
BEM
 62
     0
370
    -2
100
AcDbLine
 10
338.8887163846967
 20
105.1391317642906
 30
0.0
 11
338.8887163846967
 21
138.1391317642906
 31
0.0
  0
SOLID
  5
371
330
335
100
AcDbEntity
  8
BEM
 62
     0
100
AcDbTrace
 10
338.3053830513634
 20
105.1391317642906
 30
0.0
 11
339.47204971803
 21
105.1391317642906
 31
0.0
 12
338.8887163846967
 22
101.6391317642906
 32
0.0
 13
338.8887163846967
 23
101.6391317642906
 33
0.0
  0
SOLID
  5
372
330
335
100
AcDbEntity
  8
BEM
 62
     0
100
AcDbTrace
 10
338.3053830513635
 20
138.1391317642906
 30
0.0
 11
339.4720497180301
 21
138.1391317642906
 31
0.0
 12
338.8887163846967
 22
141.6391317642906
 32
0.0
 13
338.8887163846967
 23
141.6391317642906
 33
0.0
  0
MTEXT
  5
373
330
335
100
AcDbEntity
  8
BEM
 62
     1
100
AcDbMText
 10
335.6387163846967
 20
121.6391317642906
 30
0.0
 40
3.5
 41
0.0
 71
     5
 72
     1
  1
\A1;40
  7
GREEKS
 11
0.0000000000000001
 21
1.0
 31
0.0
 73
     1
 44
1.0
  0
POINT
  5
374
330
335
100
AcDbEntity
  8
DEFPOINTS
 62
     0
100
AcDbPoint
 10
301.6202662235191
 20
101.6391317642906
 30
0.0
  0
POINT
  5
375
330
335
100
AcDbEntity
  8
DEFPOINTS
 62
     0
100
AcDbPoint
 10
301.6202662235191
 20
141.6391317642906
 30
0.0
  0
POINT
  5
376
330
335
100
AcDbEntity
  8
DEFPOINTS
 62
     0
100
AcDbPoint
 10
338.8887163846967
 20
141.6391317642906
 30
0.0
  0
ENDBLK
  5
340
330
335
100
AcDbEntity
  8
0
100
AcDbBlockEnd
  0
BLOCK
  5
34B
330
341
100
AcDbEntity
  8
0
100
AcDbBlockBegin
  2
*D5
 70
     1
 10
0.0
 20
0.0
 30
0.0
  3
*D5
  1

  0
LINE
  5
365
330
341
100
AcDbEntity
  8
BEM
 62
     0
370
    -2
100
AcDbLine
 10
306.3116811080161
 20
101.6391317642906
 30
0.0
 11
330.6060833988735
 21
101.6391317642906
 31
0.0
  0
LINE
  5
366
330
341
100
AcDbEntity
  8
BEM
 62
     0
370
    -2
100
AcDbLine
 10
323.0705833354805
 20
119.6391317642905
 30
0.0
 11
330.6060833988735
 21
119.6391317642905
 31
0.0
  0
LINE
  5
367
330
341
100
AcDbEntity
  8
BEM
 62
     0
370
    -2
100
AcDbLine
 10
329.6060833988735
 20
105.1391317642906
 30
0.0
 11
329.6060833988735
 21
116.1391317642906
 31
0.0
  0
SOLID
  5
368
330
341
100
AcDbEntity
  8
BEM
 62
     0
100
AcDbTrace
 10
329.0227500655402
 20
105.1391317642906
 30
0.0
 11
330.1894167322068
 21
105.1391317642906
 31
0.0
 12
329.6060833988735
 22
101.6391317642906
 32
0.0
 13
329.6060833988735
 23
101.6391317642906
 33
0.0
  0
SOLID
  5
369
330
341
100
AcDbEntity
  8
BEM
 62
     0
100
AcDbTrace
 10
329.0227500655402
 20
116.1391317642906
 30
0.0
 11
330.1894167322068
 21
116.1391317642906
 31
0.0
 12
329.6060833988735
 22
119.6391317642905
 32
0.0
 13
329.6060833988735
 23
119.6391317642905
 33
0.0
  0
MTEXT
  5
36A
330
341
100
AcDbEntity
  8
BEM
 62
     1
100
AcDbMText
 10
326.3560833988735
 20
110.6391317642906
 30
0.0
 40
3.5
 41
0.0
 71
     5
 72
     1
  1
\A1;18
  7
GREEKS
 11
0.0000000000000001
 21
1.0
 31
0.0
 73
     1
 44
1.0
  0
POINT
  5
36B
330
341
100
AcDbEntity
  8
DEFPOINTS
 62
     0
100
AcDbPoint
 10
305.3116811080161
 20
101.6391317642906
 30
0.0
  0
POINT
  5
36C
330
341
100
AcDbEntity
  8
DEFPOINTS
 62
     0
100
AcDbPoint
 10
322.0705833354805
 20
119.6391317642905
 30
0.0
  0
POINT
  5
36D
330
341
100
AcDbEntity
  8
DEFPOINTS
 62
     0
100
AcDbPoint
 10
329.6060833988735
 20
119.6391317642905
 30
0.0
  0
ENDBLK
  5
34C
330
341
100
AcDbEntity
  8
0
100
AcDbBlockEnd
  0
ENDSEC
  0
SECTION
  2
ENTITIES
  0
TEXT
  5
125
330
1E
100
AcDbEntity
  8
VOLL
100
AcDbText
 10
551.3544853315129
 20
-33.40640262211073
 30
0.0
 40
1.8
  1

  7
GREEKS
100
AcDbText
  0
TEXT
  5
126
330
1E
100
AcDbEntity
  8
TEXT
100
AcDbText
 10
883.1867535351058
 20
-27.84816708888519
 30
0.0
 40
2.5
  1
  
  7
GREEKS
 72
     1
 11
885.4486582970107
 21
-27.84816708888519
 31
0.0
100
AcDbText
  0
TEXT
  5
127
330
1E
100
AcDbEntity
  8
BEM
100
AcDbText
 10
1127.18742322854
 20
107.710714941517
 30
0.0
 40
2.5
  1
 
 72
     4
 11
1128.43742322854
 21
107.710714941517
 31
0.0
100
AcDbText
  0
TEXT
  5
129
330
1E
100
AcDbEntity
  8
BEM
100
AcDbText
 10
706.4940874883088
 20
-13.07299173243418
 30
0.0
 40
2.5
  1

  7
GREEKS
100
AcDbText
  0
TEXT
  5
12A
330
1E
100
AcDbEntity
  8
VOLL
100
AcDbText
 10
692.4278944685873
 20
-33.2562523894693
 30
0.0
 40
1.8
  1

  7
GREEKS
100
AcDbText
  0
TEXT
  5
12B
330
1E
100
AcDbEntity
  8
BEM
100
AcDbText
 10
726.9159593078719
 20
-28.53052806624869
 30
0.0
 40
2.5
  1

 41
0.8
  7
GREEKS
100
AcDbText
  0
TEXT
  5
12C
330
1E
100
AcDbEntity
  8
BEM
100
AcDbText
 10
726.9159593078719
 20
-33.22429662030085
 30
0.0
 40
2.5
  1

 41
0.8
  7
GREEKS
100
AcDbText
  0
TEXT
  5
12D
330
1E
100
AcDbEntity
  8
BEM
100
AcDbText
 10
726.9159593078719
 20
-38.46214043896435
 30
0.0
 40
2.5
  1

 41
0.8
  7
GREEKS
100
AcDbText
  0
TEXT
  5
12E
330
1E
100
AcDbEntity
  8
BEM
100
AcDbText
 10
726.8430148304976
 20
-42.96732938906197
 30
0.0
 40
1.8
  1

 41
0.8
  7
GREEKS
100
AcDbText
  0
TEXT
  5
12F
330
1E
100
AcDbEntity
  8
BEM
100
AcDbText
 10
714.1594439508864
 20
-17.37574029283669
 30
0.0
 40
2.0
  1

 41
0.8
  7
GREEKS
 72
     1
 11
714.1594439508864
 21
-17.37574029283669
 31
0.0
100
AcDbText
  0
TEXT
  5
130
330
1E
100
AcDbEntity
  8
TEXT
100
AcDbText
 10
1024.26016267218
 20
-27.69801685624375
 30
0.0
 40
2.5
  1
  
  7
GREEKS
 72
     1
 11
1026.522067434085
 21
-27.69801685624375
 31
0.0
100
AcDbText
  0
TEXT
  5
131
330
1E
100
AcDbEntity
  8
BEM
100
AcDbText
 10
1268.260832365615
 20
107.8608651741584
 30
0.0
 40
2.5
  1
 
 72
     4
 11
1269.510832365615
 21
107.8608651741584
 31
0.0
100
AcDbText
  0
LINE
  5
132
330
1E
100
AcDbEntity
  8
MITTEL
100
AcDbLine
 10
100.5346887904075
 20
151.125362108074
 30
0.0
 11
100.5346887904075
 21
97.12536210807407
 31
0.0
  0
TEXT
  5
133
330
1E
100
AcDbEntity
  8
TEXT
 62
     1
100
AcDbText
 10
151.8079300171002
 20
135.6381834800992
 30
0.0
 40
3.5
  1
Einschlagmutter nach
 41
0.8
  7
GREEKS
100
AcDbText
  0
TEXT
  5
134
330
1E
100
AcDbEntity
  8
TEXT
 62
     1
100
AcDbText
 10
151.8079300171002
 20
130.0036542258925
 30
0.0
 40
3.5
  1
Zeichng.Nr. 2340.4094
 41
0.8
  7
GREEKS
100
AcDbText
  0
TEXT
  5
135
330
1E
100
AcDbEntity
  8
TEXT
 62
     1
100
AcDbText
 10
152.1635608382724
 20
115.0887245629405
 30
0.0
 40
3.5
  1
Sechskantschraube M8x25
 41
0.8
  7
GREEKS
100
AcDbText
  0
TEXT
  5
136
330
1E
100
AcDbEntity
  8
TEXT
 62
     1
100
AcDbText
 10
152.1635608382724
 20
109.7856383887931
 30
0.0
 40
3.5
  1
DIN933 gal.verzinkt
 41
0.8
  7
GREEKS
100
AcDbText
  0
LINE
  5
137
330
1E
100
AcDbEntity
  8
TEXT
 62
     2
100
AcDbLine
 10
199.9794046228198
 20
133.9381472204326
 30
0.0
 11
151.4010125998419
 21
133.9381472204326
 31
0.0
  0
LINE
  5
138
330
1E
100
AcDbEntity
  8
TEXT
 62
     2
100
AcDbLine
 10
151.4010125998419
 20
133.9381472204326
 30
0.0
 11
135.2082185923797
 21
130.5636619150201
 31
0.0
  0
LINE
  5
139
330
1E
100
AcDbEntity
  8
TEXT
 62
     2
100
AcDbLine
 10
135.9661531983185
 20
117.2599203637523
 30
0.0
 11
151.2537636900559
 21
113.9791673092644
 31
0.0
  0
LINE
  5
13A
330
1E
100
AcDbEntity
  8
TEXT
 62
     2
100
AcDbLine
 10
151.2537636900559
 20
113.9791673092644
 30
0.0
 11
208.6337840961288
 21
113.9791673092644
 31
0.0
  0
TEXT
  5
13B
330
1E
100
AcDbEntity
  8
VOLL
100
AcDbText
 10
483.9125661805219
 20
42.23424646799668
 30
0.0
 40
1.8
  1

  7
GREEKS
100
AcDbText
  0
TEXT
  5
13C
330
1E
100
AcDbEntity
  8
TEXT
100
AcDbText
 10
815.7448343841149
 20
47.79248200122222
 30
0.0
 40
2.5
  1
  
  7
GREEKS
 72
     1
 11
818.0067391460196
 21
47.79248200122222
 31
0.0
100
AcDbText
  0
TEXT
  5
13D
330
1E
100
AcDbEntity
  8
BEM
100
AcDbText
 10
1059.745504077549
 20
183.3513640316244
 30
0.0
 40
2.5
  1
 
 72
     4
 11
1060.995504077549
 21
183.3513640316244
 31
0.0
100
AcDbText
  0
TEXT
  5
13E
330
1E
100
AcDbEntity
  8
BEM
100
AcDbText
 10
625.5538958264464
 20
65.87096065915808
 30
0.0
 40
2.5
  1

  7
GREEKS
100
AcDbText
  0
TEXT
  5
13F
330
1E
100
AcDbEntity
  8
VOLL
100
AcDbText
 10
611.4877028067249
 20
45.68770000212298
 30
0.0
 40
1.8
  1

  7
GREEKS
100
AcDbText
  0
TEXT
  5
140
330
1E
100
AcDbEntity
  8
BEM
100
AcDbText
 10
645.9757676460096
 20
50.41342432534358
 30
0.0
 40
2.5
  1

 41
0.8
  7
GREEKS
100
AcDbText
  0
TEXT
  5
141
330
1E
100
AcDbEntity
  8
BEM
100
AcDbText
 10
645.9757676460096
 20
45.71965577129143
 30
0.0
 40
2.5
  1

 41
0.8
  7
GREEKS
100
AcDbText
  0
TEXT
  5
142
330
1E
100
AcDbEntity
  8
BEM
100
AcDbText
 10
645.9757676460096
 20
40.48181195262793
 30
0.0
 40
2.5
  1

 41
0.8
  7
GREEKS
100
AcDbText
  0
TEXT
  5
143
330
1E
100
AcDbEntity
  8
BEM
100
AcDbText
 10
645.9028231686352
 20
35.97662300253031
 30
0.0
 40
1.8
  1

 41
0.8
  7
GREEKS
100
AcDbText
  0
TEXT
  5
144
330
1E
100
AcDbEntity
  8
BEM
100
AcDbText
 10
633.2192522890239
 20
61.56821209875558
 30
0.0
 40
2.0
  1

 41
0.8
  7
GREEKS
 72
     1
 11
633.2192522890239
 21
61.56821209875558
 31
0.0
100
AcDbText
  0
TEXT
  5
145
330
1E
100
AcDbEntity
  8
TEXT
100
AcDbText
 10
943.3199710103179
 20
51.24593553534852
 30
0.0
 40
2.5
  1
  
  7
GREEKS
 72
     1
 11
945.5818757722227
 21
51.24593553534852
 31
0.0
100
AcDbText
  0
TEXT
  5
146
330
1E
100
AcDbEntity
  8
BEM
100
AcDbText
 10
1187.320640703752
 20
186.8048175657508
 30
0.0
 40
2.5
  1
 
 72
     4
 11
1188.570640703752
 21
186.8048175657508
 31
0.0
100
AcDbText
  0
LINE
  5
147
330
1E
100
AcDbEntity
  8
MITTEL
100
AcDbLine
 10
279.7726243643475
 20
96.6391317642906
 30
0.0
 11
279.7726243643475
 21
146.6391317642906
 31
0.0
  0
LINE
  5
148
330
1E
100
AcDbEntity
  8
STEMPEL
  6
Continuous
100
AcDbLine
 10
257.9249825051759
 20
141.6391317642905
 30
0.0
 11
301.6202662235191
 21
141.6391317642906
 31
0.0
  0
LINE
  5
149
330
1E
100
AcDbEntity
  8
STEMPEL
  6
Continuous
100
AcDbLine
 10
257.9249825051758
 20
101.6391317642906
 30
0.0
 11
301.6202662235191
 21
101.6391317642906
 31
0.0
  0
ARC
  5
14A
330
1E
100
AcDbEntity
  8
STEMPEL
  6
Continuous
100
AcDbCircle
 10
284.2726243643475
 20
138.5401317642906
 30
0.0
 40
17.49987002457764
100
AcDbArc
 50
0.0000000000000799
 51
10.20013326896821
  0
LINE
  5
14B
330
1E
100
AcDbEntity
  8
STEMPEL
  6
Continuous
100
AcDbLine
 10
301.7726243643474
 20
135.181312084699
 30
0.0
 11
301.7726243643474
 21
138.5401317642906
 31
0.0
  0
ARC
  5
14C
330
1E
100
AcDbEntity
  8
STEMPEL
  6
Continuous
100
AcDbCircle
 10
283.2726243643474
 20
135.1813120846991
 30
0.0
 40
18.5
100
AcDbArc
 50
329.9266523550263
 51
359.9999999999998
  0
ARC
  5
14D
330
1E
100
AcDbEntity
  8
STEMPEL
  6
Continuous
100
AcDbCircle
 10
305.7726243643474
 20
122.1524978639037
 30
0.0
 40
7.5
100
AcDbArc
 50
149.9266523550263
 51
180.0
  0
LINE
  5
14E
330
1E
100
AcDbEntity
  8
STEMPEL
  6
Continuous
100
AcDbLine
 10
298.2726243643475
 20
101.6391317642906
 30
0.0
 11
298.2726243643475
 21
122.1524978639037
 31
0.0
  0
LINE
  5
14F
330
1E
100
AcDbEntity
  8
STEMPEL
  6
Continuous
100
AcDbLine
 10
261.2726243643475
 20
101.6391317642906
 30
0.0
 11
261.2726243643475
 21
122.1524978639034
 31
0.0
  0
ARC
  5
150
330
1E
100
AcDbEntity
  8
STEMPEL
  6
Continuous
100
AcDbCircle
 10
253.7726243643474
 20
122.1524978639034
 30
0.0
 40
7.5
100
AcDbArc
 50
0.0
 51
30.07334764497448
  0
ARC
  5
151
330
1E
100
AcDbEntity
  8
STEMPEL
  6
Continuous
100
AcDbCircle
 10
276.2726243643474
 20
135.1813120846991
 30
0.0
 40
18.5
100
AcDbArc
 50
180.0000000000002
 51
210.0733476449744
  0
LINE
  5
152
330
1E
100
AcDbEntity
  8
STEMPEL
  6
Continuous
100
AcDbLine
 10
257.7726243643474
 20
135.181312084699
 30
0.0
 11
257.7726243643474
 21
138.5401317642906
 31
0.0
  0
ARC
  5
153
330
1E
100
AcDbEntity
  8
STEMPEL
  6
Continuous
100
AcDbCircle
 10
275.2726243643474
 20
138.5401317642906
 30
0.0
 40
17.49987002457764
100
AcDbArc
 50
169.7998667310318
 51
179.9999999999999
  0
LINE
  5
154
330
1E
100
AcDbEntity
  8
MITTEL
100
AcDbLine
 10
237.4746653932151
 20
119.6391317642906
 30
0.0
 11
322.0705833354805
 21
119.6391317642905
 31
0.0
  0
LINE
  5
155
330
1E
100
AcDbEntity
  8
MITTEL
100
AcDbLine
 10
250.7726243643475
 20
111.6391317642906
 30
0.0
 11
250.7726243643475
 21
127.6391317642906
 31
0.0
  0
LINE
  5
156
330
1E
100
AcDbEntity
  8
MITTEL
100
AcDbLine
 10
308.7726243643475
 20
111.6391317642906
 30
0.0
 11
308.7726243643475
 21
127.6391317642906
 31
0.0
  0
CIRCLE
  5
157
330
1E
100
AcDbEntity
  8
STEMPEL
100
AcDbCircle
 10
308.7726243643475
 20
119.6391317642906
 30
0.0
 40
5.0
  0
CIRCLE
  5
158
330
1E
100
AcDbEntity
  8
STEMPEL
100
AcDbCircle
 10
250.7726243643475
 20
119.6391317642906
 30
0.0
 40
5.0
  0
ARC
  5
159
330
1E
100
AcDbEntity
  8
STEMPEL
100
AcDbCircle
 10
312.2726243643475
 20
121.6391317642906
 30
0.0
 40
5.0
100
AcDbArc
 50
333.2026359368771
 51
26.79736406312307
  0
ARC
  5
15A
330
1E
100
AcDbEntity
  8
STEMPEL
100
AcDbCircle
 10
247.2726243643474
 20
121.6391317642906
 30
0.0
 40
5.0
100
AcDbArc
 50
153.2026359368771
 51
206.7973640631227
  0
LINE
  5
15B
330
1E
100
AcDbEntity
  8
STEMPEL
100
AcDbLine
 10
310.546331828312
 20
136.147496525369
 30
0.0
 11
316.7356571667439
 21
123.8933141448298
 31
0.0
  0
LINE
  5
15C
330
1E
100
AcDbEntity
  8
STEMPEL
100
AcDbLine
 10
310.546331828312
 20
107.1307670032122
 30
0.0
 11
316.7356571667439
 21
119.3849493837514
 31
0.0
  0
LINE
  5
15D
330
1E
100
AcDbEntity
  8
STEMPEL
100
AcDbLine
 10
248.9989169003829
 20
107.1307670032122
 30
0.0
 11
242.809591561951
 21
119.3849493837514
 31
0.0
  0
LINE
  5
15E
330
1E
100
AcDbEntity
  8
STEMPEL
100
AcDbLine
 10
248.998916900383
 20
136.1474965253689
 30
0.0
 11
242.809591561951
 21
123.8933141448298
 31
0.0
  0
LINE
  5
15F
330
1E
100
AcDbEntity
  8
MITTEL
100
AcDbLine
 10
71.53468879040757
 20
219.0266273674357
 30
0.0
 11
71.53468879040757
 21
235.0266273674357
 31
0.0
  0
LINE
  5
160
330
1E
100
AcDbEntity
  8
MITTEL
100
AcDbLine
 10
129.5346887904075
 20
219.0266273674357
 30
0.0
 11
129.5346887904075
 21
235.0266273674357
 31
0.0
  0
LINE
  5
161
330
1E
100
AcDbEntity
  8
STEMPEL
100
AcDbLine
 10
129.6441717759934
 20
246.8299732718671
 30
0.0
 11
137.497721592804
 21
231.280809747975
 31
0.0
  0
LINE
  5
162
330
1E
100
AcDbEntity
  8
STEMPEL
100
AcDbLine
 10
71.42520580482177
 20
246.8299732718671
 30
0.0
 11
63.5716559880111
 21
231.280809747975
 31
0.0
  0
ARC
  5
163
330
1E
100
AcDbEntity
  8
STEMPEL
  6
Continuous
100
AcDbCircle
 10
126.5346887904075
 20
229.5399934670489
 30
0.0
 40
7.5
100
AcDbArc
 50
149.9266523550263
 51
180.0
  0
ARC
  5
164
330
1E
100
AcDbEntity
  8
STEMPEL
  6
Continuous
100
AcDbCircle
 10
74.53468879040754
 20
229.5399934670485
 30
0.0
 40
7.5
100
AcDbArc
 50
0.0
 51
30.07334764497448
  0
LINE
  5
165
330
1E
100
AcDbEntity
  8
MITTEL
100
AcDbLine
 10
100.5346887904075
 20
204.0266273674357
 30
0.0
 11
100.5346887904075
 21
254.0266273674357
 31
0.0
  0
LINE
  5
166
330
1E
100
AcDbEntity
  8
MITTEL
100
AcDbLine
 10
63.53468879040754
 20
227.0266273674358
 30
0.0
 11
137.5346887904075
 21
227.0266273674357
 31
0.0
  0
LINE
  5
167
330
1E
100
AcDbEntity
  8
STEMPEL
  6
Continuous
100
AcDbLine
 10
74.99563204673886
 20
209.0266273674358
 30
0.0
 11
126.0737455340762
 21
209.0266273674358
 31
0.0
  0
LINE
  5
168
330
1E
100
AcDbEntity
  8
STEMPEL
100
AcDbLine
 10
71.42520580482171
 20
211.2232814630044
 30
0.0
 11
63.5716559880111
 21
226.7724449868965
 31
0.0
  0
LINE
  5
169
330
1E
100
AcDbEntity
  8
STEMPEL
  6
Continuous
100
AcDbLine
 10
82.03468879040753
 20
209.0266273674357
 30
0.0
 11
82.03468879040753
 21
229.5399934670485
 31
0.0
  0
ARC
  5
16A
330
1E
100
AcDbEntity
  8
STEMPEL
100
AcDbCircle
 10
74.99563204673886
 20
213.0266273674358
 30
0.0
 40
4.0
100
AcDbArc
 50
206.7973640631228
 51
270.0
  0
ARC
  5
16B
330
1E
100
AcDbEntity
  8
STEMPEL
100
AcDbCircle
 10
68.03468879040754
 20
229.0266273674357
 30
0.0
 40
5.0
100
AcDbArc
 50
153.2026359368771
 51
206.7973640631227
  0
LINE
  5
16C
330
1E
100
AcDbEntity
  8
STEMPEL
100
AcDbLine
 10
129.6441717759933
 20
211.2232814630043
 30
0.0
 11
137.497721592804
 21
226.7724449868965
 31
0.0
  0
LINE
  5
16D
330
1E
100
AcDbEntity
  8
STEMPEL
  6
Continuous
100
AcDbLine
 10
119.0346887904075
 20
209.0266273674357
 30
0.0
 11
119.0346887904075
 21
229.5399934670489
 31
0.0
  0
ARC
  5
16E
330
1E
100
AcDbEntity
  8
STEMPEL
100
AcDbCircle
 10
126.0737455340762
 20
213.0266273674358
 30
0.0
 40
4.0
100
AcDbArc
 50
270.0
 51
333.2026359368771
  0
ARC
  5
16F
330
1E
100
AcDbEntity
  8
STEMPEL
100
AcDbCircle
 10
133.0346887904076
 20
229.0266273674357
 30
0.0
 40
5.0
100
AcDbArc
 50
333.2026359368771
 51
26.79736406312307
  0
LINE
  5
170
330
1E
100
AcDbEntity
  8
STEMPEL
  6
Continuous
100
AcDbLine
 10
74.99563204673892
 20
249.0266273674357
 30
0.0
 11
126.0737455340762
 21
249.0266273674357
 31
0.0
  0
ARC
  5
171
330
1E
100
AcDbEntity
  8
STEMPEL
100
AcDbCircle
 10
74.99563204673892
 20
245.0266273674357
 30
0.0
 40
4.0
100
AcDbArc
 50
90.0
 51
153.2026359368771
  0
ARC
  5
172
330
1E
100
AcDbEntity
  8
STEMPEL
  6
Continuous
100
AcDbCircle
 10
96.03468879040748
 20
245.9276273674357
 30
0.0
 40
17.49987002457764
100
AcDbArc
 50
169.7998667310318
 51
179.9999999999999
  0
ARC
  5
173
330
1E
100
AcDbEntity
  8
STEMPEL
  6
Continuous
100
AcDbCircle
 10
97.03468879040748
 20
242.5688076878442
 30
0.0
 40
18.5
100
AcDbArc
 50
180.0000000000002
 51
210.0733476449744
  0
LINE
  5
174
330
1E
100
AcDbEntity
  8
STEMPEL
  6
Continuous
100
AcDbLine
 10
78.53468879040754
 20
242.5688076878441
 30
0.0
 11
78.53468879040754
 21
245.9276273674358
 31
0.0
  0
ARC
  5
175
330
1E
100
AcDbEntity
  8
STEMPEL
100
AcDbCircle
 10
126.0737455340762
 20
245.0266273674358
 30
0.0
 40
4.0
100
AcDbArc
 50
26.79736406312294
 51
90.0
  0
ARC
  5
176
330
1E
100
AcDbEntity
  8
STEMPEL
  6
Continuous
100
AcDbCircle
 10
105.0346887904075
 20
245.9276273674357
 30
0.0
 40
17.49987002457764
100
AcDbArc
 50
0.0000000000000799
 51
10.20013326896821
  0
ARC
  5
177
330
1E
100
AcDbEntity
  8
STEMPEL
  6
Continuous
100
AcDbCircle
 10
104.0346887904075
 20
242.5688076878442
 30
0.0
 40
18.5
100
AcDbArc
 50
329.9266523550263
 51
359.9999999999998
  0
LINE
  5
178
330
1E
100
AcDbEntity
  8
STEMPEL
  6
Continuous
100
AcDbLine
 10
122.5346887904075
 20
242.5688076878441
 30
0.0
 11
122.5346887904075
 21
245.9276273674358
 31
0.0
  0
LINE
  5
179
330
1E
100
AcDbEntity
  8
STEMPEL
100
AcDbLine
 10
122.0291352909424
 20
227.0266273674357
 30
0.0
 11
125.781912040675
 21
233.5266273674358
 31
0.0
  0
LINE
  5
17A
330
1E
100
AcDbEntity
  8
STEMPEL
100
AcDbLine
 10
137.0402422898726
 20
227.0266273674357
 30
0.0
 11
133.2874655401401
 21
233.5266273674357
 31
0.0
  0
CIRCLE
  5
17B
330
1E
100
AcDbEntity
  8
STEMPEL
100
AcDbCircle
 10
129.5346887904075
 20
227.0266273674357
 30
0.0
 40
6.5
  0
LINE
  5
17C
330
1E
100
AcDbEntity
  8
STEMPEL
100
AcDbLine
 10
125.7819120406749
 20
220.5266273674358
 30
0.0
 11
122.0291352909424
 21
227.0266273674357
 31
0.0
  0
LINE
  5
17D
330
1E
100
AcDbEntity
  8
STEMPEL
100
AcDbLine
 10
133.2874655401401
 20
220.5266273674357
 30
0.0
 11
137.0402422898726
 21
227.0266273674357
 31
0.0
  0
LINE
  5
17E
330
1E
100
AcDbEntity
  8
STEMPEL
100
AcDbLine
 10
125.7819120406749
 20
220.5266273674358
 30
0.0
 11
133.2874655401401
 21
220.5266273674357
 31
0.0
  0
ARC
  5
17F
330
1E
100
AcDbEntity
  8
STEMPEL
100
AcDbCircle
 10
127.0346887904076
 20
229.5266273674358
 30
0.0
 40
10.0
100
AcDbArc
 50
329.1192111484402
 51
337.4729600701857
  0
LINE
  5
180
330
1E
100
AcDbEntity
  8
STEMPEL
100
AcDbLine
 10
125.781912040675
 20
233.5266273674358
 30
0.0
 11
133.2874655401401
 21
233.5266273674357
 31
0.0
  0
LINE
  5
181
330
1E
100
AcDbEntity
  8
STEMPEL
100
AcDbLine
 10
64.02913529094241
 20
227.0266273674357
 30
0.0
 11
67.78191204067498
 21
233.5266273674358
 31
0.0
  0
LINE
  5
182
330
1E
100
AcDbEntity
  8
STEMPEL
100
AcDbLine
 10
79.04024228987267
 20
227.0266273674357
 30
0.0
 11
75.28746554014016
 21
233.5266273674357
 31
0.0
  0
CIRCLE
  5
183
330
1E
100
AcDbEntity
  8
STEMPEL
100
AcDbCircle
 10
71.53468879040755
 20
227.0266273674357
 30
0.0
 40
6.5
  0
LINE
  5
184
330
1E
100
AcDbEntity
  8
STEMPEL
100
AcDbLine
 10
67.78191204067493
 20
220.5266273674358
 30
0.0
 11
64.02913529094241
 21
227.0266273674357
 31
0.0
  0
LINE
  5
185
330
1E
100
AcDbEntity
  8
STEMPEL
100
AcDbLine
 10
75.2874655401401
 20
220.5266273674357
 30
0.0
 11
79.04024228987267
 21
227.0266273674357
 31
0.0
  0
LINE
  5
186
330
1E
100
AcDbEntity
  8
STEMPEL
100
AcDbLine
 10
67.78191204067493
 20
220.5266273674358
 30
0.0
 11
75.2874655401401
 21
220.5266273674357
 31
0.0
  0
ARC
  5
187
330
1E
100
AcDbEntity
  8
STEMPEL
100
AcDbCircle
 10
69.03468879040757
 20
229.5266273674358
 30
0.0
 40
10.0
100
AcDbArc
 50
329.1192111484402
 51
337.4729600701857
  0
LINE
  5
188
330
1E
100
AcDbEntity
  8
STEMPEL
100
AcDbLine
 10
67.78191204067498
 20
233.5266273674358
 30
0.0
 11
75.28746554014016
 21
233.5266273674357
 31
0.0
  0
LINE
  5
189
330
1E
100
AcDbEntity
  8
HILF
100
AcDbLine
 10
83.33388616865219
 20
231.4305292373244
 30
0.0
 11
117.7354914121627
 21
231.4305292373239
 31
0.0
  0
LINE
  5
18A
330
1E
100
AcDbEntity
  8
HILF
100
AcDbLine
 10
80.64368098706413
 20
238.0593883027418
 30
0.0
 11
120.4256965937507
 21
238.0593883027413
 31
0.0
  0
LINE
  5
18B
330
1E
100
AcDbEntity
  8
HILF
100
AcDbLine
 10
80.04027552002339
 20
246.3454609940622
 30
0.0
 11
121.0291020607916
 21
246.3454609940616
 31
0.0
  0
LINE
  5
18C
330
1E
100
AcDbEntity
  8
HILF
100
AcDbLine
 10
262.5718217425921
 20
124.0430336341792
 30
0.0
 11
296.9734269861027
 21
124.0430336341788
 31
0.0
  0
LINE
  5
18D
330
1E
100
AcDbEntity
  8
HILF
100
AcDbLine
 10
259.8816165610041
 20
130.6718926995966
 30
0.0
 11
299.6636321676907
 21
130.6718926995961
 31
0.0
  0
LINE
  5
18E
330
1E
100
AcDbEntity
  8
HILF
100
AcDbLine
 10
259.2782110939633
 20
138.957965390917
 30
0.0
 11
300.2670376347315
 21
138.9579653909164
 31
0.0
  0
ARC
  5
18F
330
1E
100
AcDbEntity
  8
STEMPEL
  6
Continuous
100
AcDbCircle
 10
389.7014981609975
 20
122.1524978639037
 30
0.0
 40
7.5
100
AcDbArc
 50
149.9266523550263
 51
180.0
  0
LINE
  5
190
330
1E
100
AcDbEntity
  8
MITTEL
100
AcDbLine
 10
363.7014981609975
 20
96.6391317642906
 30
0.0
 11
363.7014981609975
 21
146.6391317642906
 31
0.0
  0
LINE
  5
191
330
1E
100
AcDbEntity
  8
STEMPEL
  6
Continuous
100
AcDbLine
 10
365.2014981609974
 20
101.6391317642906
 30
0.0
 11
379.7014981609974
 21
101.6391317642906
 31
0.0
  0
LINE
  5
192
330
1E
100
AcDbEntity
  8
STEMPEL
  6
Continuous
100
AcDbLine
 10
382.2014981609974
 20
101.6391317642906
 30
0.0
 11
382.2014981609975
 21
122.1524978639037
 31
0.0
  0
LINE
  5
193
330
1E
100
AcDbEntity
  8
STEMPEL
  6
Continuous
100
AcDbLine
 10
365.2014981609974
 20
141.6391317642906
 30
0.0
 11
385.4247861710468
 21
141.6391317642906
 31
0.0
  0
ARC
  5
194
330
1E
100
AcDbEntity
  8
STEMPEL
  6
Continuous
100
AcDbCircle
 10
368.2014981609975
 20
138.5401317642906
 30
0.0
 40
17.49987002457764
100
AcDbArc
 50
0.0000000000000799
 51
10.20013326896839
  0
ARC
  5
195
330
1E
100
AcDbEntity
  8
STEMPEL
  6
Continuous
100
AcDbCircle
 10
367.2014981609974
 20
135.1813120846991
 30
0.0
 40
18.5
100
AcDbArc
 50
329.9266523550263
 51
359.9999999999998
  0
LINE
  5
196
330
1E
100
AcDbEntity
  8
STEMPEL
  6
Continuous
100
AcDbLine
 10
385.7014981609975
 20
135.181312084699
 30
0.0
 11
385.7014981609975
 21
138.5401317642906
 31
0.0
  0
LINE
  5
197
330
1E
100
AcDbEntity
  8
STEMPEL
100
AcDbLine
 10
365.2014981609974
 20
101.6391317642906
 30
0.0
 11
365.2014981609974
 21
141.6391317642906
 31
0.0
  0
LINE
  5
198
330
1E
100
AcDbEntity
  8
STEMPEL
100
AcDbLine
 10
200.1481803157495
 20
209.0266273674357
 30
0.0
 11
200.1481803157495
 21
249.0266273674357
 31
0.0
  0
LINE
  5
199
330
1E
100
AcDbEntity
  8
STEMPEL
100
AcDbLine
 10
192.1481803157494
 20
209.0266273674357
 30
0.0
 11
192.1481803157495
 21
249.0266273674357
 31
0.0
  0
LINE
  5
19A
330
1E
100
AcDbEntity
  8
STEMPEL
100
AcDbLine
 10
197.6481803157494
 20
209.0266273674357
 30
0.0
 11
197.6481803157495
 21
249.0266273674357
 31
0.0
  0
LINE
  5
19B
330
1E
100
AcDbEntity
  8
STEMPEL
100
AcDbLine
 10
194.6481803157494
 20
209.0266273674357
 30
0.0
 11
194.6481803157495
 21
249.0266273674357
 31
0.0
  0
LINE
  5
19C
330
1E
100
AcDbEntity
  8
MITTEL
100
AcDbLine
 10
196.1481803157495
 20
204.0266273674357
 30
0.0
 11
196.1481803157495
 21
254.0266273674357
 31
0.0
  0
ARC
  5
19D
330
1E
100
AcDbEntity
  8
STEMPEL
  6
Continuous
100
AcDbCircle
 10
170.1481803157495
 20
229.5399934670485
 30
0.0
 40
7.5
100
AcDbArc
 50
0.0
 51
30.07334764497448
  0
ARC
  5
19E
330
1E
100
AcDbEntity
  8
STEMPEL
  6
Continuous
100
AcDbCircle
 10
222.1481803157495
 20
229.5399934670488
 30
0.0
 40
7.5
100
AcDbArc
 50
149.9266523550263
 51
180.0
  0
LINE
  5
19F
330
1E
100
AcDbEntity
  8
STEMPEL
  6
Continuous
100
AcDbLine
 10
177.6481803157495
 20
209.0266273674357
 30
0.0
 11
194.6481803157494
 21
209.0266273674357
 31
0.0
  0
LINE
  5
1A0
330
1E
100
AcDbEntity
  8
MITTEL
100
AcDbLine
 10
175.1481803157495
 20
227.0266273674357
 30
0.0
 11
210.6481803157495
 21
227.0266273674357
 31
0.0
  0
LINE
  5
1A1
330
1E
100
AcDbEntity
  8
HILF
100
AcDbLine
 10
178.9473776939941
 20
231.4305292373243
 30
0.0
 11
187.6481803157495
 21
231.4305292373243
 31
0.0
  0
LINE
  5
1A2
330
1E
100
AcDbEntity
  8
STEMPEL
  6
Continuous
100
AcDbLine
 10
177.6481803157495
 20
209.0266273674357
 30
0.0
 11
177.6481803157495
 21
229.5399934670485
 31
0.0
  0
LINE
  5
1A3
330
1E
100
AcDbEntity
  8
STEMPEL
  6
Continuous
100
AcDbLine
 10
214.6481803157495
 20
209.0266273674357
 30
0.0
 11
214.6481803157495
 21
229.5399934670488
 31
0.0
  0
LINE
  5
1A4
330
1E
100
AcDbEntity
  8
STEMPEL
  6
Continuous
100
AcDbLine
 10
174.4248923057
 20
249.0266273674357
 30
0.0
 11
194.6481803157495
 21
249.0266273674357
 31
0.0
  0
LINE
  5
1A5
330
1E
100
AcDbEntity
  8
HILF
100
AcDbLine
 10
176.2571725124061
 20
238.0593883027418
 30
0.0
 11
192.1481803157495
 21
238.0593883027415
 31
0.0
  0
LINE
  5
1A6
330
1E
100
AcDbEntity
  8
HILF
100
AcDbLine
 10
175.6537670453654
 20
246.3454609940621
 30
0.0
 11
192.1481803157495
 21
246.3454609940619
 31
0.0
  0
ARC
  5
1A7
330
1E
100
AcDbEntity
  8
STEMPEL
  6
Continuous
100
AcDbCircle
 10
191.6481803157495
 20
245.9276273674357
 30
0.0
 40
17.49987002457764
100
AcDbArc
 50
169.7998667310318
 51
179.9999999999999
  0
ARC
  5
1A8
330
1E
100
AcDbEntity
  8
STEMPEL
  6
Continuous
100
AcDbCircle
 10
192.6481803157495
 20
242.5688076878441
 30
0.0
 40
18.5
100
AcDbArc
 50
180.0000000000002
 51
210.0733476449744
  0
LINE
  5
1A9
330
1E
100
AcDbEntity
  8
STEMPEL
  6
Continuous
100
AcDbLine
 10
174.1481803157495
 20
242.5688076878441
 30
0.0
 11
174.1481803157495
 21
245.9276273674357
 31
0.0
  0
ARC
  5
1AA
330
1E
100
AcDbEntity
  8
STEMPEL
  6
Continuous
100
AcDbCircle
 10
200.6481803157495
 20
245.9276273674357
 30
0.0
 40
17.49987002457764
100
AcDbArc
 50
0.0000000000000799
 51
10.20013326896833
  0
ARC
  5
1AB
330
1E
100
AcDbEntity
  8
STEMPEL
  6
Continuous
100
AcDbCircle
 10
199.6481803157495
 20
242.5688076878441
 30
0.0
 40
18.5
100
AcDbArc
 50
329.9266523550263
 51
359.9999999999998
  0
LINE
  5
1AC
330
1E
100
AcDbEntity
  8
STEMPEL
  6
Continuous
100
AcDbLine
 10
218.1481803157495
 20
242.5688076878441
 30
0.0
 11
218.1481803157495
 21
245.9276273674357
 31
0.0
  0
LINE
  5
1AD
330
1E
100
AcDbEntity
  8
STEMPEL
  6
Continuous
100
AcDbLine
 10
197.6481803157495
 20
249.0266273674357
 30
0.0
 11
217.8714683257989
 21
249.0266273674357
 31
0.0
  0
LINE
  5
1AE
330
1E
100
AcDbEntity
  8
STEMPEL
  6
Continuous
100
AcDbLine
 10
197.6481803157494
 20
209.0266273674357
 30
0.0
 11
214.6481803157495
 21
209.0266273674357
 31
0.0
  0
LINE
  5
1AF
330
1E
100
AcDbEntity
  8
HILF
100
AcDbLine
 10
200.1481803157495
 20
246.3454609940618
 30
0.0
 11
216.6425935861336
 21
246.3454609940615
 31
0.0
  0
LINE
  5
1B0
330
1E
100
AcDbEntity
  8
HILF
100
AcDbLine
 10
200.1481803157495
 20
238.0593883027415
 30
0.0
 11
216.0391881190928
 21
238.0593883027413
 31
0.0
  0
LINE
  5
1B1
330
1E
100
AcDbEntity
  8
HILF
100
AcDbLine
 10
205.6481803157495
 20
231.430529237324
 30
0.0
 11
213.3489829375047
 21
231.4305292373239
 31
0.0
  0
LINE
  5
1B2
330
1E
100
AcDbEntity
  8
STEMPEL
100
AcDbLine
 10
181.1481803157495
 20
231.0266273674361
 30
0.0
 11
180.1481803157495
 21
230.0266273674361
 31
0.0
  0
LINE
  5
1B3
330
1E
100
AcDbEntity
  8
STEMPEL
100
AcDbLine
 10
181.1481803157495
 20
231.0266273674361
 30
0.0
 11
181.1481803157495
 21
223.026627367436
 31
0.0
  0
ARC
  5
1B4
330
1E
100
AcDbEntity
  8
STEMPEL
100
AcDbCircle
 10
195.0648469824161
 20
230.2766273674357
 30
0.0
 40
7.416666666666619
100
AcDbArc
 50
154.010766416182
 51
205.9892335838187
  0
ARC
  5
1B5
330
1E
100
AcDbEntity
  8
STEMPEL
100
AcDbCircle
 10
207.5648469824161
 20
230.2766273674357
 30
0.0
 40
7.416666666666619
100
AcDbArc
 50
154.010766416182
 51
205.9892335838187
  0
ARC
  5
1B6
330
1E
100
AcDbEntity
  8
STEMPEL
100
AcDbCircle
 10
198.2315136490829
 20
230.2766273674357
 30
0.0
 40
7.416666666666619
100
AcDbArc
 50
334.0107664161738
 51
25.98923358382548
  0
LINE
  5
1B7
330
1E
100
AcDbEntity
  8
STEMPEL
100
AcDbLine
 10
187.6481803157495
 20
233.5266273674357
 30
0.0
 11
187.6481803157495
 21
220.5266273674357
 31
0.0
  0
LINE
  5
1B8
330
1E
100
AcDbEntity
  8
STEMPEL
100
AcDbLine
 10
205.6481803157495
 20
233.5266273674356
 30
0.0
 11
205.6481803157495
 21
220.5266273674356
 31
0.0
  0
LINE
  5
1B9
330
1E
100
AcDbEntity
  8
HILF
100
AcDbLine
 10
180.1481803157495
 20
224.0266273674361
 30
0.0
 11
187.6481803157495
 21
224.0266273674357
 31
0.0
  0
LINE
  5
1BA
330
1E
100
AcDbEntity
  8
HILF
100
AcDbLine
 10
180.1481803157495
 20
230.0266273674361
 30
0.0
 11
187.6481803157495
 21
230.0266273674358
 31
0.0
  0
LINE
  5
1BB
330
1E
100
AcDbEntity
  8
STEMPEL
100
AcDbLine
 10
181.1481803157495
 20
223.026627367436
 30
0.0
 11
187.6481803157495
 21
223.0266273674357
 31
0.0
  0
LINE
  5
1BC
330
1E
100
AcDbEntity
  8
STEMPEL
100
AcDbLine
 10
180.1481803157495
 20
224.0266273674361
 30
0.0
 11
181.1481803157495
 21
223.026627367436
 31
0.0
  0
LINE
  5
1BD
330
1E
100
AcDbEntity
  8
STEMPEL
100
AcDbLine
 10
180.1481803157495
 20
230.0266273674361
 30
0.0
 11
180.1481803157495
 21
224.0266273674361
 31
0.0
  0
ARC
  5
1BE
330
1E
100
AcDbEntity
  8
STEMPEL
100
AcDbCircle
 10
195.0648469824162
 20
223.7766273674357
 30
0.0
 40
7.416666666666709
100
AcDbArc
 50
154.010766416182
 51
205.9892335838181
  0
ARC
  5
1BF
330
1E
100
AcDbEntity
  8
STEMPEL
100
AcDbCircle
 10
207.5648469824163
 20
223.7766273674357
 30
0.0
 40
7.416666666666709
100
AcDbArc
 50
154.010766416182
 51
205.9892335838181
  0
ARC
  5
1C0
330
1E
100
AcDbEntity
  8
STEMPEL
100
AcDbCircle
 10
198.2315136490828
 20
223.7766273674357
 30
0.0
 40
7.416666666666709
100
AcDbArc
 50
334.0107664161744
 51
25.9892335838254
  0
LINE
  5
1C1
330
1E
100
AcDbEntity
  8
STEMPEL
100
AcDbLine
 10
194.6481803157495
 20
223.0266273674358
 30
0.0
 11
197.6481803157495
 21
223.0266273674357
 31
0.0
  0
LINE
  5
1C2
330
1E
100
AcDbEntity
  8
STEMPEL
100
AcDbLine
 10
187.6481803157495
 20
220.5266273674357
 30
0.0
 11
192.1481803157495
 21
220.5266273674357
 31
0.0
  0
LINE
  5
1C3
330
1E
100
AcDbEntity
  8
STEMPEL
100
AcDbLine
 10
200.1481803157495
 20
220.5266273674357
 30
0.0
 11
205.6481803157495
 21
220.5266273674356
 31
0.0
  0
LINE
  5
1C4
330
1E
100
AcDbEntity
  8
HILF
100
AcDbLine
 10
194.6481803157495
 20
224.0266273674357
 30
0.0
 11
197.6481803157495
 21
224.0266273674357
 31
0.0
  0
LINE
  5
1C5
330
1E
100
AcDbEntity
  8
HILF
100
AcDbLine
 10
194.6481803157495
 20
230.0266273674358
 30
0.0
 11
197.6481803157495
 21
230.0266273674357
 31
0.0
  0
LINE
  5
1C6
330
1E
100
AcDbEntity
  8
STEMPEL
100
AcDbLine
 10
188.3981803157495
 20
227.0266273674357
 30
0.0
 11
192.1481803157495
 21
227.0266273674357
 31
0.0
  0
LINE
  5
1C7
330
1E
100
AcDbEntity
  8
STEMPEL
100
AcDbLine
 10
200.8981803157495
 20
227.0266273674357
 30
0.0
 11
204.8981803157495
 21
227.0266273674356
 31
0.0
  0
LINE
  5
1C8
330
1E
100
AcDbEntity
  8
STEMPEL
100
AcDbLine
 10
181.1481803157495
 20
231.0266273674361
 30
0.0
 11
187.6481803157495
 21
231.0266273674358
 31
0.0
  0
LINE
  5
1C9
330
1E
100
AcDbEntity
  8
STEMPEL
100
AcDbLine
 10
194.6481803157495
 20
231.0266273674358
 30
0.0
 11
197.6481803157495
 21
231.0266273674358
 31
0.0
  0
LINE
  5
1CA
330
1E
100
AcDbEntity
  8
STEMPEL
100
AcDbLine
 10
187.6481803157495
 20
233.5266273674357
 30
0.0
 11
192.1481803157495
 21
233.5266273674357
 31
0.0
  0
LINE
  5
1CB
330
1E
100
AcDbEntity
  8
STEMPEL
100
AcDbLine
 10
200.1481803157496
 20
233.5266273674358
 30
0.0
 11
205.6481803157495
 21
233.5266273674356
 31
0.0
  0
ARC
  5
1CC
330
1E
100
AcDbEntity
  8
STEMPEL
  6
Continuous
100
AcDbCircle
 10
368.2014981609975
 20
138.5401317642906
 30
0.0
 40
14.99987002457764
100
AcDbArc
 50
0.0000000000000799
 51
11.92328241656811
  0
LINE
  5
1CD
330
1E
100
AcDbEntity
  8
STEMPEL
  6
Continuous
100
AcDbLine
 10
383.2014981609975
 20
135.181312084699
 30
0.0
 11
383.2014981609975
 21
138.5401317642906
 31
0.0
  0
LINE
  5
1CE
330
1E
100
AcDbEntity
  8
STEMPEL
  6
Continuous
100
AcDbLine
 10
379.7014981609974
 20
101.6391317642906
 30
0.0
 11
379.7014981609974
 21
106.6391317642905
 31
0.0
  0
ARC
  5
1D0
330
1E
100
AcDbEntity
  8
STEMPEL
  6
Continuous
100
AcDbCircle
 10
389.7014981609975
 20
122.1524978639037
 30
0.0
 40
10.0
100
AcDbArc
 50
149.9266523550263
 51
180.0
  0
ARC
  5
1D1
330
1E
100
AcDbEntity
  8
STEMPEL
  6
Continuous
100
AcDbCircle
 10
367.2014981609974
 20
135.1813120846991
 30
0.0
 40
16.0
100
AcDbArc
 50
329.9266523550263
 51
359.9999999999998
  0
LINE
  5
1D2
330
1E
100
AcDbEntity
  8
0
  6
ByBlock
 62
     0
100
AcDbLine
 10
379.7014981609974
 20
100.6391317642906
 30
0.0
 11
379.7014981609974
 21
86.66664405017899
 31
0.0
  0
LINE
  5
1D3
330
1E
100
AcDbEntity
  8
0
  6
ByBlock
 62
     0
100
AcDbLine
 10
353.0029556424519
 20
87.66664405017898
 30
0.0
 11
376.2014981609974
 21
87.66664405017898
 31
0.0
  0
SOLID
  5
1D4
330
1E
100
AcDbEntity
  8
0
  6
ByBlock
 62
     0
100
AcDbTrace
 10
376.2014981609974
 20
88.24997738351232
 30
0.0
 11
376.2014981609974
 21
87.08331071684566
 31
0.0
 12
379.7014981609974
 22
87.66664405017898
 32
0.0
 13
379.7014981609974
 23
87.66664405017898
 33
0.0
  0
TEXT
  5
1D5
330
1E
100
AcDbEntity
  8
0
  6
ByBlock
 62
     1
100
AcDbText
 10
360.1681648276641
 20
89.41664405017899
 30
0.0
 40
3.5
  1
%%C
 41
0.8
  7
GREEKS
 72
     1
 11
361.0348314943308
 21
91.16664405017898
 31
0.0
100
AcDbText
 73
     2
  0
TEXT
  5
1D6
330
1E
100
AcDbEntity
  8
0
  6
ByBlock
 62
     1
100
AcDbText
 10
362.7014981609975
 20
89.41664405017899
 30
0.0
 40
3.5
  1
33
 41
0.8
  7
GREEKS
 72
     1
 11
364.9681648276641
 21
91.16664405017898
 31
0.0
100
AcDbText
 73
     2
  0
POINT
  5
1D7
330
1E
100
AcDbEntity
  8
DEFPOINTS
  6
ByBlock
 62
     0
100
AcDbPoint
 10
380.7014981609974
 20
102.6391317642906
 30
0.0
  0
POINT
  5
1D8
330
1E
100
AcDbEntity
  8
DEFPOINTS
  6
ByBlock
 62
     0
100
AcDbPoint
 10
380.7014981609974
 20
88.66664405017898
 30
0.0
  0
DIMENSION
  5
1E1
330
1E
100
AcDbEntity
  8
BEM
100
AcDbDimension
  2
*D2
 10
308.7726243643475
 20
87.99808847648952
 30
0.0
 11
279.7726243643475
 21
91.24808847648953
 31
0.0
 70
    32
 71
     5
 42
57.99999999999997
  3
Standard
100
AcDbAlignedDimension
 13
250.7726243643475
 23
111.6391317642906
 33
0.0
 14
308.7726243643475
 24
111.6391317642906
 34
0.0
100
AcDbRotatedDimension
1001
ACAD
1000
DSTYLE
1002
{
1070
    41
1040
3.5
1070
    42
1040
1.0
1070
    43
1040
7.0
1070
    44
1040
1.0
1070
    73
1070
     0
1070
    74
1070
     0
1070
    77
1070
     1
1070
    78
1070
     8
1070
    79
1070
     2
1070
   140
1040
3.5
1070
   141
1040
1.5
1070
   145
1040
0.5714285714285714
1070
   146
1040
0.5142857142857144
1070
   147
1040
1.5
1070
   172
1070
     1
1070
   178
1070
     1
1070
   179
1070
     2
1070
   271
1070
     1
1070
   272
1070
     1
1070
   284
1070
     8
1070
   285
1070
     8
1070
   286
1070
     8
1070
   340
1005
2B
1002
}
  0
DIMENSION
  5
1E2
330
1E
100
AcDbEntity
  8
BEM
100
AcDbDimension
  2
*D1
 10
317.2726243643475
 20
79.04913021447791
 30
0.0
 11
279.7726243643475
 21
82.2991302144779
 31
0.0
 70
    32
 71
     5
 42
75.00000000000006
  3
Standard
100
AcDbAlignedDimension
 13
242.2726243643475
 23
121.6391317642906
 33
0.0
 14
317.2726243643475
 24
121.6391317642906
 34
0.0
100
AcDbRotatedDimension
1001
ACAD
1000
DSTYLE
1002
{
1070
    41
1040
3.5
1070
    42
1040
1.0
1070
    43
1040
7.0
1070
    44
1040
1.0
1070
    73
1070
     0
1070
    74
1070
     0
1070
    77
1070
     1
1070
    78
1070
     8
1070
    79
1070
     2
1070
   140
1040
3.5
1070
   141
1040
1.5
1070
   145
1040
0.5714285714285714
1070
   146
1040
0.5142857142857144
1070
   147
1040
1.5
1070
   172
1070
     1
1070
   178
1070
     1
1070
   179
1070
     2
1070
   271
1070
     1
1070
   272
1070
     1
1070
   284
1070
     8
1070
   285
1070
     8
1070
   286
1070
     8
1070
   340
1005
2B
1002
}
  0
DIMENSION
  5
1E3
330
1E
100
AcDbEntity
  8
BEM
100
AcDbDimension
  2
*D3
 10
233.390631868265
 20
124.6391317642906
 30
0.0
 11
230.140631868265
 21
119.6391317642906
 31
0.0
 70
    32
 71
     5
 42
10.0
  3
Standard
100
AcDbAlignedDimension
 13
250.7726243643475
 23
114.6391317642906
 33
0.0
 14
250.7726243643475
 24
124.6391317642906
 34
0.0
 50
90.0
100
AcDbRotatedDimension
1001
ACAD
1000
DSTYLE
1002
{
1070
    41
1040
3.5
1070
    42
1040
1.0
1070
    43
1040
7.0
1070
    44
1040
1.0
1070
    73
1070
     0
1070
    74
1070
     0
1070
    77
1070
     1
1070
    78
1070
     8
1070
    79
1070
     2
1070
   140
1040
3.5
1070
   141
1040
1.5
1070
   145
1040
0.5714285714285714
1070
   146
1040
0.5142857142857144
1070
   147
1040
1.5
1070
   172
1070
     1
1070
   178
1070
     1
1070
   179
1070
     2
1070
   271
1070
     1
1070
   272
1070
     1
1070
   284
1070
     8
1070
   285
1070
     8
1070
   286
1070
     8
1070
   340
1005
2B
1002
}
  0
DIMENSION
  5
1E4
330
1E
100
AcDbEntity
  8
BEM
100
AcDbDimension
  2
*D5
 10
329.6060833988735
 20
119.6391317642905
 30
0.0
 11
326.3560833988735
 21
110.6391317642906
 31
0.0
 70
    32
 71
     5
 42
17.99999999999998
  3
Standard
100
AcDbAlignedDimension
 13
305.3116811080161
 23
101.6391317642906
 33
0.0
 14
322.0705833354805
 24
119.6391317642905
 34
0.0
 50
90.0
100
AcDbRotatedDimension
1001
ACAD
1000
DSTYLE
1002
{
1070
    41
1040
3.5
1070
    42
1040
1.0
1070
    43
1040
7.0
1070
    44
1040
1.0
1070
    73
1070
     0
1070
    74
1070
     0
1070
    77
1070
     1
1070
    78
1070
     8
1070
    79
1070
     2
1070
   140
1040
3.5
1070
   141
1040
1.5
1070
   145
1040
0.5714285714285714
1070
   146
1040
0.5142857142857144
1070
   147
1040
1.5
1070
   172
1070
     1
1070
   178
1070
     1
1070
   179
1070
     2
1070
   271
1070
     1
1070
   272
1070
     1
1070
   284
1070
     8
1070
   285
1070
     8
1070
   286
1070
     8
1070
   340
1005
2B
1002
}
  0
ARC
  5
1E5
330
1E
100
AcDbEntity
  8
STEMPEL
100
AcDbCircle
 10
257.9249825051759
 20
131.6391317642905
 30
0.0
 40
10.0
100
AcDbArc
 50
90.00000000000005
 51
153.2026359368771
  0
ARC
  5
1E6
330
1E
100
AcDbEntity
  8
STEMPEL
100
AcDbCircle
 10
301.6202662235191
 20
131.6391317642906
 30
0.0
 40
10.0
100
AcDbArc
 50
26.79736406312275
 51
90.0000000000001
  0
ARC
  5
1E7
330
1E
100
AcDbEntity
  8
STEMPEL
100
AcDbCircle
 10
301.6202662235191
 20
111.6391317642906
 30
0.0
 40
10.0
100
AcDbArc
 50
270.0
 51
333.2026359368772
  0
ARC
  5
1E8
330
1E
100
AcDbEntity
  8
STEMPEL
100
AcDbCircle
 10
257.9249825051758
 20
111.6391317642906
 30
0.0
 40
10.0
100
AcDbArc
 50
206.7973640631227
 51
270.0
  0
DIMENSION
  5
1E9
330
1E
100
AcDbEntity
  8
BEM
100
AcDbDimension
  2
*D4
 10
338.8887163846967
 20
141.6391317642906
 30
0.0
 11
335.6387163846967
 21
121.6391317642906
 31
0.0
 70
    32
 71
     5
 42
40.0
  3
Standard
100
AcDbAlignedDimension
 13
301.6202662235191
 23
101.6391317642906
 33
0.0
 14
301.6202662235191
 24
141.6391317642906
 34
0.0
 50
90.0
100
AcDbRotatedDimension
1001
ACAD
1000
DSTYLE
1002
{
1070
    41
1040
3.5
1070
    42
1040
1.0
1070
    43
1040
7.0
1070
    44
1040
1.0
1070
    73
1070
     0
1070
    74
1070
     0
1070
    77
1070
     1
1070
    78
1070
     8
1070
    79
1070
     2
1070
   140
1040
3.5
1070
   141
1040
1.5
1070
   145
1040
0.5714285714285714
1070
   146
1040
0.5142857142857144
1070
   147
1040
1.5
1070
   172
1070
     1
1070
   178
1070
     1
1070
   179
1070
     2
1070
   271
1070
     1
1070
   272
1070
     1
1070
   284
1070
     8
1070
   285
1070
     8
1070
   286
1070
     8
1070
   340
1005
2B
1002
}
  0
LINE
  5
1EF
330
1E
100
AcDbEntity
  8
MITTEL
100
AcDbLine
 10
58.03468879040754
 20
124.125362108074
 30
0.0
 11
143.0346887904076
 21
124.125362108074
 31
0.0
  0
LINE
  5
1F0
330
1E
100
AcDbEntity
  8
STEMPEL
100
AcDbLine
 10
63.03468879040754
 20
125.625362108074
 30
0.0
 11
80.20613744015138
 21
125.625362108074
 31
0.0
  0
LINE
  5
1F1
330
1E
100
AcDbEntity
  8
STEMPEL
100
AcDbLine
 10
63.03468879040754
 20
122.625362108074
 30
0.0
 11
80.2061374401514
 21
122.625362108074
 31
0.0
  0
LINE
  5
1F2
330
1E
100
AcDbEntity
  8
STEMPEL
100
AcDbLine
 10
63.03468879040754
 20
128.125362108074
 30
0.0
 11
76.53468879040751
 21
128.125362108074
 31
0.0
  0
LINE
  5
1F3
330
1E
100
AcDbEntity
  8
STEMPEL
100
AcDbLine
 10
63.03468879040754
 20
120.125362108074
 30
0.0
 11
76.53468879040753
 21
120.125362108074
 31
0.0
  0
LINE
  5
1F4
330
1E
100
AcDbEntity
  8
STEMPEL
100
AcDbLine
 10
63.03468879040754
 20
128.125362108074
 30
0.0
 11
63.03468879040754
 21
125.625362108074
 31
0.0
  0
LINE
  5
1F5
330
1E
100
AcDbEntity
  8
STEMPEL
100
AcDbLine
 10
138.0346887904076
 20
128.125362108074
 30
0.0
 11
138.0346887904076
 21
125.625362108074
 31
0.0
  0
LINE
  5
1F6
330
1E
100
AcDbEntity
  8
STEMPEL
100
AcDbLine
 10
138.0346887904076
 20
122.625362108074
 30
0.0
 11
138.0346887904076
 21
120.125362108074
 31
0.0
  0
LINE
  5
1F7
330
1E
100
AcDbEntity
  8
STEMPEL
100
AcDbLine
 10
63.03468879040754
 20
122.625362108074
 30
0.0
 11
63.03468879040754
 21
120.125362108074
 31
0.0
  0
LINE
  5
1F8
330
1E
100
AcDbEntity
  8
MITTEL
100
AcDbLine
 10
129.5346887904075
 20
145.125362108074
 30
0.0
 11
129.5346887904075
 21
109.625362108074
 31
0.0
  0
LINE
  5
1F9
330
1E
100
AcDbEntity
  8
MITTEL
100
AcDbLine
 10
71.53468879040757
 20
145.125362108074
 30
0.0
 11
71.53468879040757
 21
109.625362108074
 31
0.0
  0
ARC
  5
1FA
330
1E
100
AcDbEntity
  8
STEMPEL
100
AcDbCircle
 10
100.5346887904075
 20
124.125362108074
 30
0.0
 40
22.0
100
AcDbArc
 50
196.260204708312
 51
343.7397952916881
  0
ARC
  5
1FB
330
1E
100
AcDbEntity
  8
STEMPEL
100
AcDbCircle
 10
100.5346887904075
 20
124.125362108074
 30
0.0
 40
16.0
100
AcDbArc
 50
199.0008023629138
 51
340.9991976370863
  0
LINE
  5
1FC
330
1E
100
AcDbEntity
  8
STEMPEL
100
AcDbLine
 10
120.8632401406637
 20
125.625362108074
 30
0.0
 11
138.0346887904076
 21
125.625362108074
 31
0.0
  0
LINE
  5
1FD
330
1E
100
AcDbEntity
  8
STEMPEL
100
AcDbLine
 10
120.8632401406637
 20
122.625362108074
 30
0.0
 11
138.0346887904076
 21
122.625362108074
 31
0.0
  0
LINE
  5
1FE
330
1E
100
AcDbEntity
  8
STEMPEL
100
AcDbLine
 10
124.5346887904075
 20
120.125362108074
 30
0.0
 11
138.0346887904076
 21
120.125362108074
 31
0.0
  0
LINE
  5
1FF
330
1E
100
AcDbEntity
  8
STEMPEL
100
AcDbLine
 10
124.5346887904075
 20
128.125362108074
 30
0.0
 11
138.0346887904076
 21
128.125362108074
 31
0.0
  0
ARC
  5
200
330
1E
100
AcDbEntity
  8
STEMPEL
100
AcDbCircle
 10
100.5346887904075
 20
124.125362108074
 30
0.0
 40
16.0
100
AcDbArc
 50
19.00080236291379
 51
160.9991976370863
  0
ARC
  5
201
330
1E
100
AcDbEntity
  8
STEMPEL
100
AcDbCircle
 10
100.5346887904075
 20
124.125362108074
 30
0.0
 40
22.0
100
AcDbArc
 50
16.26020470831194
 51
163.739795291688
  0
ARC
  5
202
330
1E
100
AcDbEntity
  8
STEMPEL
100
AcDbCircle
 10
76.53468879040751
 20
131.125362108074
 30
0.0
 40
3.0
100
AcDbArc
 50
270.0
 51
343.7397952916882
  0
ARC
  5
203
330
1E
100
AcDbEntity
  8
STEMPEL
100
AcDbCircle
 10
124.5346887904075
 20
131.125362108074
 30
0.0
 40
3.0
100
AcDbArc
 50
196.2602047083119
 51
270.0
  0
ARC
  5
204
330
1E
100
AcDbEntity
  8
STEMPEL
100
AcDbCircle
 10
124.5346887904075
 20
117.125362108074
 30
0.0
 40
3.0
100
AcDbArc
 50
90.0
 51
163.7397952916878
  0
ARC
  5
205
330
1E
100
AcDbEntity
  8
STEMPEL
100
AcDbCircle
 10
76.53468879040753
 20
117.125362108074
 30
0.0
 40
3.0
100
AcDbArc
 50
16.26020470831189
 51
90.0
  0
ARC
  5
206
330
1E
100
AcDbEntity
  8
STEMPEL
100
AcDbCircle
 10
80.20613744015138
 20
131.125362108074
 30
0.0
 40
5.5
100
AcDbArc
 50
270.0
 51
340.9991976370861
  0
ARC
  5
207
330
1E
100
AcDbEntity
  8
STEMPEL
100
AcDbCircle
 10
80.2061374401514
 20
117.125362108074
 30
0.0
 40
5.5
100
AcDbArc
 50
19.00080236291374
 51
90.0
  0
ARC
  5
208
330
1E
100
AcDbEntity
  8
STEMPEL
100
AcDbCircle
 10
120.8632401406637
 20
131.125362108074
 30
0.0
 40
5.5
100
AcDbArc
 50
199.0008023629139
 51
270.0
  0
ARC
  5
209
330
1E
100
AcDbEntity
  8
STEMPEL
100
AcDbCircle
 10
120.8632401406637
 20
117.125362108074
 30
0.0
 40
5.5
100
AcDbArc
 50
90.0
 51
160.999197637086
  0
ARC
  5
20A
330
1E
100
AcDbEntity
  8
STEMPEL
100
AcDbCircle
 10
135.1638539150064
 20
117.3475843302962
 30
0.0
 40
2.722222222222158
100
AcDbArc
 50
226.4264214034758
 51
313.5735785965242
  0
LINE
  5
20B
330
1E
100
AcDbEntity
  8
STEMPEL
100
AcDbLine
 10
133.2874655401401
 20
120.125362108074
 30
0.0
 11
133.2874655401401
 21
115.375362108074
 31
0.0
  0
LINE
  5
20C
330
1E
100
AcDbEntity
  8
STEMPEL
100
AcDbLine
 10
135.1638539150064
 20
114.625362108074
 30
0.0
 11
123.9055236658087
 21
114.625362108074
 31
0.0
  0
ARC
  5
20D
330
1E
100
AcDbEntity
  8
STEMPEL
100
AcDbCircle
 10
129.5346887904076
 20
124.3892509969631
 30
0.0
 40
9.763888888889027
100
AcDbArc
 50
247.3964409848448
 51
292.603559015155
  0
LINE
  5
20E
330
1E
100
AcDbEntity
  8
STEMPEL
100
AcDbLine
 10
137.0402422898726
 20
120.125362108074
 30
0.0
 11
137.0402422898726
 21
115.375362108074
 31
0.0
  0
LINE
  5
20F
330
1E
100
AcDbEntity
  8
STEMPEL
100
AcDbLine
 10
125.7819120406749
 20
120.125362108074
 30
0.0
 11
125.7819120406749
 21
115.375362108074
 31
0.0
  0
LINE
  5
210
330
1E
100
AcDbEntity
  8
STEMPEL
100
AcDbLine
 10
122.0291352909424
 20
118.7752716999364
 30
0.0
 11
122.0291352909424
 21
115.375362108074
 31
0.0
  0
ARC
  5
211
330
1E
100
AcDbEntity
  8
STEMPEL
100
AcDbCircle
 10
123.9055236658087
 20
117.3475843302963
 30
0.0
 40
2.722222222222255
100
AcDbArc
 50
226.4264214034767
 51
313.5735785965232
  0
LINE
  5
212
330
1E
100
AcDbEntity
  8
STEMPEL
100
AcDbLine
 10
75.28746554014012
 20
120.125362108074
 30
0.0
 11
75.28746554014012
 21
115.375362108074
 31
0.0
  0
LINE
  5
213
330
1E
100
AcDbEntity
  8
STEMPEL
100
AcDbLine
 10
79.04024228987271
 20
118.7752716999361
 30
0.0
 11
79.04024228987271
 21
115.375362108074
 31
0.0
  0
LINE
  5
214
330
1E
100
AcDbEntity
  8
STEMPEL
100
AcDbLine
 10
65.90552366580869
 20
114.625362108074
 30
0.0
 11
77.1638539150064
 21
114.625362108074
 31
0.0
  0
ARC
  5
215
330
1E
100
AcDbEntity
  8
STEMPEL
100
AcDbCircle
 10
71.5346887904075
 20
124.389250996963
 30
0.0
 40
9.763888888889027
100
AcDbArc
 50
247.396440984845
 51
292.6035590151552
  0
ARC
  5
216
330
1E
100
AcDbEntity
  8
STEMPEL
100
AcDbCircle
 10
77.1638539150064
 20
117.3475843302963
 30
0.0
 40
2.722222222222255
100
AcDbArc
 50
226.4264214034767
 51
313.5735785965234
  0
LINE
  5
217
330
1E
100
AcDbEntity
  8
STEMPEL
100
AcDbLine
 10
64.02913529094243
 20
120.125362108074
 30
0.0
 11
64.02913529094243
 21
115.375362108074
 31
0.0
  0
LINE
  5
218
330
1E
100
AcDbEntity
  8
STEMPEL
100
AcDbLine
 10
67.78191204067496
 20
120.125362108074
 30
0.0
 11
67.78191204067495
 21
115.375362108074
 31
0.0
  0
ARC
  5
219
330
1E
100
AcDbEntity
  8
STEMPEL
100
AcDbCircle
 10
65.90552366580869
 20
117.3475843302961
 30
0.0
 40
2.722222222222158
100
AcDbArc
 50
226.4264214034758
 51
313.5735785965242
  0
ARC
  5
21A
330
1E
100
AcDbEntity
  8
STEMPEL
100
AcDbCircle
 10
100.5346887904075
 20
124.125362108074
 30
0.0
 40
19.5
100
AcDbArc
 50
16.26020470831198
 51
163.7397952916881
  0
ARC
  5
21B
330
1E
100
AcDbEntity
  8
STEMPEL
100
AcDbCircle
 10
100.5346887904075
 20
124.125362108074
 30
0.0
 40
19.5
100
AcDbArc
 50
196.260204708312
 51
343.739795291688
  0
ARC
  5
21C
330
1E
100
AcDbEntity
  8
STEMPEL
100
AcDbCircle
 10
124.5346887904075
 20
117.125362108074
 30
0.0
 40
5.5
100
AcDbArc
 50
90.0
 51
163.739795291688
  0
ARC
  5
21D
330
1E
100
AcDbEntity
  8
STEMPEL
100
AcDbCircle
 10
124.5346887904075
 20
131.125362108074
 30
0.0
 40
5.5
100
AcDbArc
 50
196.2602047083118
 51
270.0
  0
ARC
  5
21E
330
1E
100
AcDbEntity
  8
STEMPEL
100
AcDbCircle
 10
76.5346887904075
 20
131.125362108074
 30
0.0
 40
5.5
100
AcDbArc
 50
270.0
 51
343.7397952916882
  0
ARC
  5
21F
330
1E
100
AcDbEntity
  8
STEMPEL
100
AcDbCircle
 10
76.53468879040753
 20
117.125362108074
 30
0.0
 40
5.5
100
AcDbArc
 50
16.26020470831197
 51
90.0
  0
ARC
  5
220
330
1E
100
AcDbEntity
  8
STEMPEL
100
AcDbCircle
 10
135.1638539150064
 20
130.8475843302962
 30
0.0
 40
2.722222222222178
100
AcDbArc
 50
226.426421403476
 51
313.5735785965242
  0
LINE
  5
221
330
1E
100
AcDbEntity
  8
STEMPEL
100
AcDbLine
 10
137.0402422898727
 20
131.875362108074
 30
0.0
 11
137.0402422898726
 21
128.875362108074
 31
0.0
  0
LINE
  5
222
330
1E
100
AcDbEntity
  8
STEMPEL
100
AcDbLine
 10
133.2874655401401
 20
131.875362108074
 30
0.0
 11
133.2874655401401
 21
128.875362108074
 31
0.0
  0
ARC
  5
223
330
1E
100
AcDbEntity
  8
STEMPEL
100
AcDbCircle
 10
135.1638539150064
 20
129.9031398858519
 30
0.0
 40
2.722222222222178
100
AcDbArc
 50
46.42642140347578
 51
133.573578596524
  0
LINE
  5
224
330
1E
100
AcDbEntity
  8
STEMPEL
100
AcDbLine
 10
135.1638539150064
 20
132.625362108074
 30
0.0
 11
123.9055236658087
 21
132.625362108074
 31
0.0
  0
ARC
  5
225
330
1E
100
AcDbEntity
  8
STEMPEL
100
AcDbCircle
 10
129.5346887904075
 20
122.8614732191851
 30
0.0
 40
9.763888888888899
100
AcDbArc
 50
67.39644098484466
 51
112.6035590151553
  0
ARC
  5
226
330
1E
100
AcDbEntity
  8
STEMPEL
100
AcDbCircle
 10
129.5346887904075
 20
137.8892509969629
 30
0.0
 40
9.763888888888899
100
AcDbArc
 50
247.3964409848447
 51
292.6035590151553
  0
ARC
  5
227
330
1E
100
AcDbEntity
  8
STEMPEL
100
AcDbCircle
 10
123.9055236658087
 20
130.8475843302963
 30
0.0
 40
2.722222222222255
100
AcDbArc
 50
279.9655310322769
 51
313.5735785965234
  0
LINE
  5
228
330
1E
100
AcDbEntity
  8
STEMPEL
100
AcDbLine
 10
125.7819120406749
 20
131.875362108074
 30
0.0
 11
125.7819120406749
 21
128.875362108074
 31
0.0
  0
ARC
  5
229
330
1E
100
AcDbEntity
  8
STEMPEL
100
AcDbCircle
 10
123.9055236658087
 20
129.9031398858518
 30
0.0
 40
2.722222222222255
100
AcDbArc
 50
46.42642140347665
 51
133.5735785965235
  0
LINE
  5
22A
330
1E
100
AcDbEntity
  8
STEMPEL
100
AcDbLine
 10
122.0291352909423
 20
131.875362108074
 30
0.0
 11
122.0291352909423
 21
129.4754525162132
 31
0.0
  0
ARC
  5
22B
330
1E
100
AcDbEntity
  8
STEMPEL
100
AcDbCircle
 10
77.16385391500643
 20
130.8475843302963
 30
0.0
 40
2.722222222222255
100
AcDbArc
 50
226.4264214034767
 51
260.0344689677231
  0
ARC
  5
22C
330
1E
100
AcDbEntity
  8
STEMPEL
100
AcDbCircle
 10
71.53468879040757
 20
137.8892509969629
 30
0.0
 40
9.763888888888899
100
AcDbArc
 50
247.3964409848447
 51
292.6035590151553
  0
LINE
  5
22D
330
1E
100
AcDbEntity
  8
STEMPEL
100
AcDbLine
 10
75.28746554014015
 20
131.875362108074
 30
0.0
 11
75.28746554014015
 21
128.875362108074
 31
0.0
  0
ARC
  5
22E
330
1E
100
AcDbEntity
  8
STEMPEL
100
AcDbCircle
 10
71.53468879040757
 20
122.8614732191851
 30
0.0
 40
9.763888888888899
100
AcDbArc
 50
67.39644098484467
 51
112.6035590151553
  0
ARC
  5
22F
330
1E
100
AcDbEntity
  8
STEMPEL
100
AcDbCircle
 10
77.16385391500643
 20
129.9031398858518
 30
0.0
 40
2.722222222222255
100
AcDbArc
 50
46.4264214034765
 51
133.5735785965233
  0
LINE
  5
230
330
1E
100
AcDbEntity
  8
STEMPEL
100
AcDbLine
 10
65.90552366580872
 20
132.625362108074
 30
0.0
 11
77.16385391500643
 21
132.625362108074
 31
0.0
  0
LINE
  5
231
330
1E
100
AcDbEntity
  8
STEMPEL
100
AcDbLine
 10
79.04024228987274
 20
131.875362108074
 30
0.0
 11
79.04024228987274
 21
129.4754525162123
 31
0.0
  0
LINE
  5
232
330
1E
100
AcDbEntity
  8
STEMPEL
100
AcDbLine
 10
67.78191204067498
 20
131.875362108074
 30
0.0
 11
67.781912040675
 21
128.875362108074
 31
0.0
  0
ARC
  5
233
330
1E
100
AcDbEntity
  8
STEMPEL
100
AcDbCircle
 10
65.90552366580872
 20
130.8475843302962
 30
0.0
 40
2.722222222222178
100
AcDbArc
 50
226.4264214034758
 51
313.573578596524
  0
ARC
  5
234
330
1E
100
AcDbEntity
  8
STEMPEL
100
AcDbCircle
 10
65.90552366580872
 20
129.9031398858519
 30
0.0
 40
2.722222222222178
100
AcDbArc
 50
46.42642140347602
 51
133.5735785965242
  0
LINE
  5
235
330
1E
100
AcDbEntity
  8
STEMPEL
100
AcDbLine
 10
64.02913529094245
 20
131.875362108074
 30
0.0
 11
64.02913529094246
 21
128.875362108074
 31
0.0
  0
LINE
  5
236
330
1E
100
AcDbEntity
  8
STEMPEL
100
AcDbLine
 10
126.5346887904075
 20
140.125362108074
 30
0.0
 11
132.5346887904075
 21
140.125362108074
 31
0.0
  0
LINE
  5
237
330
1E
100
AcDbEntity
  8
STEMPEL
100
AcDbLine
 10
125.5346887904075
 20
139.125362108074
 30
0.0
 11
133.5346887904075
 21
139.125362108074
 31
0.0
  0
LINE
  5
238
330
1E
100
AcDbEntity
  8
STEMPEL
100
AcDbLine
 10
126.5346887904075
 20
140.125362108074
 30
0.0
 11
125.5346887904075
 21
139.125362108074
 31
0.0
  0
LINE
  5
239
330
1E
100
AcDbEntity
  8
STEMPEL
100
AcDbLine
 10
133.5346887904075
 20
139.125362108074
 30
0.0
 11
132.5346887904075
 21
140.125362108074
 31
0.0
  0
LINE
  5
23A
330
1E
100
AcDbEntity
  8
STEMPEL
100
AcDbLine
 10
133.5346887904075
 20
139.125362108074
 30
0.0
 11
133.5346887904075
 21
132.625362108074
 31
0.0
  0
LINE
  5
23B
330
1E
100
AcDbEntity
  8
HILF
100
AcDbLine
 10
132.5346887904075
 20
140.125362108074
 30
0.0
 11
132.5346887904075
 21
132.625362108074
 31
0.0
  0
LINE
  5
23C
330
1E
100
AcDbEntity
  8
STEMPEL
100
AcDbLine
 10
125.5346887904075
 20
139.125362108074
 30
0.0
 11
125.5346887904075
 21
132.625362108074
 31
0.0
  0
LINE
  5
23D
330
1E
100
AcDbEntity
  8
HILF
100
AcDbLine
 10
126.5346887904075
 20
140.125362108074
 30
0.0
 11
126.5346887904075
 21
132.625362108074
 31
0.0
  0
LINE
  5
23E
330
1E
100
AcDbEntity
  8
HILF
100
AcDbLine
 10
68.53468879040757
 20
140.125362108074
 30
0.0
 11
68.53468879040757
 21
132.625362108074
 31
0.0
  0
LINE
  5
23F
330
1E
100
AcDbEntity
  8
STEMPEL
100
AcDbLine
 10
67.53468879040757
 20
139.125362108074
 30
0.0
 11
67.53468879040759
 21
132.625362108074
 31
0.0
  0
LINE
  5
240
330
1E
100
AcDbEntity
  8
HILF
100
AcDbLine
 10
74.5346887904076
 20
140.125362108074
 30
0.0
 11
74.5346887904076
 21
132.625362108074
 31
0.0
  0
LINE
  5
241
330
1E
100
AcDbEntity
  8
STEMPEL
100
AcDbLine
 10
75.5346887904076
 20
139.125362108074
 30
0.0
 11
75.5346887904076
 21
132.625362108074
 31
0.0
  0
LINE
  5
242
330
1E
100
AcDbEntity
  8
STEMPEL
100
AcDbLine
 10
75.5346887904076
 20
139.125362108074
 30
0.0
 11
74.5346887904076
 21
140.125362108074
 31
0.0
  0
LINE
  5
243
330
1E
100
AcDbEntity
  8
STEMPEL
100
AcDbLine
 10
68.53468879040757
 20
140.125362108074
 30
0.0
 11
67.53468879040757
 21
139.125362108074
 31
0.0
  0
LINE
  5
244
330
1E
100
AcDbEntity
  8
STEMPEL
100
AcDbLine
 10
67.53468879040757
 20
139.125362108074
 30
0.0
 11
75.5346887904076
 21
139.125362108074
 31
0.0
  0
LINE
  5
245
330
1E
100
AcDbEntity
  8
STEMPEL
100
AcDbLine
 10
68.53468879040757
 20
140.125362108074
 30
0.0
 11
74.5346887904076
 21
140.125362108074
 31
0.0
  0
LINE
  5
246
330
1E
100
AcDbEntity
  8
STEMPEL
100
AcDbLine
 10
133.5346887904075
 20
125.625362108074
 30
0.0
 11
133.5346887904075
 21
122.625362108074
 31
0.0
  0
LINE
  5
247
330
1E
100
AcDbEntity
  8
HILF
100
AcDbLine
 10
132.5346887904075
 20
125.625362108074
 30
0.0
 11
132.5346887904075
 21
122.625362108074
 31
0.0
  0
LINE
  5
248
330
1E
100
AcDbEntity
  8
HILF
100
AcDbLine
 10
126.5346887904075
 20
125.625362108074
 30
0.0
 11
126.5346887904075
 21
122.625362108074
 31
0.0
  0
LINE
  5
249
330
1E
100
AcDbEntity
  8
STEMPEL
100
AcDbLine
 10
125.5346887904075
 20
125.625362108074
 30
0.0
 11
125.5346887904075
 21
122.625362108074
 31
0.0
  0
LINE
  5
24A
330
1E
100
AcDbEntity
  8
HILF
100
AcDbLine
 10
68.53468879040758
 20
125.625362108074
 30
0.0
 11
68.53468879040757
 21
122.625362108074
 31
0.0
  0
LINE
  5
24B
330
1E
100
AcDbEntity
  8
STEMPEL
100
AcDbLine
 10
67.53468879040757
 20
125.625362108074
 30
0.0
 11
67.53468879040757
 21
122.625362108074
 31
0.0
  0
LINE
  5
24C
330
1E
100
AcDbEntity
  8
HILF
100
AcDbLine
 10
74.53468879040759
 20
125.625362108074
 30
0.0
 11
74.5346887904076
 21
122.625362108074
 31
0.0
  0
LINE
  5
24D
330
1E
100
AcDbEntity
  8
STEMPEL
100
AcDbLine
 10
75.5346887904076
 20
125.625362108074
 30
0.0
 11
75.5346887904076
 21
122.625362108074
 31
0.0
  0
LINE
  5
24E
330
1E
100
AcDbEntity
  8
STEMPEL
  6
Continuous
100
AcDbLine
 10
365.2014981609974
 20
106.6391317642906
 30
0.0
 11
379.7014981609974
 21
106.6391317642906
 31
0.0
  0
LINE
  5
24F
330
1E
100
AcDbEntity
  8
STEMPEL
  6
Continuous
100
AcDbLine
 10
365.2014981609974
 20
107.6391317642906
 30
0.0
 11
379.7014981609974
 21
107.6391317642906
 31
0.0
  0
LINE
  5
250
330
1E
100
AcDbEntity
  8
STEMPEL
  6
Continuous
100
AcDbLine
 10
365.2014981609974
 20
113.6391317642906
 30
0.0
 11
379.7014981609974
 21
113.6391317642906
 31
0.0
  0
LINE
  5
251
330
1E
100
AcDbEntity
  8
STEMPEL
  6
Continuous
100
AcDbLine
 10
365.2014981609974
 20
112.6391317642906
 30
0.0
 11
379.7014981609974
 21
112.6391317642905
 31
0.0
  0
LINE
  5
252
330
1E
100
AcDbEntity
  8
STEMPEL
  6
Continuous
100
AcDbLine
 10
365.2014981609974
 20
118.6391317642906
 30
0.0
 11
379.7014981609974
 21
118.6391317642905
 31
0.0
  0
LINE
  5
253
330
1E
100
AcDbEntity
  8
STEMPEL
  6
Continuous
100
AcDbLine
 10
365.2014981609974
 20
119.6391317642906
 30
0.0
 11
379.7014981609974
 21
119.6391317642905
 31
0.0
  0
LINE
  5
254
330
1E
100
AcDbEntity
  8
STEMPEL
100
AcDbLine
 10
379.7014981609974
 20
119.6391317642905
 30
0.0
 11
379.9694473534285
 21
118.6391317642905
 31
0.0
  0
LINE
  5
255
330
1E
100
AcDbEntity
  8
STEMPEL
100
AcDbLine
 10
379.7014981609974
 20
113.6391317642906
 30
0.0
 11
379.9694473534286
 21
112.6391317642905
 31
0.0
  0
LINE
  5
256
330
1E
100
AcDbEntity
  8
STEMPEL
100
AcDbLine
 10
379.7014981609974
 20
107.6391317642906
 30
0.0
 11
379.9694473534285
 21
106.6391317642906
 31
0.0
  0
LINE
  5
257
330
1E
100
AcDbEntity
  8
STEMPEL
  6
Continuous
100
AcDbLine
 10
379.7014981609974
 20
119.6391317642905
 30
0.0
 11
379.7014981609974
 21
122.1524978639037
 31
0.0
  0
LINE
  5
258
330
1E
100
AcDbEntity
  8
STEMPEL
  6
Continuous
100
AcDbLine
 10
379.7014981609974
 20
113.6391317642906
 30
0.0
 11
379.7014981609974
 21
118.6391317642905
 31
0.0
  0
LINE
  5
259
330
1E
100
AcDbEntity
  8
STEMPEL
  6
Continuous
100
AcDbLine
 10
379.7014981609974
 20
107.6391317642906
 30
0.0
 11
379.7014981609974
 21
112.6391317642905
 31
0.0
  0
LINE
  5
25B
330
1E
100
AcDbEntity
  8
STEMPEL
  6
Continuous
100
AcDbLine
 10
379.7014981609974
 20
101.6391317642906
 30
0.0
 11
382.2014981609974
 21
101.6391317642906
 31
0.0
  0
LINE
  5
25C
330
1E
100
AcDbEntity
  8
STEMPEL
  6
Continuous
100
AcDbLine
 10
379.7014981609974
 20
118.6391317642905
 30
0.0
 11
379.9694473534285
 21
118.6391317642905
 31
0.0
  0
LINE
  5
25D
330
1E
100
AcDbEntity
  8
STEMPEL
  6
Continuous
100
AcDbLine
 10
379.7014981609974
 20
112.6391317642905
 30
0.0
 11
379.9694473534286
 21
112.6391317642905
 31
0.0
  0
LINE
  5
25E
330
1E
100
AcDbEntity
  8
STEMPEL
  6
Continuous
100
AcDbLine
 10
379.7014981609974
 20
106.6391317642906
 30
0.0
 11
379.9694473534285
 21
106.6391317642906
 31
0.0
  0
LINE
  5
2B4
330
1E
100
AcDbEntity
  8
STEMPEL
100
AcDbLine
 10
415.0
 20
55.00000000000003
 30
0.0
 11
235.0
 21
55.0
 31
0.0
  0
LINE
  5
2B5
330
1E
100
AcDbEntity
  8
STEMPEL
100
AcDbLine
 10
283.0
 20
54.99999999999997
 30
0.0
 11
283.0
 21
4.999999999999985
 31
0.0
  0
LINE
  5
2B6
330
1E
100
AcDbEntity
  8
STEMPEL
100
AcDbLine
 10
325.0
 20
55.00000000000003
 30
0.0
 11
325.0
 21
4.999999999999985
 31
0.0
  0
LINE
  5
2B7
330
1E
100
AcDbEntity
  8
STEMPEL
100
AcDbLine
 10
376.0
 20
54.99999999999989
 30
0.0
 11
376.0
 21
20.0
 31
0.0
  0
LINE
  5
2B8
330
1E
100
AcDbEntity
  8
STEMPEL
100
AcDbLine
 10
282.9999999999999
 20
14.99999999999998
 30
0.0
 11
235.0
 21
14.99999999999998
 31
0.0
  0
LINE
  5
2B9
330
1E
100
AcDbEntity
  8
STEMPEL
100
AcDbLine
 10
415.0
 20
20.0
 30
0.0
 11
283.0
 21
19.99999999999998
 31
0.0
  0
LINE
  5
2BA
330
1E
100
AcDbEntity
  8
STEMPEL
100
AcDbLine
 10
415.0
 20
40.0
 30
0.0
 11
283.0
 21
39.99999999999997
 31
0.0
  0
LINE
  5
2BB
330
1E
100
AcDbEntity
  8
VOLL
100
AcDbLine
 10
242.0
 20
55.00000000000003
 30
0.0
 11
242.0
 21
4.999999999999985
 31
0.0
  0
LINE
  5
2BC
330
1E
100
AcDbEntity
  8
VOLL
100
AcDbLine
 10
262.0
 20
54.99999999999997
 30
0.0
 11
262.0
 21
4.999999999999985
 31
0.0
  0
LINE
  5
2BD
330
1E
100
AcDbEntity
  8
VOLL
100
AcDbLine
 10
272.0
 20
54.99999999999997
 30
0.0
 11
272.0
 21
4.999999999999985
 31
0.0
  0
LINE
  5
2BE
330
1E
100
AcDbEntity
  8
VOLL
100
AcDbLine
 10
292.0
 20
39.99999999999997
 30
0.0
 11
292.0
 21
19.99999999999998
 31
0.0
  0
LINE
  5
2BF
330
1E
100
AcDbEntity
  8
VOLL
100
AcDbLine
 10
305.0
 20
54.99999999999992
 30
0.0
 11
305.0
 21
19.99999999999998
 31
0.0
  0
LINE
  5
2C0
330
1E
100
AcDbEntity
  8
HILF
100
AcDbLine
 10
235.0
 20
50.00000000000003
 30
0.0
 11
283.0
 21
50.00000000000003
 31
0.0
  0
LINE
  5
2C1
330
1E
100
AcDbEntity
  8
HILF
100
AcDbLine
 10
235.0
 20
45.00000000000002
 30
0.0
 11
283.0
 21
45.00000000000002
 31
0.0
  0
LINE
  5
2C2
330
1E
100
AcDbEntity
  8
HILF
100
AcDbLine
 10
235.0
 20
39.99999999999997
 30
0.0
 11
283.0
 21
39.99999999999997
 31
0.0
  0
LINE
  5
2C3
330
1E
100
AcDbEntity
  8
HILF
100
AcDbLine
 10
235.0
 20
34.99999999999997
 30
0.0
 11
283.0
 21
34.99999999999997
 31
0.0
  0
LINE
  5
2C4
330
1E
100
AcDbEntity
  8
HILF
100
AcDbLine
 10
235.0
 20
29.99999999999999
 30
0.0
 11
283.0
 21
29.99999999999999
 31
0.0
  0
LINE
  5
2C5
330
1E
100
AcDbEntity
  8
HILF
100
AcDbLine
 10
235.0
 20
24.99999999999999
 30
0.0
 11
283.0
 21
24.99999999999999
 31
0.0
  0
LINE
  5
2C6
330
1E
100
AcDbEntity
  8
HILF
100
AcDbLine
 10
235.0
 20
19.99999999999998
 30
0.0
 11
283.0
 21
19.99999999999998
 31
0.0
  0
LINE
  5
2C7
330
1E
100
AcDbEntity
  8
HILF
100
AcDbLine
 10
283.0
 20
34.99999999999997
 30
0.0
 11
325.0
 21
34.99999999999997
 31
0.0
  0
LINE
  5
2C8
330
1E
100
AcDbEntity
  8
HILF
100
AcDbLine
 10
283.0
 20
29.99999999999999
 30
0.0
 11
325.0
 21
29.99999999999999
 31
0.0
  0
LINE
  5
2C9
330
1E
100
AcDbEntity
  8
HILF
100
AcDbLine
 10
283.0
 20
24.99999999999999
 30
0.0
 11
325.0
 21
24.99999999999999
 31
0.0
  0
LINE
  5
2CA
330
1E
100
AcDbEntity
  8
HILF
100
AcDbLine
 10
327.3868400548473
 20
42.01879123782069
 30
0.0
 11
372.4176958278154
 21
42.01879123782069
 31
0.0
  0
LINE
  5
2CB
330
1E
100
AcDbEntity
  8
HILF
100
AcDbLine
 10
327.3868400548473
 20
34.99999999999997
 30
0.0
 11
372.4176958278154
 21
34.99999999999997
 31
0.0
  0
LINE
  5
2CC
330
1E
100
AcDbEntity
  8
HILF
100
AcDbLine
 10
327.3868400548473
 20
29.99999999999999
 30
0.0
 11
372.4176958278154
 21
29.99999999999999
 31
0.0
  0
LINE
  5
2CD
330
1E
100
AcDbEntity
  8
HILF
100
AcDbLine
 10
327.3868400548473
 20
24.99999999999999
 30
0.0
 11
372.4176958278154
 21
24.99999999999999
 31
0.0
  0
LINE
  5
2CE
330
1E
100
AcDbEntity
  8
VOLL
100
AcDbLine
 10
376.0
 20
30.0
 30
0.0
 11
415.0
 21
30.0
 31
0.0
  0
LINE
  5
2CF
330
1E
100
AcDbEntity
  8
HILF
100
AcDbLine
 10
378.3619308148496
 20
41.88991818477913
 30
0.0
 11
412.4294419663364
 21
41.88991818477913
 31
0.0
  0
LINE
  5
2D0
330
1E
100
AcDbEntity
  8
HILF
100
AcDbLine
 10
326.7454849644943
 20
7.446991290141568
 30
0.0
 11
412.4294419663364
 21
7.446991290141568
 31
0.0
  0
TEXT
  5
2D1
330
1E
100
AcDbEntity
  8
TEXT
100
AcDbText
 10
246.3913034923987
 20
9.336909474920659
 30
0.0
 40
2.0
  1
Änderung
 41
0.8
  7
GREEKS
 72
     1
 11
251.7627320638273
 21
9.336909474920659
 31
0.0
100
AcDbText
  0
TEXT
  5
2D2
330
1E
100
AcDbEntity
  8
TEXT
100
AcDbText
 10
286.7581786075188
 20
51.23104475435443
 30
0.0
 40
2.5
  1
Maßstab
 41
0.8
  7
GREEKS
100
AcDbText
  0
TEXT
  5
2D3
330
1E
100
AcDbEntity
  8
TEXT
100
AcDbText
 10
307.1429477367026
 20
51.20920842174095
 30
0.0
 40
2.5
  1
Zul. Abw.
 41
0.8
  7
GREEKS
100
AcDbText
  0
TEXT
  5
2D4
330
1E
100
AcDbEntity
  8
TEXT
100
AcDbText
 10
327.4389701904505
 20
51.27446640058898
 30
0.0
 40
2.5
  1
Benennung
 41
0.8
  7
GREEKS
100
AcDbText
  0
TEXT
  5
2D5
330
1E
100
AcDbEntity
  8
TEXT
100
AcDbText
 10
378.089377478817
 20
51.15660172685682
 30
0.0
 40
2.5
  1
Zeichnungs Nr.
 41
0.8
  7
GREEKS
100
AcDbText
  0
TEXT
  5
2D6
330
1E
100
AcDbEntity
  8
TEXT
100
AcDbText
 10
327.371119195568
 20
15.42280285096528
 30
0.0
 40
2.5
  1
Bauvorhaben
 41
0.8
  7
GREEKS
100
AcDbText
  0
TEXT
  5
2D7
330
1E
100
AcDbEntity
  8
TEXT
100
AcDbText
 10
378.3619308148496
 20
36.59059118549985
 30
0.0
 40
2.5
  1
Ersatz für:
 41
0.8
  7
GREEKS
100
AcDbText
  0
TEXT
  5
2D8
330
1E
100
AcDbEntity
  8
TEXT
100
AcDbText
 10
239.1332055352288
 20
6.827329230135958
 30
0.0
 40
2.0
  1
Index
 50
90.0
 41
0.8
  7
GREEKS
100
AcDbText
  0
TEXT
  5
2D9
330
1E
100
AcDbEntity
  8
TEXT
100
AcDbText
 10
265.0285901630527
 20
9.33578134669905
 30
0.0
 40
2.0
  1
Tag
 41
0.8
  7
GREEKS
 72
     1
 11
266.8952568297194
 21
9.33578134669905
 31
0.0
100
AcDbText
  0
TEXT
  5
2DA
330
1E
100
AcDbEntity
  8
TEXT
100
AcDbText
 10
274.3307283593773
 20
9.29662108483204
 30
0.0
 40
2.0
  1
Name
 41
0.8
  7
GREEKS
 72
     1
 11
277.4926331212821
 21
9.29662108483204
 31
0.0
100
AcDbText
  0
TEXT
  5
2DB
330
1E
100
AcDbEntity
  8
TEXT
100
AcDbText
 10
296.1655836576825
 20
36.65940250614963
 30
0.0
 40
2.0
  1
Tag
 41
0.8
  7
GREEKS
100
AcDbText
  0
TEXT
  5
2DC
330
1E
100
AcDbEntity
  8
TEXT
100
AcDbText
 10
311.2313292113147
 20
36.65480545957612
 30
0.0
 40
2.0
  1
Name
 41
0.8
  7
GREEKS
100
AcDbText
  0
TEXT
  5
2DD
330
1E
100
AcDbEntity
  8
TEXT
100
AcDbText
 10
283.7918063583808
 20
31.81495184808982
 30
0.0
 40
2.0
  1
Gez.
 41
0.8
  7
GREEKS
100
AcDbText
  0
TEXT
  5
2DE
330
1E
100
AcDbEntity
  8
TEXT
100
AcDbText
 10
283.7757543285836
 20
26.84463145714189
 30
0.0
 40
2.0
  1
Gepr.
 41
0.8
  7
GREEKS
100
AcDbText
  0
TEXT
  5
2DF
330
1E
100
AcDbEntity
  8
TEXT
100
AcDbText
 10
283.8003388693652
 20
21.76473194824904
 30
0.0
 40
2.0
  1
Norm.
 41
0.8
  7
GREEKS
100
AcDbText
  0
LINE
  5
2E0
330
1E
100
AcDbEntity
  8
STEMPEL
100
AcDbLine
 10
239.9999999999999
 20
5.0
 30
0.0
 11
415.0
 21
5.0
 31
0.0
  0
TEXT
  5
2E1
330
1E
100
AcDbEntity
  8
TEXT
100
AcDbText
 10
378.6200430748503
 20
26.03708088939301
 30
0.0
 40
2.5
  1
ersetzt durch:
 41
0.8
  7
GREEKS
100
AcDbText
  0
LINE
  5
2E2
330
1E
100
AcDbEntity
  8
STEMPEL
100
AcDbLine
 10
415.0
 20
5.0
 30
0.0
 11
19.99999999999997
 21
5.0
 31
0.0
  0
LINE
  5
2E3
330
1E
100
AcDbEntity
  8
STEMPEL
100
AcDbLine
 10
415.0
 20
5.0
 30
0.0
 11
415.0
 21
292.0
 31
0.0
  0
LINE
  5
2E4
330
1E
100
AcDbEntity
  8
STEMPEL
100
AcDbLine
 10
235.0
 20
5.0
 30
0.0
 11
235.0
 21
55.0
 31
0.0
  0
LINE
  5
2E5
330
1E
100
AcDbEntity
  8
STEMPEL
100
AcDbLine
 10
415.0
 20
292.0
 30
0.0
 11
19.99999999999991
 21
292.0
 31
0.0
  0
LINE
  5
2E6
330
1E
100
AcDbEntity
  8
HILF
100
AcDbLine
 10
419.9999999999999
 20
297.0000000000001
 30
0.0
 11
-0.0000000000001137
 21
296.9999999999999
 31
0.0
  0
LINE
  5
2E7
330
1E
100
AcDbEntity
  8
HILF
100
AcDbLine
 10
420.0
 20
0.0
 30
0.0
 11
-0.0000000000000284
 21
0.0
 31
0.0
  0
LINE
  5
2E8
330
1E
100
AcDbEntity
  8
HILF
100
AcDbLine
 10
15.54383567856922
 20
148.4999999999999
 30
0.0
 11
0.0
 21
148.4999999999999
 31
0.0
  0
TEXT
  5
2E9
330
1E
100
AcDbEntity
  8
TEXT
100
AcDbText
 10
284.311054911052
 20
36.57012735575833
 30
0.0
 40
2.0
  1
2008
 41
0.8
  7
GREEKS
100
AcDbText
  0
LINE
  5
2EA
330
1E
100
AcDbEntity
  8
HILF
100
AcDbLine
 10
420.0
 20
-0.0000000000000568
 30
0.0
 11
419.9999999999999
 21
297.0
 31
0.0
  0
TEXT
  5
2EB
330
1E
100
AcDbEntity
  8
VOLL
100
AcDbText
 10
79.0767547169811
 20
32.02594776470585
 30
0.0
 40
1.8
  1

  7
GREEKS
100
AcDbText
  0
TEXT
  5
2EC
330
1E
100
AcDbEntity
  8
TEXT
100
AcDbText
 10
235.9275497548884
 20
55.83599999999997
 30
0.0
 40
2.5
  1
Erstellt mit AUTO-CAD 2004
 41
0.8
  7
GREEKS
100
AcDbText
  0
TEXT
  5
2ED
330
1E
100
AcDbEntity
  8
TEXT
100
AcDbText
 10
312.2108024290629
 20
31.54481959861755
 30
0.0
 40
2.0
  1
Koeh
 41
0.8
  7
GREEKS
 72
     1
 11
314.8393738576343
 21
31.54481959861755
 31
0.0
100
AcDbText
  0
TEXT
  5
2EE
330
1E
100
AcDbEntity
  8
TEXT
 62
     1
100
AcDbText
 10
381.6238587271334
 20
44.07450714456979
 30
0.0
 40
3.5
  1
00806032W
 41
0.8
  7
GREEKS
 72
     1
 11
393.6238587271335
 21
44.07450714456979
 31
0.0
100
AcDbText
  0
TEXT
  5
2EF
330
1E
100
AcDbEntity
  8
TEXT
 62
     1
100
AcDbText
 10
290.2503153240943
 20
44.07450714456979
 30
0.0
 40
3.5
  1
1:1
 41
0.8
  7
GREEKS
100
AcDbText
  0
TEXT
  5
2F0
330
1E
100
AcDbEntity
  8
TEXT
100
AcDbText
 10
295.50426045888
 20
31.55382520412866
 30
0.0
 40
2.0
  1
12.12.
 41
0.8
  7
GREEKS
 72
     1
 11
298.70426045888
 21
31.55382520412866
 31
0.0
100
AcDbText
  0
TEXT
  5
2F1
330
1E
100
AcDbEntity
  8
TEXT
 62
     1
100
AcDbText
 10
327.2495685396462
 20
43.70874394626889
 30
0.0
 40
3.5
  1
Sicherungsschelle DN32
 41
0.7
  7
GREEKS
100
AcDbText
  0
TEXT
  5
2F4
330
1E
100
AcDbEntity
  8
TEXT
100
AcDbText
 10
327.5648195562658
 20
25.82005971521079
 30
0.0
 40
2.5
  1
EDV-Art.Nr. 00806.032X
 41
0.8
  7
GREEKS
100
AcDbText
  0
TEXT
  5
2F5
330
1E
100
AcDbEntity
  8
TEXT
100
AcDbText
 10
327.4918750788913
 20
21.31487076511316
 30
0.0
 40
2.0
  1
00806032W.DWG
 41
0.8
  7
GREEKS
100
AcDbText
  0
TEXT
  5
2F6
330
1E
100
AcDbEntity
  8
TEXT
100
AcDbText
 10
306.313066104042
 20
45.38181920511511
 30
0.0
 40
2.0
  1
DIN EN1123-2
 41
0.8
  7
GREEKS
 72
     1
 11
314.8083041992801
 21
45.38181920511511
 31
0.0
100
AcDbText
  0
INSERT
  5
2F7
330
1E
100
AcDbEntity
  8
STEMPEL
100
AcDbBlockReference
  2
LOGO
 10
285.4977742728897
 20
22.51052638224161
 30
0.0
  0
LINE
  5
2F9
330
1E
100
AcDbEntity
  8
HILF
100
AcDbLine
 10
-0.0000000000000284
 20
0.0
 30
0.0
 11
-0.0000000000001137
 21
296.9999999999999
 31
0.0
  0
LINE
  5
2FA
330
1E
100
AcDbEntity
  8
STEMPEL
100
AcDbLine
 10
19.99999999999997
 20
5.0
 30
0.0
 11
19.99999999999991
 21
292.0
 31
0.0
  0
LINE
  5
2FB
330
1E
100
AcDbEntity
  8
HILF
 62
     7
100
AcDbLine
 10
230.0
 20
-0.0000000000001412
 30
0.0
 11
230.0
 21
5.0
 31
0.0
  0
LINE
  5
2FC
330
1E
100
AcDbEntity
  8
HILF
 62
     7
100
AcDbLine
 10
229.9999999999999
 20
292.0
 30
0.0
 11
229.9999999999999
 21
296.9999999999999
 31
0.0
  0
TEXT
  5
30C
330
1E
100
AcDbEntity
  8
TEXT
 62
     1
100
AcDbText
 10
273.1327352493118
 20
66.58263599931583
 30
0.0
 40
3.5
  1
Werkstoff: Feuerverzinktes Spaltband DX51D+Z 275 NA C
 41
0.8
  7
GREEKS
100
AcDbText
  0
HATCH
  5
3A0
330
1E
100
AcDbEntity
  8
SCHRAFF
100
AcDbHatch
 10
0.0
 20
0.0
 30
0.0
210
0.0
220
0.0
230
1.0
  2
_USER
 70
     0
 71
     0
 91
        1
 92
       33
 93
       21
 72
     1
 10
379.7014981609974
 20
106.6391317642906
 11
379.9694473534285
 21
106.6391317642906
 72
     1
 10
379.7014981609974
 20
112.6391317642905
 11
379.9694473534286
 21
112.6391317642905
 72
     1
 10
379.7014981609974
 20
118.6391317642905
 11
379.9694473534285
 21
118.6391317642905
 72
     1
 10
379.7014981609974
 20
101.6391317642906
 11
382.2014981609974
 21
101.6391317642906
 72
     1
 10
382.8777476735338
 20
141.6391317642906
 11
385.4247861710467
 21
141.6391317642906
 72
     1
 10
379.7014981609974
 20
107.6391317642906
 11
379.7014981609974
 21
112.6391317642905
 72
     1
 10
379.7014981609974
 20
113.6391317642906
 11
379.7014981609974
 21
118.6391317642905
 72
     1
 10
379.7014981609974
 20
119.6391317642905
 11
379.7014981609974
 21
122.1524978639037
 72
     1
 10
379.7014981609974
 20
107.6391317642906
 11
379.9694473534285
 21
106.6391317642906
 72
     1
 10
379.7014981609974
 20
113.6391317642906
 11
379.9694473534286
 21
112.6391317642905
 72
     1
 10
379.7014981609974
 20
119.6391317642905
 11
379.9694473534285
 21
118.6391317642905
 72
     2
 10
367.2014981609974
 20
135.1813120846991
 40
16.0
 50
329.9266523550263
 51
359.9999999999998
 73
     1
 72
     2
 10
389.7014981609975
 20
122.1524978639037
 40
10.0
 50
149.9266523550263
 51
180.0
 73
     1
 72
     1
 10
379.7014981609974
 20
101.6391317642906
 11
379.7014981609974
 21
106.6391317642905
 72
     1
 10
383.2014981609975
 20
135.181312084699
 11
383.2014981609975
 21
138.5401317642906
 72
     2
 10
368.2014981609975
 20
138.5401317642906
 40
14.99987002457764
 50
0.0000000000000799
 51
11.92328241656811
 73
     1
 72
     1
 10
385.7014981609975
 20
135.181312084699
 11
385.7014981609975
 21
138.5401317642906
 72
     2
 10
367.2014981609974
 20
135.1813120846991
 40
18.5
 50
329.9266523550263
 51
359.9999999999998
 73
     1
 72
     2
 10
368.2014981609975
 20
138.5401317642906
 40
17.49987002457764
 50
0.0000000000000799
 51
10.20013326896839
 73
     1
 72
     1
 10
382.2014981609974
 20
101.6391317642906
 11
382.2014981609975
 21
122.1524978639037
 72
     2
 10
389.7014981609975
 20
122.1524978639037
 40
7.5
 50
149.9266523550263
 51
180.0
 73
     1
 97
        0
 75
     0
 76
     0
 52
45.0
 41
2.0
 77
     0
 78
     1
 53
45.0
 43
0.0
 44
0.0
 45
-1.414213562373094
 46
1.414213562373095
 79
     0
 98
        1
 10
0.0
 20
0.0
  0
TEXT
  5
3EA
330
1E
100
AcDbEntity
  8
BEM
100
AcDbText
 10
418.2905770718718
 20
6.074024076691515
 30
0.0
 40
2.0
  1
Diese Zeichnung ist urheberrechtlich geschützt und bleibt unser Eigentum. Sie darf weder ganz noch teilweise vervielfältigt und nicht an Dritte weitergegeben werden.
 50
90.0
 41
0.8
  7
GREEKS
100
AcDbText
  0
ENDSEC
  0
SECTION
  2
OBJECTS
  0
DICTIONARY
  5
C
330
0
100
AcDbDictionary
281
     1
  3
ACAD_COLOR
350
3E7
  3
ACAD_GROUP
350
D
  3
ACAD_LAYOUT
350
19
  3
ACAD_MATERIAL
350
3E6
  3
ACAD_MLINESTYLE
350
16
  3
ACAD_PLOTSETTINGS
350
18
  3
ACAD_PLOTSTYLENAME
350
E
  3
AcDbVariableDictionary
350
39E
  0
DICTIONARY
  5
3E7
102
{ACAD_REACTORS
330
C
102
}
330
C
100
AcDbDictionary
281
     1
  0
DICTIONARY
  5
D
102
{ACAD_REACTORS
330
C
102
}
330
C
100
AcDbDictionary
281
     1
  0
DICTIONARY
  5
19
102
{ACAD_REACTORS
330
C
102
}
330
C
100
AcDbDictionary
281
     1
  3
Layout1
350
1D
  3
Model
350
21
  0
DICTIONARY
  5
3E6
102
{ACAD_REACTORS
330
C
102
}
330
C
100
AcDbDictionary
281
     1
  0
DICTIONARY
  5
16
102
{ACAD_REACTORS
330
C
102
}
330
C
100
AcDbDictionary
281
     1
  3
Standard
350
17
  0
DICTIONARY
  5
18
102
{ACAD_REACTORS
330
C
102
}
330
C
100
AcDbDictionary
281
     1
  0
ACDBDICTIONARYWDFLT
  5
E
102
{ACAD_REACTORS
330
C
102
}
330
C
100
AcDbDictionary
281
     1
  3
Normal
350
F
100
AcDbDictionaryWithDefault
340
F
  0
DICTIONARY
  5
39E
102
{ACAD_REACTORS
330
C
102
}
330
C
100
AcDbDictionary
281
     1
  3
SORTENTS
350
39F
  0
LAYOUT
  5
1D
102
{ACAD_REACTORS
330
19
102
}
330
19
100
AcDbPlotSettings
  1

  2
Tektronix Phaser 740
  4

  6

 40
0.0
 41
0.0
 42
0.0
 43
0.0
 44
0.0
 45
0.0
 46
0.0
 47
0.0
 48
0.0
 49
0.0
140
0.0
141
0.0
142
1.0
143
1.0
 70
   688
 72
     0
 73
     0
 74
     5
  7
monochrome.ctb
 75
    16
147
1.0
 76
     0
 77
     2
 78
   300
148
0.0
149
0.0
100
AcDbLayout
  1
Layout1
 70
     0
 71
     1
 10
0.0
 20
0.0
 11
12.0
 21
9.0
 12
0.0
 22
0.0
 32
0.0
 14
1.000000000000000E+20
 24
1.000000000000000E+20
 34
1.000000000000000E+20
 15
-1.000000000000000E+20
 25
-1.000000000000000E+20
 35
-1.000000000000000E+20
146
0.0
 13
0.0
 23
0.0
 33
0.0
 16
1.0
 26
0.0
 36
0.0
 17
0.0
 27
1.0
 37
0.0
 76
     0
330
1A
  0
LAYOUT
  5
21
102
{ACAD_REACTORS
330
19
102
}
330
19
100
AcDbPlotSettings
  1

  2
none_device
  4
Letter_(8.50_x_11.00_Inches)
  6

 40
6.349999904632568
 41
6.349999904632568
 42
6.350006103515625
 43
6.350006103515625
 44
215.8999938964844
 45
279.3999938964844
 46
0.0
 47
0.0
 48
0.0
 49
0.0
140
0.0
141
0.0
142
1.0
143
1.0
 70
 11952
 72
     0
 73
     1
 74
     0
  7
monochrome.ctb
 75
     0
147
1.0
 76
     0
 77
     2
 78
   300
148
-1320.008218340963
149
241.9953406374086
100
AcDbLayout
  1
Model
 70
     1
 71
     0
 10
0.0
 20
0.0
 11
12.0
 21
9.0
 12
0.0
 22
0.0
 32
0.0
 14
0.0
 24
0.0
 34
0.0
 15
0.0
 25
0.0
 35
0.0
146
0.0
 13
0.0
 23
0.0
 33
0.0
 16
1.0
 26
0.0
 36
0.0
 17
0.0
 27
1.0
 37
0.0
 76
     0
330
1E
  0
MLINESTYLE
  5
17
102
{ACAD_REACTORS
330
16
102
}
330
16
100
AcDbMlineStyle
  2
STANDARD
 70
     0
  3

 62
   256
 51
90.0
 52
90.0
 71
     2
 49
0.5
 62
   256
  6
BYLAYER
 49
-0.5
 62
   256
  6
BYLAYER
  0
ACDBPLACEHOLDER
  5
F
102
{ACAD_REACTORS
330
E
102
}
330
E
  0
DICTIONARYVAR
  5
39F
102
{ACAD_REACTORS
330
39E
102
}
330
39E
100
DictionaryVariables
280
     0
  1
96
  0
ENDSEC
  0
EOF
