  0
SECTION
  2
HEADER
  9
$ACADVER
  1
AC1018
  9
$ACADMAINTVER
 70
     2
  9
$DWGCODEPAGE
  3
ANSI_1252
  9
$INSBASE
 10
0.0
 20
0.0
 30
0.0
  9
$EXTMIN
 10
-0.0000000000001137
 20
-0.0000000000001137
 30
0.0
  9
$EXTMAX
 10
420.0
 20
594.0000000000002
 30
0.0
  9
$LIMMIN
 10
0.0
 20
0.0
  9
$LIMMAX
 10
419.9999999999999
 20
594.0
  9
$ORTHOMODE
 70
     1
  9
$REGENMODE
 70
     1
  9
$FILLMODE
 70
     1
  9
$QTEXTMODE
 70
     0
  9
$MIRRTEXT
 70
     1
  9
$LTSCALE
 40
20.0
  9
$ATTMODE
 70
     1
  9
$TEXTSIZE
 40
3.5
  9
$TRACEWID
 40
0.5
  9
$TEXTSTYLE
  7
STANDARD
  9
$CLAYER
  8
VOLL
  9
$CELTYPE
  6
ByLayer
  9
$CECOLOR
 62
   256
  9
$CELTSCALE
 40
1.0
  9
$DISPSILH
 70
     0
  9
$DIMSCALE
 40
2.0
  9
$DIMASZ
 40
3.5
  9
$DIMEXO
 40
1.0
  9
$DIMDLI
 40
7.0
  9
$DIMRND
 40
0.0
  9
$DIMDLE
 40
0.0
  9
$DIMEXE
 40
1.0
  9
$DIMTP
 40
0.0
  9
$DIMTM
 40
0.0
  9
$DIMTXT
 40
3.5
  9
$DIMCEN
 40
1.5
  9
$DIMTSZ
 40
0.0
  9
$DIMTOL
 70
     0
  9
$DIMLIM
 70
     0
  9
$DIMTIH
 70
     0
  9
$DIMTOH
 70
     0
  9
$DIMSE1
 70
     0
  9
$DIMSE2
 70
     0
  9
$DIMTAD
 70
     1
  9
$DIMZIN
 70
     8
  9
$DIMBLK
  1

  9
$DIMASO
 70
     1
  9
$DIMSHO
 70
     0
  9
$DIMPOST
  1

  9
$DIMAPOST
  1

  9
$DIMALT
 70
     0
  9
$DIMALTD
 70
     2
  9
$DIMALTF
 40
25.4
  9
$DIMLFAC
 40
1.0
  9
$DIMTOFL
 70
     1
  9
$DIMTVP
 40
0.0
  9
$DIMTIX
 70
     0
  9
$DIMSOXD
 70
     0
  9
$DIMSAH
 70
     0
  9
$DIMBLK1
  1

  9
$DIMBLK2
  1

  9
$DIMSTYLE
  2
Standard
  9
$DIMCLRD
 70
     0
  9
$DIMCLRE
 70
     0
  9
$DIMCLRT
 70
     1
  9
$DIMTFAC
 40
0.5
  9
$DIMGAP
 40
1.5
  9
$DIMJUST
 70
     0
  9
$DIMSD1
 70
     0
  9
$DIMSD2
 70
     0
  9
$DIMTOLJ
 70
     1
  9
$DIMTZIN
 70
     8
  9
$DIMALTZ
 70
     8
  9
$DIMALTTZ
 70
     8
  9
$DIMUPT
 70
     0
  9
$DIMDEC
 70
     2
  9
$DIMTDEC
 70
     2
  9
$DIMALTU
 70
     2
  9
$DIMALTTD
 70
     2
  9
$DIMTXSTY
  7
STANDARD
  9
$DIMAUNIT
 70
     0
  9
$DIMADEC
 70
     2
  9
$DIMALTRND
 40
0.0
  9
$DIMAZIN
 70
     2
  9
$DIMDSEP
 70
    46
  9
$DIMATFIT
 70
     3
  9
$DIMFRAC
 70
     0
  9
$DIMLDRBLK
  1

  9
$DIMLUNIT
 70
     2
  9
$DIMLWD
 70
    -2
  9
$DIMLWE
 70
    -2
  9
$DIMTMOVE
 70
     0
  9
$LUNITS
 70
     2
  9
$LUPREC
 70
     2
  9
$SKETCHINC
 40
1.0
  9
$FILLETRAD
 40
0.0
  9
$AUNITS
 70
     0
  9
$AUPREC
 70
     0
  9
$MENU
  1
ACAD
  9
$ELEVATION
 40
0.0
  9
$PELEVATION
 40
0.0
  9
$THICKNESS
 40
0.0
  9
$LIMCHECK
 70
     0
  9
$CHAMFERA
 40
0.0
  9
$CHAMFERB
 40
0.0
  9
$CHAMFERC
 40
0.0
  9
$CHAMFERD
 40
0.0
  9
$SKPOLY
 70
     0
  9
$TDCREATE
 40
2455397.823042361
  9
$TDUCREATE
 40
2455397.781375695
  9
$TDUPDATE
 40
2455583.408053032
  9
$TDUUPDATE
 40
2455583.366386366
  9
$TDINDWG
 40
0.0460519213
  9
$TDUSRTIMER
 40
0.0460519213
  9
$USRTIMER
 70
     1
  9
$ANGBASE
 50
0.0
  9
$ANGDIR
 70
     0
  9
$PDMODE
 70
     0
  9
$PDSIZE
 40
0.0
  9
$PLINEWID
 40
0.0
  9
$SPLFRAME
 70
     0
  9
$SPLINETYPE
 70
     6
  9
$SPLINESEGS
 70
     8
  9
$HANDSEED
  5
122A
  9
$SURFTAB1
 70
     6
  9
$SURFTAB2
 70
     6
  9
$SURFTYPE
 70
     6
  9
$SURFU
 70
     6
  9
$SURFV
 70
     6
  9
$UCSBASE
  2

  9
$UCSNAME
  2

  9
$UCSORG
 10
0.0
 20
0.0
 30
0.0
  9
$UCSXDIR
 10
1.0
 20
0.0
 30
0.0
  9
$UCSYDIR
 10
0.0
 20
1.0
 30
0.0
  9
$UCSORTHOREF
  2

  9
$UCSORTHOVIEW
 70
     0
  9
$UCSORGTOP
 10
0.0
 20
0.0
 30
0.0
  9
$UCSORGBOTTOM
 10
0.0
 20
0.0
 30
0.0
  9
$UCSORGLEFT
 10
0.0
 20
0.0
 30
0.0
  9
$UCSORGRIGHT
 10
0.0
 20
0.0
 30
0.0
  9
$UCSORGFRONT
 10
0.0
 20
0.0
 30
0.0
  9
$UCSORGBACK
 10
0.0
 20
0.0
 30
0.0
  9
$PUCSBASE
  2

  9
$PUCSNAME
  2

  9
$PUCSORG
 10
0.0
 20
0.0
 30
0.0
  9
$PUCSXDIR
 10
1.0
 20
0.0
 30
0.0
  9
$PUCSYDIR
 10
0.0
 20
1.0
 30
0.0
  9
$PUCSORTHOREF
  2

  9
$PUCSORTHOVIEW
 70
     0
  9
$PUCSORGTOP
 10
0.0
 20
0.0
 30
0.0
  9
$PUCSORGBOTTOM
 10
0.0
 20
0.0
 30
0.0
  9
$PUCSORGLEFT
 10
0.0
 20
0.0
 30
0.0
  9
$PUCSORGRIGHT
 10
0.0
 20
0.0
 30
0.0
  9
$PUCSORGFRONT
 10
0.0
 20
0.0
 30
0.0
  9
$PUCSORGBACK
 10
0.0
 20
0.0
 30
0.0
  9
$USERI1
 70
     0
  9
$USERI2
 70
     0
  9
$USERI3
 70
     0
  9
$USERI4
 70
     0
  9
$USERI5
 70
     0
  9
$USERR1
 40
0.0
  9
$USERR2
 40
0.0
  9
$USERR3
 40
0.0
  9
$USERR4
 40
0.0
  9
$USERR5
 40
0.0
  9
$WORLDVIEW
 70
     1
  9
$SHADEDGE
 70
     3
  9
$SHADEDIF
 70
    70
  9
$TILEMODE
 70
     1
  9
$MAXACTVP
 70
    16
  9
$PINSBASE
 10
0.0
 20
0.0
 30
0.0
  9
$PLIMCHECK
 70
     0
  9
$PEXTMIN
 10
1.000000000000000E+20
 20
1.000000000000000E+20
 30
1.000000000000000E+20
  9
$PEXTMAX
 10
-1.000000000000000E+20
 20
-1.000000000000000E+20
 30
-1.000000000000000E+20
  9
$PLIMMIN
 10
0.0
 20
0.0
  9
$PLIMMAX
 10
12.0
 20
9.0
  9
$UNITMODE
 70
     0
  9
$VISRETAIN
 70
     0
  9
$PLINEGEN
 70
     0
  9
$PSLTSCALE
 70
     0
  9
$TREEDEPTH
 70
  3020
  9
$CMLSTYLE
  2
Standard
  9
$CMLJUST
 70
     0
  9
$CMLSCALE
 40
1.0
  9
$PROXYGRAPHICS
 70
     1
  9
$MEASUREMENT
 70
     0
  9
$CELWEIGHT
370
    -1
  9
$ENDCAPS
280
     0
  9
$JOINSTYLE
280
     0
  9
$LWDISPLAY
290
     0
  9
$INSUNITS
 70
     0
  9
$HYPERLINKBASE
  1

  9
$STYLESHEET
  1

  9
$XEDIT
290
     1
  9
$CEPSNTYPE
380
     0
  9
$PSTYLEMODE
290
     1
  9
$FINGERPRINTGUID
  2
{D68B0D02-A558-11D7-B632-000102183313}
  9
$VERSIONGUID
  2
{0C41DB19-2F9D-498F-B923-80994BAE39D7}
  9
$EXTNAMES
290
     1
  9
$PSVPSCALE
 40
0.0
  9
$OLESTARTUP
290
     0
  9
$SORTENTS
280
   127
  9
$INDEXCTL
280
     0
  9
$HIDETEXT
280
     0
  9
$XCLIPFRAME
290
     0
  9
$HALOGAP
280
     0
  9
$OBSCOLOR
 70
   257
  9
$OBSLTYPE
280
     0
  9
$INTERSECTIONDISPLAY
280
     0
  9
$INTERSECTIONCOLOR
 70
   257
  9
$DIMASSOC
280
     1
  9
$PROJECTNAME
  1

  0
ENDSEC
  0
SECTION
  2
CLASSES
  0
CLASS
  1
ACDBDICTIONARYWDFLT
  2
AcDbDictionaryWithDefault
  3
ObjectDBX Classes
 90
        0
 91
        1
280
     0
281
     0
  0
CLASS
  1
DICTIONARYVAR
  2
AcDbDictionaryVar
  3
ObjectDBX Classes
 90
        0
 91
        2
280
     0
281
     0
  0
ENDSEC
  0
SECTION
  2
TABLES
  0
TABLE
  2
VPORT
  5
8
330
0
100
AcDbSymbolTable
 70
     3
  0
VPORT
  5
1229
330
8
100
AcDbSymbolTableRecord
100
AcDbViewportTableRecord
  2
*Active
 70
     0
 10
0.0
 20
0.0
 11
1.0
 21
1.0
 12
210.0
 22
297.0
 13
0.0
 23
0.0
 14
1.0
 24
1.0
 15
10.0
 25
10.0
 16
0.0
 26
0.0
 36
1.0
 17
0.0
 27
0.0
 37
0.0
 40
594.1442530186321
 41
1.336927223719676
 42
50.0
 43
0.0
 44
0.0
 50
0.0
 51
0.0
 71
     0
 72
  1500
 73
     1
 74
     0
 75
     0
 76
     0
 77
     0
 78
     0
281
     0
 65
     1
110
0.0
120
0.0
130
0.0
111
1.0
121
0.0
131
0.0
112
0.0
122
1.0
132
0.0
 79
     0
146
0.0
  0
ENDTAB
  0
TABLE
  2
LTYPE
  5
5
330
0
100
AcDbSymbolTable
 70
     2
  0
LTYPE
  5
13
330
5
100
AcDbSymbolTableRecord
100
AcDbLinetypeTableRecord
  2
ByBlock
 70
     0
  3

 72
    65
 73
     0
 40
0.0
  0
LTYPE
  5
14
330
5
100
AcDbSymbolTableRecord
100
AcDbLinetypeTableRecord
  2
ByLayer
 70
     0
  3

 72
    65
 73
     0
 40
0.0
  0
LTYPE
  5
15
330
5
100
AcDbSymbolTableRecord
100
AcDbLinetypeTableRecord
  2
Continuous
 70
     0
  3
Solid line
 72
    65
 73
     0
 40
0.0
  0
LTYPE
  5
25
330
5
100
AcDbSymbolTableRecord
100
AcDbLinetypeTableRecord
  2
STRICHPUNKT
 70
     0
  3
__ . __ . __ . __ . __ . __ . __ . __ . __ . __
 72
    65
 73
     4
 40
1.0
 49
0.5
 74
     0
 49
-0.25
 74
     0
 49
0.0
 74
     0
 49
-0.25
 74
     0
  0
ENDTAB
  0
TABLE
  2
LAYER
  5
2
330
0
100
AcDbSymbolTable
 70
     9
  0
LAYER
  5
10
330
2
100
AcDbSymbolTableRecord
100
AcDbLayerTableRecord
  2
0
 70
     0
 62
     7
  6
Continuous
370
    -3
390
F
  0
LAYER
  5
2A
330
2
100
AcDbSymbolTableRecord
100
AcDbLayerTableRecord
  2
VOLL
 70
     0
 62
     1
  6
Continuous
370
    -3
390
F
  0
LAYER
  5
2B
330
2
100
AcDbSymbolTableRecord
100
AcDbLayerTableRecord
  2
HILF
 70
     0
 62
     2
  6
Continuous
370
    -3
390
F
  0
LAYER
  5
2C
330
2
100
AcDbSymbolTableRecord
100
AcDbLayerTableRecord
  2
MITTEL
 70
     0
 62
     2
  6
STRICHPUNKT
370
    -3
390
F
  0
LAYER
  5
2F
330
2
100
AcDbSymbolTableRecord
100
AcDbLayerTableRecord
  2
BEM
 70
     0
 62
     7
  6
Continuous
370
    -3
390
F
  0
LAYER
  5
30
330
2
100
AcDbSymbolTableRecord
100
AcDbLayerTableRecord
  2
STEMPEL
 70
     0
 62
     3
  6
Continuous
370
    -3
390
F
  0
LAYER
  5
31
330
2
100
AcDbSymbolTableRecord
100
AcDbLayerTableRecord
  2
TEXT
 70
     0
 62
     7
  6
Continuous
370
    -3
390
F
  0
LAYER
  5
231
330
2
100
AcDbSymbolTableRecord
100
AcDbLayerTableRecord
  2
SCHRAFF
 70
     0
 62
     7
  6
Continuous
370
    -3
390
F
  0
LAYER
  5
232
330
2
100
AcDbSymbolTableRecord
100
AcDbLayerTableRecord
  2
DEFPOINTS
 70
     0
 62
     7
  6
Continuous
290
     0
370
    -3
390
F
  0
ENDTAB
  0
TABLE
  2
STYLE
  5
3
330
0
100
AcDbSymbolTable
 70
     2
  0
STYLE
  5
11
330
3
100
AcDbSymbolTableRecord
100
AcDbTextStyleTableRecord
  2
STANDARD
 70
     0
 40
0.0
 41
0.8
 50
0.0
 71
     0
 42
3.5
  3
simplex.shx
  4

  0
STYLE
  5
24
330
3
100
AcDbSymbolTableRecord
100
AcDbTextStyleTableRecord
  2
GREEKS
 70
     0
 40
0.0
 41
0.8
 50
0.0
 71
     0
 42
2.5
  3
SIMPLEX.shx
  4

  0
ENDTAB
  0
TABLE
  2
VIEW
  5
6
330
0
100
AcDbSymbolTable
 70
     0
  0
ENDTAB
  0
TABLE
  2
UCS
  5
7
330
0
100
AcDbSymbolTable
 70
     0
  0
ENDTAB
  0
TABLE
  2
APPID
  5
9
330
0
100
AcDbSymbolTable
 70
     1
  0
APPID
  5
12
330
9
100
AcDbSymbolTableRecord
100
AcDbRegAppTableRecord
  2
ACAD
 70
     0
  0
ENDTAB
  0
TABLE
  2
DIMSTYLE
  5
A
330
0
100
AcDbSymbolTable
 70
     1
100
AcDbDimStyleTable
 71
     1
340
9D
  0
DIMSTYLE
105
9D
102
{ACAD_REACTORS
330
10BB
330
10C8
102
}
330
A
100
AcDbSymbolTableRecord
100
AcDbDimStyleTableRecord
  2
Standard
 70
     0
340
11
  0
ENDTAB
  0
TABLE
  2
BLOCK_RECORD
  5
1
330
0
100
AcDbSymbolTable
 70
     4
  0
BLOCK_RECORD
  5
1E
102
{ACAD_XDICTIONARY
360
A0
102
}
330
1
100
AcDbSymbolTableRecord
100
AcDbBlockTableRecord
  2
*Model_Space
340
21
  0
BLOCK_RECORD
  5
1A
102
{ACAD_XDICTIONARY
360
A2
102
}
330
1
100
AcDbSymbolTableRecord
100
AcDbBlockTableRecord
  2
*Paper_Space
340
1D
  0
BLOCK_RECORD
  5
22
330
1
100
AcDbSymbolTableRecord
100
AcDbBlockTableRecord
  2
LOGO
340
0
102
{BLKREFS
331
9B
102
}
  0
BLOCK_RECORD
  5
10BC
330
1
100
AcDbSymbolTableRecord
100
AcDbBlockTableRecord
  2
*D1
340
0
  0
BLOCK_RECORD
  5
10C9
330
1
100
AcDbSymbolTableRecord
100
AcDbBlockTableRecord
  2
*D2
340
0
  0
BLOCK_RECORD
  5
10FB
330
1
100
AcDbSymbolTableRecord
100
AcDbBlockTableRecord
  2
*X3
340
0
102
{BLKREFS
331
120A
102
}
  0
ENDTAB
  0
ENDSEC
  0
SECTION
  2
BLOCKS
  0
BLOCK
  5
35
330
1E
100
AcDbEntity
  8
0
100
AcDbBlockBegin
  2
*Model_Space
 70
     0
 10
0.0
 20
0.0
 30
0.0
  3
*Model_Space
  1

  0
ENDBLK
  5
36
330
1E
100
AcDbEntity
  8
0
100
AcDbBlockEnd
  0
BLOCK
  5
33
330
1A
100
AcDbEntity
 67
     1
  8
0
100
AcDbBlockBegin
  2
*Paper_Space
 70
     0
 10
0.0
 20
0.0
 30
0.0
  3
*Paper_Space
  1

  0
ENDBLK
  5
34
330
1A
100
AcDbEntity
 67
     1
  8
0
100
AcDbBlockEnd
  0
BLOCK
  5
37
330
22
100
AcDbEntity
  8
0
100
AcDbBlockBegin
  2
LOGO
 70
     0
 10
0.0
 20
0.0
 30
0.0
  3
LOGO
  1

  0
ARC
  5
38
330
22
100
AcDbEntity
  8
0
100
AcDbCircle
 10
11.59973089678112
 20
-9.271599258481501
 30
0.0
 40
4.5
100
AcDbArc
 50
270.0
 51
231.0575587310159
  0
LINE
  5
39
330
22
100
AcDbEntity
  8
0
100
AcDbLine
 10
3.599730896781125
 20
-4.771599258481529
 30
0.0
 11
3.599730896781153
 21
-11.77159925848133
 31
0.0
  0
LINE
  5
3A
330
22
100
AcDbEntity
  8
0
100
AcDbLine
 10
2.599730896781125
 20
-4.771599258481529
 30
0.0
 11
2.599730896781153
 21
-11.77159925848133
 31
0.0
  0
CIRCLE
  5
3B
330
22
100
AcDbEntity
  8
0
100
AcDbCircle
 10
11.59973089678112
 20
-9.271599258481501
 30
0.0
 40
3.5
  0
ARC
  5
3C
330
22
100
AcDbEntity
  8
0
100
AcDbCircle
 10
31.59973089678115
 20
-9.271599258481472
 30
0.0
 40
4.5
100
AcDbArc
 50
270.0
 51
231.0575587310182
  0
LINE
  5
3D
330
22
100
AcDbEntity
  8
0
100
AcDbLine
 10
17.59973089678112
 20
-4.771599258481472
 30
0.0
 11
17.59973089678115
 21
-13.77159925848147
 31
0.0
  0
ARC
  5
3E
330
22
100
AcDbEntity
  8
0
100
AcDbCircle
 10
22.59973089678116
 20
-7.271599258481472
 30
0.0
 40
2.5
100
AcDbArc
 50
293.1161887722295
 51
90.0
  0
CIRCLE
  5
3F
330
22
100
AcDbEntity
  8
0
100
AcDbCircle
 10
31.59973089678115
 20
-9.271599258481472
 30
0.0
 40
3.5
  0
ARC
  5
40
330
22
100
AcDbEntity
  8
0
100
AcDbCircle
 10
4.599730896781153
 20
-11.77159925848133
 30
0.0
 40
1.0
100
AcDbArc
 50
180.0
 51
270.0
  0
ARC
  5
41
330
22
100
AcDbEntity
  8
0
100
AcDbCircle
 10
4.599730896781153
 20
-11.77159925848133
 30
0.0
 40
2.0
100
AcDbArc
 50
179.9999999999992
 51
270.0
  0
LINE
  5
42
330
22
100
AcDbEntity
  8
0
100
AcDbLine
 10
11.59973089678115
 20
-13.77159925848144
 30
0.0
 11
4.599730896781153
 21
-13.77159925848147
 31
0.0
  0
LINE
  5
43
330
22
100
AcDbEntity
  8
0
100
AcDbLine
 10
8.771303772034769
 20
-12.77159925848136
 30
0.0
 11
4.599730896781153
 21
-12.77159925848133
 31
0.0
  0
LINE
  5
44
330
22
100
AcDbEntity
  8
0
100
AcDbLine
 10
31.59973089678115
 20
-13.77159925848147
 30
0.0
 11
23.6715276665056
 21
-13.77159925848144
 31
0.0
  0
LINE
  5
45
330
22
100
AcDbEntity
  8
0
100
AcDbLine
 10
23.56565672307022
 20
-9.51278021337896
 30
0.0
 11
24.4388546544846
 21
-12.77159925848144
 31
0.0
  0
LINE
  5
46
330
22
100
AcDbEntity
  8
0
100
AcDbLine
 10
22.59973089678116
 20
-9.771599258481472
 30
0.0
 11
18.59973089678112
 21
-9.771599258481472
 31
0.0
  0
LINE
  5
47
330
22
100
AcDbEntity
  8
0
100
AcDbLine
 10
18.59973089678115
 20
-13.77159925848144
 30
0.0
 11
17.59973089678115
 21
-13.77159925848144
 31
0.0
  0
LINE
  5
48
330
22
100
AcDbEntity
  8
0
100
AcDbLine
 10
18.59973089678115
 20
-9.771599258481472
 30
0.0
 11
18.59973089678115
 21
-13.77159925848144
 31
0.0
  0
LINE
  5
49
330
22
100
AcDbEntity
  8
0
100
AcDbLine
 10
22.59973089678116
 20
-9.771599258481472
 30
0.0
 11
23.67152766650562
 21
-13.77159925848147
 31
0.0
  0
ARC
  5
4A
330
22
100
AcDbEntity
  8
0
100
AcDbCircle
 10
22.59973089678116
 20
-7.271599258481472
 30
0.0
 40
2.5
100
AcDbArc
 50
270.0
 51
270.0000000000007
  0
LINE
  5
4B
330
22
100
AcDbEntity
  8
0
100
AcDbLine
 10
28.77130377203494
 20
-12.77159925848147
 30
0.0
 11
24.43885465448463
 21
-12.77159925848144
 31
0.0
  0
LINE
  5
4C
330
22
100
AcDbEntity
  8
0
100
AcDbLine
 10
3.599730896781125
 20
-4.771599258481472
 30
0.0
 11
2.599730896781125
 21
-4.771599258481472
 31
0.0
  0
LINE
  5
4D
330
22
100
AcDbEntity
  8
0
100
AcDbLine
 10
22.59973089678116
 20
-8.771599258481472
 30
0.0
 11
18.59973089678115
 21
-8.771599258481472
 31
0.0
  0
LINE
  5
4E
330
22
100
AcDbEntity
  8
0
100
AcDbLine
 10
22.59973089678116
 20
-5.771599258481472
 30
0.0
 11
18.59973089678115
 21
-5.771599258481472
 31
0.0
  0
LINE
  5
4F
330
22
100
AcDbEntity
  8
0
100
AcDbLine
 10
22.59973089678116
 20
-4.771599258481472
 30
0.0
 11
17.59973089678115
 21
-4.771599258481472
 31
0.0
  0
LINE
  5
50
330
22
100
AcDbEntity
  8
0
100
AcDbLine
 10
18.59973089678115
 20
-5.771599258481472
 30
0.0
 11
18.59973089678115
 21
-8.771599258481472
 31
0.0
  0
ARC
  5
51
330
22
100
AcDbEntity
  8
0
100
AcDbCircle
 10
22.59973089678116
 20
-7.271599258481472
 30
0.0
 40
1.5
100
AcDbArc
 50
270.0
 51
90.0
  0
ENDBLK
  5
52
330
22
100
AcDbEntity
  8
0
100
AcDbBlockEnd
  0
BLOCK
  5
10C6
330
10BC
100
AcDbEntity
  8
0
100
AcDbBlockBegin
  2
*D1
 70
     1
 10
0.0
 20
0.0
 30
0.0
  3
*D1
  1

  0
LINE
  5
10E7
330
10BC
100
AcDbEntity
  8
BEM
 62
     0
370
    -2
100
AcDbLine
 10
156.3345820121068
 20
419.147572106174
 30
0.0
 11
156.3345820121068
 21
397.3354244376242
 31
0.0
  0
LINE
  5
10E8
330
10BC
100
AcDbEntity
  8
BEM
 62
     0
370
    -2
100
AcDbLine
 10
290.5572691658857
 20
419.147572106174
 30
0.0
 11
290.5572691658857
 21
397.3354244376242
 31
0.0
  0
LINE
  5
10E9
330
10BC
100
AcDbEntity
  8
BEM
 62
     0
370
    -2
100
AcDbLine
 10
163.3345820121068
 20
399.3354244376242
 30
0.0
 11
283.5572691658858
 21
399.3354244376242
 31
0.0
  0
SOLID
  5
10EA
330
10BC
100
AcDbEntity
  8
BEM
 62
     0
100
AcDbTrace
 10
163.3345820121068
 20
400.5020911042908
 30
0.0
 11
163.3345820121068
 21
398.1687577709575
 31
0.0
 12
156.3345820121068
 22
399.3354244376242
 32
0.0
 13
156.3345820121068
 23
399.3354244376242
 33
0.0
  0
SOLID
  5
10EB
330
10BC
100
AcDbEntity
  8
BEM
 62
     0
100
AcDbTrace
 10
283.5572691658858
 20
400.5020911042908
 30
0.0
 11
283.5572691658858
 21
398.1687577709575
 31
0.0
 12
290.5572691658857
 22
399.3354244376242
 32
0.0
 13
290.5572691658857
 23
399.3354244376242
 33
0.0
  0
MTEXT
  5
10EC
330
10BC
100
AcDbEntity
  8
BEM
 62
     1
100
AcDbMText
 10
223.4459255889963
 20
405.8354244376241
 30
0.0
 40
7.0
 41
0.0
 71
     5
 72
     1
  1
\A1;%%c136
 73
     1
 44
1.0
  0
POINT
  5
10ED
330
10BC
100
AcDbEntity
  8
DEFPOINTS
 62
     0
100
AcDbPoint
 10
156.3345820121068
 20
421.147572106174
 30
0.0
  0
POINT
  5
10EE
330
10BC
100
AcDbEntity
  8
DEFPOINTS
 62
     0
100
AcDbPoint
 10
290.5572691658857
 20
421.147572106174
 30
0.0
  0
POINT
  5
10EF
330
10BC
100
AcDbEntity
  8
DEFPOINTS
 62
     0
100
AcDbPoint
 10
290.5572691658857
 20
399.3354244376242
 30
0.0
  0
ENDBLK
  5
10C7
330
10BC
100
AcDbEntity
  8
0
100
AcDbBlockEnd
  0
BLOCK
  5
10D3
330
10C9
100
AcDbEntity
  8
0
100
AcDbBlockBegin
  2
*D2
 70
     1
 10
0.0
 20
0.0
 30
0.0
  3
*D2
  1

  0
LINE
  5
10D5
330
10C9
100
AcDbEntity
  8
BEM
 62
     0
370
    -2
100
AcDbLine
 10
145.2627852423824
 20
431.8588208723564
 30
0.0
 11
145.2627852423824
 21
485.5136040344237
 31
0.0
  0
LINE
  5
10D6
330
10C9
100
AcDbEntity
  8
BEM
 62
     0
370
    -2
100
AcDbLine
 10
301.62906593561
 20
431.8588208723564
 30
0.0
 11
301.62906593561
 21
485.5136040344237
 31
0.0
  0
LINE
  5
10D7
330
10C9
100
AcDbEntity
  8
BEM
 62
     0
370
    -2
100
AcDbLine
 10
152.2627852423824
 20
483.5136040344236
 30
0.0
 11
294.62906593561
 21
483.5136040344236
 31
0.0
  0
SOLID
  5
10D8
330
10C9
100
AcDbEntity
  8
BEM
 62
     0
100
AcDbTrace
 10
152.2627852423824
 20
484.6802707010903
 30
0.0
 11
152.2627852423824
 21
482.346937367757
 31
0.0
 12
145.2627852423824
 22
483.5136040344236
 32
0.0
 13
145.2627852423824
 23
483.5136040344236
 33
0.0
  0
SOLID
  5
10D9
330
10C9
100
AcDbEntity
  8
BEM
 62
     0
100
AcDbTrace
 10
294.62906593561
 20
484.6802707010903
 30
0.0
 11
294.62906593561
 21
482.346937367757
 31
0.0
 12
301.62906593561
 22
483.5136040344236
 32
0.0
 13
301.62906593561
 23
483.5136040344236
 33
0.0
  0
MTEXT
  5
10DA
330
10C9
100
AcDbEntity
  8
BEM
 62
     1
100
AcDbMText
 10
223.4459255889962
 20
490.0136040344237
 30
0.0
 40
7.0
 41
0.0
 71
     5
 72
     1
  1
\A1;%%c157
 73
     1
 44
1.0
  0
POINT
  5
10DB
330
10C9
100
AcDbEntity
  8
DEFPOINTS
 62
     0
100
AcDbPoint
 10
145.2627852423824
 20
429.8588208723564
 30
0.0
  0
POINT
  5
10DC
330
10C9
100
AcDbEntity
  8
DEFPOINTS
 62
     0
100
AcDbPoint
 10
301.62906593561
 20
429.8588208723564
 30
0.0
  0
POINT
  5
10DD
330
10C9
100
AcDbEntity
  8
DEFPOINTS
 62
     0
100
AcDbPoint
 10
301.62906593561
 20
483.5136040344236
 30
0.0
  0
ENDBLK
  5
10D4
330
10C9
100
AcDbEntity
  8
0
100
AcDbBlockEnd
  0
BLOCK
  5
10FC
330
10FB
100
AcDbEntity
  8
0
100
AcDbBlockBegin
  2
*X3
 70
     1
 10
0.0
 20
0.0
 30
0.0
  3
*X3
  1

  0
LINE
  5
10FD
330
10FB
100
AcDbEntity
  8
0
 62
     0
100
AcDbLine
 10
600.3758734122822
 20
458.5699915857302
 30
0.0
 11
603.3852655813914
 21
456.4627925034907
 31
0.0
  0
LINE
  5
10FE
330
10FB
100
AcDbEntity
  8
0
 62
     0
100
AcDbLine
 10
594.4274950046413
 20
458.1571862790289
 30
0.0
 11
596.6942439421871
 21
456.5699915857303
 31
0.0
  0
LINE
  5
10FF
330
10FB
100
AcDbEntity
  8
0
 62
     0
100
AcDbLine
 10
596.8852655813914
 20
456.4362367939984
 30
0.0
 11
603.3852655813914
 21
451.8848877956353
 31
0.0
  0
LINE
  5
1100
330
10FB
100
AcDbEntity
  8
0
 62
     0
100
AcDbLine
 10
596.8852655813914
 20
451.8583320861429
 30
0.0
 11
602.7288806373669
 21
447.7665887735531
 31
0.0
  0
LINE
  5
1101
330
10FB
100
AcDbEntity
  8
0
 62
     0
100
AcDbLine
 10
596.8852655813914
 20
447.2804273782873
 30
0.0
 11
601.3567182935928
 21
444.1494824824557
 31
0.0
  0
LINE
  5
1102
330
10FB
100
AcDbEntity
  8
0
 62
     0
100
AcDbLine
 10
731.2431871593901
 20
444.760092028293
 30
0.0
 11
732.9428267342589
 21
443.5699915857303
 31
0.0
  0
LINE
  5
1103
330
10FB
100
AcDbEntity
  8
0
 62
     0
100
AcDbLine
 10
729.3852655813914
 20
450.6389274304656
 30
0.0
 11
735.8852655813913
 21
446.0875784321025
 31
0.0
  0
LINE
  5
1104
330
10FB
100
AcDbEntity
  8
0
 62
     0
100
AcDbLine
 10
729.3852655813914
 20
455.2168321383211
 30
0.0
 11
735.8852655813913
 21
450.665483139958
 31
0.0
  0
LINE
  5
1105
330
10FB
100
AcDbEntity
  8
0
 62
     0
100
AcDbLine
 10
731.1343830838645
 20
458.5699915857303
 30
0.0
 11
735.8852655813913
 21
455.2433878478135
 31
0.0
  0
LINE
  5
1106
330
10FB
100
AcDbEntity
  8
0
 62
     0
100
AcDbLine
 10
737.976142896155
 20
458.3572444983996
 30
0.0
 11
738.7710978504401
 21
457.8006110468721
 31
0.0
  0
LINE
  5
1107
330
10FB
100
AcDbEntity
  8
0
 62
     0
100
AcDbLine
 10
729.3852655813914
 20
453.2568196650122
 30
0.0
 11
733.1055886120823
 21
458.5699915857303
 31
0.0
  0
LINE
  5
1108
330
10FB
100
AcDbEntity
  8
0
 62
     0
100
AcDbLine
 10
730.0680608786923
 20
447.6940269242863
 30
0.0
 11
735.8852655813913
 21
456.0018562252568
 31
0.0
  0
LINE
  5
1109
330
10FB
100
AcDbEntity
  8
0
 62
     0
100
AcDbLine
 10
736.2830782435183
 20
456.5699915857303
 30
0.0
 11
737.6222807278776
 21
458.482570944392
 31
0.0
  0
LINE
  5
110A
330
10FB
100
AcDbEntity
  8
0
 62
     0
100
AcDbLine
 10
731.7582849546477
 20
443.5699915857303
 30
0.0
 11
735.8852655813913
 21
449.4639307416776
 31
0.0
  0
LINE
  5
110B
330
10FB
100
AcDbEntity
  8
0
 62
     0
100
AcDbLine
 10
598.9990484268393
 20
443.5699915857303
 30
0.0
 11
603.3852655813915
 21
449.8341588721419
 31
0.0
  0
LINE
  5
110C
330
10FB
100
AcDbEntity
  8
0
 62
     0
100
AcDbLine
 10
596.8852655813914
 20
447.0891223118973
 30
0.0
 11
603.3852655813915
 21
456.3720843557212
 31
0.0
  0
LINE
  5
110D
330
10FB
100
AcDbEntity
  8
0
 62
     0
100
AcDbLine
 10
596.8852655813914
 20
453.6270477954764
 30
0.0
 11
600.346352084274
 21
458.5699915857302
 31
0.0
  0
LINE
  5
110E
330
10FB
100
AcDbEntity
  8
0
 62
     0
100
AcDbLine
 10
594.3680322999991
 20
456.5699915857303
 30
0.0
 11
595.7682727616387
 21
458.5697422099805
 31
0.0
  0
ENDBLK
  5
110F
330
10FB
100
AcDbEntity
  8
0
100
AcDbBlockEnd
  0
ENDSEC
  0
SECTION
  2
ENTITIES
  0
LINE
  5
57
330
1E
100
AcDbEntity
  8
STEMPEL
100
AcDbLine
 10
410.0
 20
110.0
 30
0.0
 11
39.99999999999997
 21
110.0
 31
0.0
  0
LINE
  5
58
330
1E
100
AcDbEntity
  8
STEMPEL
100
AcDbLine
 10
136.0000000000001
 20
109.9999999999999
 30
0.0
 11
136.0
 21
9.999999999999971
 31
0.0
  0
LINE
  5
59
330
1E
100
AcDbEntity
  8
STEMPEL
100
AcDbLine
 10
220.0
 20
110.0
 30
0.0
 11
220.0
 21
9.999999999999971
 31
0.0
  0
LINE
  5
5A
330
1E
100
AcDbEntity
  8
STEMPEL
100
AcDbLine
 10
332.0
 20
109.9999999999997
 30
0.0
 11
332.0
 21
40.0
 31
0.0
  0
LINE
  5
5B
330
1E
100
AcDbEntity
  8
STEMPEL
100
AcDbLine
 10
135.9999999999999
 20
29.99999999999997
 30
0.0
 11
39.99999999999997
 21
29.99999999999997
 31
0.0
  0
LINE
  5
5C
330
1E
100
AcDbEntity
  8
STEMPEL
100
AcDbLine
 10
410.0
 20
40.0
 30
0.0
 11
136.0000000000001
 21
39.99999999999997
 31
0.0
  0
LINE
  5
5D
330
1E
100
AcDbEntity
  8
STEMPEL
100
AcDbLine
 10
410.0
 20
80.0
 30
0.0
 11
136.0000000000001
 21
79.99999999999994
 31
0.0
  0
LINE
  5
5E
330
1E
100
AcDbEntity
  8
VOLL
100
AcDbLine
 10
54.00000000000009
 20
110.0
 30
0.0
 11
53.99999999999997
 21
9.999999999999971
 31
0.0
  0
LINE
  5
5F
330
1E
100
AcDbEntity
  8
VOLL
100
AcDbLine
 10
94.00000000000011
 20
109.9999999999999
 30
0.0
 11
94.0
 21
9.999999999999971
 31
0.0
  0
LINE
  5
60
330
1E
100
AcDbEntity
  8
VOLL
100
AcDbLine
 10
114.0000000000001
 20
109.9999999999999
 30
0.0
 11
114.0
 21
9.999999999999971
 31
0.0
  0
LINE
  5
61
330
1E
100
AcDbEntity
  8
VOLL
100
AcDbLine
 10
154.0000000000001
 20
79.99999999999994
 30
0.0
 11
154.0000000000001
 21
39.99999999999997
 31
0.0
  0
LINE
  5
62
330
1E
100
AcDbEntity
  8
VOLL
100
AcDbLine
 10
180.0000000000001
 20
109.9999999999998
 30
0.0
 11
180.0
 21
39.99999999999997
 31
0.0
  0
LINE
  5
63
330
1E
100
AcDbEntity
  8
HILF
100
AcDbLine
 10
40.00000000000008
 20
100.0
 30
0.0
 11
136.0000000000001
 21
100.0
 31
0.0
  0
LINE
  5
64
330
1E
100
AcDbEntity
  8
HILF
100
AcDbLine
 10
40.00000000000008
 20
90.00000000000005
 30
0.0
 11
136.0000000000001
 21
90.00000000000005
 31
0.0
  0
LINE
  5
65
330
1E
100
AcDbEntity
  8
HILF
100
AcDbLine
 10
40.00000000000008
 20
79.99999999999994
 30
0.0
 11
136.0000000000001
 21
79.99999999999994
 31
0.0
  0
LINE
  5
66
330
1E
100
AcDbEntity
  8
HILF
100
AcDbLine
 10
40.00000000000008
 20
69.99999999999994
 30
0.0
 11
136.0000000000001
 21
69.99999999999994
 31
0.0
  0
LINE
  5
67
330
1E
100
AcDbEntity
  8
HILF
100
AcDbLine
 10
40.00000000000008
 20
59.99999999999997
 30
0.0
 11
136.0000000000001
 21
59.99999999999997
 31
0.0
  0
LINE
  5
68
330
1E
100
AcDbEntity
  8
HILF
100
AcDbLine
 10
40.00000000000008
 20
49.99999999999997
 30
0.0
 11
136.0000000000001
 21
49.99999999999997
 31
0.0
  0
LINE
  5
69
330
1E
100
AcDbEntity
  8
HILF
100
AcDbLine
 10
40.00000000000008
 20
39.99999999999997
 30
0.0
 11
136.0000000000001
 21
39.99999999999997
 31
0.0
  0
LINE
  5
6A
330
1E
100
AcDbEntity
  8
HILF
100
AcDbLine
 10
136.0000000000001
 20
69.99999999999994
 30
0.0
 11
220.0
 21
69.99999999999994
 31
0.0
  0
LINE
  5
6B
330
1E
100
AcDbEntity
  8
HILF
100
AcDbLine
 10
136.0000000000001
 20
59.99999999999997
 30
0.0
 11
220.0
 21
59.99999999999997
 31
0.0
  0
LINE
  5
6C
330
1E
100
AcDbEntity
  8
HILF
100
AcDbLine
 10
136.0000000000001
 20
49.99999999999997
 30
0.0
 11
220.0
 21
49.99999999999997
 31
0.0
  0
LINE
  5
6D
330
1E
100
AcDbEntity
  8
HILF
100
AcDbLine
 10
224.7736801096948
 20
84.03758247564139
 30
0.0
 11
324.8353916556311
 21
84.03758247564139
 31
0.0
  0
LINE
  5
6E
330
1E
100
AcDbEntity
  8
HILF
100
AcDbLine
 10
224.7736801096948
 20
69.99999999999994
 30
0.0
 11
324.835391655631
 21
69.99999999999994
 31
0.0
  0
LINE
  5
6F
330
1E
100
AcDbEntity
  8
HILF
100
AcDbLine
 10
224.7736801096948
 20
59.99999999999997
 30
0.0
 11
324.835391655631
 21
59.99999999999997
 31
0.0
  0
LINE
  5
70
330
1E
100
AcDbEntity
  8
HILF
100
AcDbLine
 10
224.7736801096948
 20
49.99999999999997
 30
0.0
 11
324.835391655631
 21
49.99999999999997
 31
0.0
  0
LINE
  5
71
330
1E
100
AcDbEntity
  8
VOLL
100
AcDbLine
 10
332.0
 20
60.0
 30
0.0
 11
410.0
 21
60.0
 31
0.0
  0
LINE
  5
72
330
1E
100
AcDbEntity
  8
HILF
100
AcDbLine
 10
336.7238616296993
 20
83.77983636955827
 30
0.0
 11
404.8588839326728
 21
83.77983636955827
 31
0.0
  0
LINE
  5
73
330
1E
100
AcDbEntity
  8
HILF
100
AcDbLine
 10
223.4909699289885
 20
14.89398258028314
 30
0.0
 11
404.8588839326728
 21
14.89398258028314
 31
0.0
  0
TEXT
  5
74
330
1E
100
AcDbEntity
  8
TEXT
100
AcDbText
 10
63.86165979631819
 20
18.67381894984132
 30
0.0
 40
4.0
  1
Änderung
 41
0.8
  7
GREEKS
 72
     1
 11
74.60451693917534
 21
18.67381894984132
 31
0.0
100
AcDbText
  0
TEXT
  5
75
330
1E
100
AcDbEntity
  8
TEXT
100
AcDbText
 10
143.5163572150377
 20
102.4620895087088
 30
0.0
 40
5.0
  1
Maßstab
 41
0.8
  7
GREEKS
100
AcDbText
  0
TEXT
  5
76
330
1E
100
AcDbEntity
  8
TEXT
100
AcDbText
 10
184.2858954734051
 20
102.4184168434819
 30
0.0
 40
5.0
  1
Zul. Abw.
 41
0.8
  7
GREEKS
100
AcDbText
  0
TEXT
  5
77
330
1E
100
AcDbEntity
  8
TEXT
100
AcDbText
 10
224.877940380901
 20
102.5489328011779
 30
0.0
 40
5.0
  1
Benennung
 41
0.8
  7
GREEKS
100
AcDbText
  0
TEXT
  5
78
330
1E
100
AcDbEntity
  8
TEXT
100
AcDbText
 10
336.178754957634
 20
102.3132034537136
 30
0.0
 40
5.0
  1
Zeichnungs Nr.
 41
0.8
  7
GREEKS
100
AcDbText
  0
TEXT
  5
79
330
1E
100
AcDbEntity
  8
TEXT
100
AcDbText
 10
224.742238391136
 20
30.84560570193057
 30
0.0
 40
5.0
  1
Bauvorhaben
 41
0.8
  7
GREEKS
100
AcDbText
  0
TEXT
  5
7A
330
1E
100
AcDbEntity
  8
TEXT
100
AcDbText
 10
336.7238616296993
 20
73.1811823709997
 30
0.0
 40
5.0
  1
Ersatz für:
 41
0.8
  7
GREEKS
100
AcDbText
  0
TEXT
  5
7B
330
1E
100
AcDbEntity
  8
TEXT
100
AcDbText
 10
48.26641107045756
 20
13.65465846027192
 30
0.0
 40
4.0
  1
Index
 50
90.0
 41
0.8
  7
GREEKS
100
AcDbText
  0
TEXT
  5
7C
330
1E
100
AcDbEntity
  8
TEXT
100
AcDbText
 10
100.0934676075481
 20
18.6715626933981
 30
0.0
 40
4.0
  1
Tag
 41
0.8
  7
GREEKS
 72
     1
 11
103.8268009408814
 21
18.6715626933981
 31
0.0
100
AcDbText
  0
TEXT
  5
7D
330
1E
100
AcDbEntity
  8
TEXT
100
AcDbText
 10
119.0122744386592
 20
18.59324216966408
 30
0.0
 40
4.0
  1
Name
 41
0.8
  7
GREEKS
 72
     1
 11
125.3360839624688
 21
18.59324216966408
 31
0.0
100
AcDbText
  0
TEXT
  5
7E
330
1E
100
AcDbEntity
  8
TEXT
100
AcDbText
 10
162.3311673153651
 20
73.31880501229926
 30
0.0
 40
4.0
  1
Tag
 41
0.8
  7
GREEKS
100
AcDbText
  0
TEXT
  5
7F
330
1E
100
AcDbEntity
  8
TEXT
100
AcDbText
 10
192.4626584226295
 20
73.30961091915225
 30
0.0
 40
4.0
  1
Name
 41
0.8
  7
GREEKS
100
AcDbText
  0
TEXT
  5
80
330
1E
100
AcDbEntity
  8
TEXT
100
AcDbText
 10
137.5836127167615
 20
63.62990369617964
 30
0.0
 40
4.0
  1
Gez.
 41
0.8
  7
GREEKS
100
AcDbText
  0
TEXT
  5
81
330
1E
100
AcDbEntity
  8
TEXT
100
AcDbText
 10
137.5515086571672
 20
53.68926291428377
 30
0.0
 40
4.0
  1
Gepr.
 41
0.8
  7
GREEKS
100
AcDbText
  0
TEXT
  5
82
330
1E
100
AcDbEntity
  8
TEXT
100
AcDbText
 10
137.6006777387304
 20
43.52946389649807
 30
0.0
 40
4.0
  1
Norm.
 41
0.8
  7
GREEKS
100
AcDbText
  0
LINE
  5
83
330
1E
100
AcDbEntity
  8
STEMPEL
100
AcDbLine
 10
49.99999999999989
 20
10.0
 30
0.0
 11
410.0
 21
10.0
 31
0.0
  0
TEXT
  5
84
330
1E
100
AcDbEntity
  8
TEXT
100
AcDbText
 10
337.2400861497006
 20
52.07416177878602
 30
0.0
 40
5.0
  1
ersetzt durch:
 41
0.8
  7
GREEKS
100
AcDbText
  0
LINE
  5
85
330
1E
100
AcDbEntity
  8
STEMPEL
100
AcDbLine
 10
410.0
 20
10.0
 30
0.0
 11
39.99999999999989
 21
10.0
 31
0.0
  0
LINE
  5
86
330
1E
100
AcDbEntity
  8
STEMPEL
100
AcDbLine
 10
410.0
 20
10.0
 30
0.0
 11
410.0
 21
584.0
 31
0.0
  0
LINE
  5
87
330
1E
100
AcDbEntity
  8
STEMPEL
100
AcDbLine
 10
40.0
 20
10.0
 30
0.0
 11
39.99999999999989
 21
584.0
 31
0.0
  0
LINE
  5
88
330
1E
100
AcDbEntity
  8
STEMPEL
100
AcDbLine
 10
410.0
 20
584.0
 30
0.0
 11
39.99999999999989
 21
584.0
 31
0.0
  0
LINE
  5
89
330
1E
100
AcDbEntity
  8
HILF
100
AcDbLine
 10
0.0
 20
0.0
 30
0.0
 11
-0.0000000000001137
 21
594.0
 31
0.0
  0
LINE
  5
8A
330
1E
100
AcDbEntity
  8
HILF
100
AcDbLine
 10
419.9999999999999
 20
594.0000000000002
 30
0.0
 11
0.0
 21
594.0
 31
0.0
  0
LINE
  5
8B
330
1E
100
AcDbEntity
  8
HILF
100
AcDbLine
 10
420.0
 20
0.0
 30
0.0
 11
0.0
 21
0.0
 31
0.0
  0
LINE
  5
8C
330
1E
100
AcDbEntity
  8
HILF
100
AcDbLine
 10
31.08767135713856
 20
297.0
 30
0.0
 11
0.0000000000001137
 21
297.0
 31
0.0
  0
TEXT
  5
8D
330
1E
100
AcDbEntity
  8
TEXT
100
AcDbText
 10
138.622109822104
 20
73.14025471151666
 30
0.0
 40
4.0
  1
2011
 41
0.8
  7
GREEKS
100
AcDbText
  0
LINE
  5
8E
330
1E
100
AcDbEntity
  8
HILF
100
AcDbLine
 10
420.0
 20
-0.0000000000001137
 30
0.0
 11
419.9999999999999
 21
594.0
 31
0.0
  0
TEXT
  5
8F
330
1E
100
AcDbEntity
  8
VOLL
100
AcDbText
 10
78.07675471698113
 20
31.02594776470585
 30
0.0
 40
1.8
  1

  7
GREEKS
100
AcDbText
  0
TEXT
  5
90
330
1E
100
AcDbEntity
  8
TEXT
100
AcDbText
 10
41.85509950977674
 20
111.6719999999999
 30
0.0
 40
5.0
  1
Erstellt mit AUTOCAD 2004
 41
0.8
  7
GREEKS
100
AcDbText
  0
TEXT
  5
91
330
1E
100
AcDbEntity
  8
TEXT
100
AcDbText
 10
194.4216048581257
 20
63.0896391972351
 30
0.0
 40
4.0
  1
Koeh
 41
0.8
  7
GREEKS
 72
     1
 11
199.6787477152685
 21
63.0896391972351
 31
0.0
100
AcDbText
  0
TEXT
  5
92
330
1E
100
AcDbEntity
  8
TEXT
 62
     1
100
AcDbText
 10
343.7810507876003
 20
88.14901428913959
 30
0.0
 40
7.0
  1
00805125W
 41
0.8
  7
GREEKS
 72
     1
 11
367.247717454267
 21
88.14901428913959
 31
0.0
100
AcDbText
  0
TEXT
  5
93
330
1E
100
AcDbEntity
  8
TEXT
 62
     1
100
AcDbText
 10
150.5006306481887
 20
88.14901428913959
 30
0.0
 40
7.0
  1
1:2
 41
0.8
  7
GREEKS
100
AcDbText
  0
TEXT
  5
94
330
1E
100
AcDbEntity
  8
TEXT
100
AcDbText
 10
161.0085209177598
 20
63.10765040825732
 30
0.0
 40
4.0
  1
21.01.
 41
0.8
  7
GREEKS
 72
     1
 11
167.4085209177598
 21
63.10765040825732
 31
0.0
100
AcDbText
  0
TEXT
  5
95
330
1E
100
AcDbEntity
  8
TEXT
 62
     1
100
AcDbText
 10
226.8935731057402
 20
87.41748789253779
 30
0.0
 40
7.0
  1
Verschlußstopfen DN125
 41
0.75
  7
GREEKS
100
AcDbText
  0
TEXT
  5
96
330
1E
100
AcDbEntity
  8
TEXT
100
AcDbText
 10
225.1296391125315
 20
71.50334417585288
 30
0.0
 40
5.0
  1
mit Schraubverschluß
 41
0.8
  7
GREEKS
100
AcDbText
  0
TEXT
  5
98
330
1E
100
AcDbEntity
  8
TEXT
100
AcDbText
 10
225.1296391125315
 20
51.64011943042158
 30
0.0
 40
5.0
  1
EDV-Art.Nr.: 00805.125X
 41
0.8
  7
GREEKS
100
AcDbText
  0
TEXT
  5
99
330
1E
100
AcDbEntity
  8
TEXT
100
AcDbText
 10
224.9837501577827
 20
42.62974153022632
 30
0.0
 40
4.0
  1
00805125W.DWG
 41
0.8
  7
GREEKS
100
AcDbText
  0
TEXT
  5
9A
330
1E
100
AcDbEntity
  8
TEXT
100
AcDbText
 10
182.626132208084
 20
90.76363841023022
 30
0.0
 40
4.0
  1
DIN EN1123-2
 41
0.8
  7
GREEKS
 72
     1
 11
199.6166083985602
 21
90.76363841023022
 31
0.0
100
AcDbText
  0
INSERT
  5
9B
330
1E
100
AcDbEntity
  8
STEMPEL
100
AcDbBlockReference
  2
LOGO
 10
140.9955485457794
 20
45.02105276448322
 30
0.0
 41
2.0
 42
2.0
 43
2.0
  0
TEXT
  5
118
330
1E
100
AcDbEntity
  8
BEM
100
AcDbText
 10
417.3022923857165
 20
10.16790107998849
 30
0.0
 40
4.0
  1
Diese Zeichnung ist urheberrechtlich geschützt und bleibt unser Eigentum. Sie darf weder ganz noch teilweise verfielfältigt und nicht an Dritte weitergegeben werden.
 50
90.0
 41
0.8
  7
GREEKS
100
AcDbText
  0
CIRCLE
  5
1049
330
1E
100
AcDbEntity
  8
STEMPEL
100
AcDbCircle
 10
240.200306852847
 20
319.0989165397251
 30
0.0
 40
4.739996661727157
  0
LINE
  5
104C
330
1E
100
AcDbEntity
  8
STEMPEL
100
AcDbLine
 10
222.4458684898456
 20
323.8389132014523
 30
0.0
 11
226.6104898342537
 21
323.8389132014521
 31
0.0
  0
LINE
  5
104D
330
1E
100
AcDbEntity
  8
STEMPEL
100
AcDbLine
 10
222.4458684898456
 20
321.4278166336372
 30
0.0
 11
226.6104898342537
 21
321.4278166336372
 31
0.0
  0
LINE
  5
104E
330
1E
100
AcDbEntity
  8
STEMPEL
100
AcDbLine
 10
222.4458684898456
 20
323.8389132014523
 30
0.0
 11
222.4458684898456
 21
321.4278166336372
 31
0.0
  0
ARC
  5
104F
330
1E
100
AcDbEntity
  8
STEMPEL
100
AcDbCircle
 10
226.6104898342537
 20
322.6333649175448
 30
0.0
 40
1.205548283907422
100
AcDbArc
 50
270.0
 51
90.0
  0
ARC
  5
1050
330
1E
100
AcDbEntity
  8
STEMPEL
100
AcDbCircle
 10
220.034771922031
 20
326.2500097692674
 30
0.0
 40
1.095952985370452
100
AcDbArc
 50
90.0
 51
180.0
  0
LINE
  5
1051
330
1E
100
AcDbEntity
  8
STEMPEL
100
AcDbLine
 10
218.9388189366604
 20
326.2500097692674
 30
0.0
 11
218.9388189366604
 21
323.060392443595
 31
0.0
  0
LINE
  5
1052
330
1E
100
AcDbEntity
  8
STEMPEL
100
AcDbLine
 10
220.034771922031
 20
327.3459627546379
 30
0.0
 11
226.6104898342537
 21
327.3459627546376
 31
0.0
  0
ARC
  5
1053
330
1E
100
AcDbEntity
  8
STEMPEL
100
AcDbCircle
 10
200.1980228868258
 20
325.592437978045
 30
0.0
 40
1.753524776592748
100
AcDbArc
 50
0.0
 51
180.0
  0
ARC
  5
1054
330
1E
100
AcDbEntity
  8
STEMPEL
100
AcDbCircle
 10
232.2916502615371
 20
314.9068963706832
 30
0.0
 40
0.5479764926852261
100
AcDbArc
 50
189.5550026106581
 51
270.0
  0
LINE
  5
1055
330
1E
100
AcDbEntity
  8
STEMPEL
100
AcDbLine
 10
222.4458684898456
 20
317.9207670804519
 30
0.0
 11
226.8844780805961
 21
317.9207670804518
 31
0.0
  0
LINE
  5
1056
330
1E
100
AcDbEntity
  8
STEMPEL
100
AcDbLine
 10
222.4458684898456
 20
317.9207670804519
 30
0.0
 11
222.4458684898456
 21
312.6053951014052
 31
0.0
  0
ARC
  5
1057
330
1E
100
AcDbEntity
  8
STEMPEL
100
AcDbCircle
 10
226.8844780805961
 20
316.9892070428869
 30
0.0
 40
4.438609590750344
100
AcDbArc
 50
10.00000000000021
 51
38.69301093832973
  0
ARC
  5
1058
330
1E
100
AcDbEntity
  8
STEMPEL
100
AcDbCircle
 10
231.5795540984467
 20
314.0849316316553
 30
0.0
 40
3.233061306842833
100
AcDbArc
 50
190.0000000000002
 51
270.0
  0
LINE
  5
1059
330
1E
100
AcDbEntity
  8
STEMPEL
100
AcDbLine
 10
228.4096941738912
 20
313.5398288062071
 30
0.0
 11
227.7995728125495
 21
317.1643919383517
 31
0.0
  0
ARC
  5
105A
330
1E
100
AcDbEntity
  8
STEMPEL
100
AcDbCircle
 10
226.8844780805961
 20
316.9892070428869
 30
0.0
 40
0.9315600375648966
100
AcDbArc
 50
10.00000000000021
 51
90.0
  0
LINE
  5
105B
330
1E
100
AcDbEntity
  8
STEMPEL
100
AcDbLine
 10
231.7512760082481
 20
314.8159353739972
 30
0.0
 11
231.2579680335984
 21
317.7465423171415
 31
0.0
  0
ARC
  5
105C
330
1E
100
AcDbEntity
  8
STEMPEL
100
AcDbCircle
 10
211.7055292332154
 20
319.0989165397251
 30
0.0
 40
8.247046214912602
100
AcDbArc
 50
270.0
 51
331.2916789772537
  0
LINE
  5
105D
330
1E
100
AcDbEntity
  8
STEMPEL
100
AcDbLine
 10
218.9388189366604
 20
315.1374406358552
 30
0.0
 11
218.9388189366604
 21
312.6053951014052
 31
0.0
  0
ARC
  5
105E
330
1E
100
AcDbEntity
  8
STEMPEL
100
AcDbCircle
 10
220.6923437132531
 20
312.6053951014052
 30
0.0
 40
1.753524776592748
100
AcDbArc
 50
180.0
 51
0.0
  0
LINE
  5
105F
330
1E
100
AcDbEntity
  8
STEMPEL
100
AcDbLine
 10
202.4995241561034
 20
314.3589198779981
 30
0.0
 11
204.9567365324646
 21
314.3589198779979
 31
0.0
  0
ARC
  5
1060
330
1E
100
AcDbEntity
  8
STEMPEL
100
AcDbCircle
 10
202.4995241561034
 20
314.9068963706833
 30
0.0
 40
0.5479764926852261
100
AcDbArc
 50
180.0
 51
270.0
  0
ARC
  5
1061
330
1E
100
AcDbEntity
  8
STEMPEL
100
AcDbCircle
 10
201.6775594170758
 20
314.0849316316553
 30
0.0
 40
3.233061306842833
100
AcDbArc
 50
180.0
 51
270.0
  0
LINE
  5
1062
330
1E
100
AcDbEntity
  8
STEMPEL
100
AcDbLine
 10
201.6775594170758
 20
310.8518703248125
 30
0.0
 11
211.7055292332154
 21
310.8518703248125
 31
0.0
  0
CIRCLE
  5
1063
330
1E
100
AcDbEntity
  8
STEMPEL
100
AcDbCircle
 10
211.7055292332154
 20
319.0989165397251
 30
0.0
 40
4.739996661727157
  0
ARC
  5
1064
330
1E
100
AcDbEntity
  8
STEMPEL
100
AcDbCircle
 10
211.7055292332154
 20
319.0989165397251
 30
0.0
 40
8.247046214912602
100
AcDbArc
 50
28.70832102274631
 51
215.082184575464
  0
LINE
  5
1065
330
1E
100
AcDbEntity
  8
STEMPEL
100
AcDbLine
 10
201.9515476634182
 20
325.592437978045
 30
0.0
 11
201.9515476634182
 21
314.9068963706833
 31
0.0
  0
LINE
  5
1066
330
1E
100
AcDbEntity
  8
STEMPEL
100
AcDbLine
 10
198.4444981102328
 20
325.592437978045
 30
0.0
 11
198.4444981102328
 21
314.0849316316553
 31
0.0
  0
ARC
  5
1067
330
1E
100
AcDbEntity
  8
STEMPEL
100
AcDbCircle
 10
226.6104898342537
 20
322.6333649175448
 30
0.0
 40
4.712597837092868
100
AcDbArc
 50
322.4919601629194
 51
90.0
  0
ARC
  5
106A
330
1E
100
AcDbEntity
  8
STEMPEL
100
AcDbCircle
 10
240.200306852847
 20
319.0989165397251
 30
0.0
 40
8.247046214912602
100
AcDbArc
 50
270.0
 51
215.0821845754603
  0
LINE
  5
106B
330
1E
100
AcDbEntity
  8
STEMPEL
100
AcDbLine
 10
231.5795540984467
 20
310.8518703248125
 30
0.0
 11
240.200306852847
 21
310.8518703248125
 31
0.0
  0
LINE
  5
106C
330
1E
100
AcDbEntity
  8
STEMPEL
100
AcDbLine
 10
232.2916502615371
 20
314.3589198779979
 30
0.0
 11
233.4515141520953
 21
314.3589198779979
 31
0.0
  0
LINE
  5
106F
330
1E
100
AcDbEntity
  8
MITTEL
100
AcDbLine
 10
223.4459255889962
 20
350.0989165397251
 30
0.0
 11
223.4459255889962
 21
184.0989165397251
 31
0.0
  0
CIRCLE
  5
1070
330
1E
100
AcDbEntity
  8
HILF
100
AcDbCircle
 10
223.4459255889962
 20
267.0989165397251
 30
0.0
 40
35.0
  0
CIRCLE
  5
1071
330
1E
100
AcDbEntity
  8
HILF
100
AcDbCircle
 10
223.4459255889962
 20
267.0989165397251
 30
0.0
 40
73.0
  0
CIRCLE
  5
1072
330
1E
100
AcDbEntity
  8
STEMPEL
100
AcDbCircle
 10
223.4459255889962
 20
267.0989165397251
 30
0.0
 40
78.0
  0
CIRCLE
  5
1073
330
1E
100
AcDbEntity
  8
HILF
100
AcDbCircle
 10
223.4459255889962
 20
267.0989165397251
 30
0.0
 40
30.0
  0
LINE
  5
1075
330
1E
100
AcDbEntity
  8
MITTEL
100
AcDbLine
 10
140.4459255889962
 20
267.0989165397251
 30
0.0
 11
306.4459255889965
 21
267.0989165397251
 31
0.0
  0
DIMENSION
  5
10BB
330
1E
100
AcDbEntity
  8
BEM
100
AcDbDimension
  2
*D1
 10
290.5572691658857
 20
399.3354244376242
 30
0.0
 11
223.4459255889963
 21
405.8354244376241
 31
0.0
 70
    32
  1
%%c136
 71
     5
 42
134.2226871537789
  3
Standard
100
AcDbAlignedDimension
 13
156.3345820121068
 23
421.147572106174
 33
0.0
 14
290.5572691658857
 24
421.147572106174
 34
0.0
100
AcDbRotatedDimension
1001
ACAD
1000
DSTYLE
1002
{
1070
    40
1040
2.0
1070
    41
1040
3.5
1070
    42
1040
1.0
1070
    43
1040
7.0
1070
    44
1040
1.0
1070
    73
1070
     0
1070
    74
1070
     0
1070
    77
1070
     1
1070
    78
1070
     8
1070
    79
1070
     2
1070
   140
1040
3.5
1070
   141
1040
1.5
1070
   146
1040
0.5
1070
   147
1040
1.5
1070
   172
1070
     1
1070
   178
1070
     1
1070
   179
1070
     2
1070
   271
1070
     2
1070
   272
1070
     2
1070
   284
1070
     8
1070
   285
1070
     8
1070
   286
1070
     8
1002
}
  0
DIMENSION
  5
10C8
330
1E
100
AcDbEntity
  8
BEM
100
AcDbDimension
  2
*D2
 10
301.62906593561
 20
483.5136040344236
 30
0.0
 11
223.4459255889962
 21
490.0136040344237
 31
0.0
 70
    32
  1
%%c157
 71
     5
 42
156.3662806932275
  3
Standard
100
AcDbAlignedDimension
 13
145.2627852423824
 23
429.8588208723564
 33
0.0
 14
301.62906593561
 24
429.8588208723564
 34
0.0
100
AcDbRotatedDimension
1001
ACAD
1000
DSTYLE
1002
{
1070
    40
1040
2.0
1070
    41
1040
3.5
1070
    42
1040
1.0
1070
    43
1040
7.0
1070
    44
1040
1.0
1070
    73
1070
     0
1070
    74
1070
     0
1070
    77
1070
     1
1070
    78
1070
     8
1070
    79
1070
     2
1070
   140
1040
3.5
1070
   141
1040
1.5
1070
   146
1040
0.5
1070
   147
1040
1.5
1070
   172
1070
     1
1070
   178
1070
     1
1070
   179
1070
     2
1070
   271
1070
     2
1070
   272
1070
     2
1070
   284
1070
     8
1070
   285
1070
     8
1070
   286
1070
     8
1002
}
  0
ARC
  5
1193
330
1E
100
AcDbEntity
  8
STEMPEL
100
AcDbCircle
 10
233.5959255889962
 20
450.5911827821514
 30
0.0
 40
0.750000000000001
100
AcDbArc
 50
269.9999991462263
 51
69.99999999999629
  0
ARC
  5
1194
330
1E
100
AcDbEntity
  8
STEMPEL
100
AcDbCircle
 10
213.2959255889962
 20
450.5911827821514
 30
0.0
 40
0.7500000000000013
100
AcDbArc
 50
110.0000000000037
 51
269.9999991462263
  0
LINE
  5
1195
330
1E
100
AcDbEntity
  8
STEMPEL
100
AcDbLine
 10
214.7856715511519
 20
451.9315392983513
 30
0.0
 11
213.039410481502
 21
451.2959522477409
 31
0.0
  0
LINE
  5
1196
330
1E
100
AcDbEntity
  8
STEMPEL
100
AcDbLine
 10
233.8524406964905
 20
451.2959522477409
 30
0.0
 11
232.1061796268406
 21
451.9315392983513
 31
0.0
  0
LINE
  5
1197
330
1E
100
AcDbEntity
  8
STEMPEL
100
AcDbLine
 10
232.1061796268406
 20
459.5302936496961
 30
0.0
 11
230.9459255889962
 21
459.8411827821514
 31
0.0
  0
LINE
  5
1198
330
1E
100
AcDbEntity
  8
STEMPEL
100
AcDbLine
 10
215.9459255889962
 20
459.8411827821514
 30
0.0
 11
214.7856715511519
 21
459.5302936496961
 31
0.0
  0
LINE
  5
1199
330
1E
100
AcDbEntity
  8
STEMPEL
100
AcDbLine
 10
214.7856715511519
 20
451.9315392983513
 30
0.0
 11
214.7856715511519
 21
459.5302936496961
 31
0.0
  0
LINE
  5
119A
330
1E
100
AcDbEntity
  8
STEMPEL
100
AcDbLine
 10
233.5959255889962
 20
449.8411827821514
 30
0.0
 11
213.2959255889962
 21
449.8411827821514
 31
0.0
  0
LINE
  5
119B
330
1E
100
AcDbEntity
  8
STEMPEL
100
AcDbLine
 10
233.8524406964905
 20
451.2959522477409
 30
0.0
 11
213.039410481502
 21
451.2959522477409
 31
0.0
  0
LINE
  5
119C
330
1E
100
AcDbEntity
  8
STEMPEL
100
AcDbLine
 10
219.115798570074
 20
451.9315392983513
 30
0.0
 11
219.115798570074
 21
459.5302936496961
 31
0.0
  0
LINE
  5
119D
330
1E
100
AcDbEntity
  8
STEMPEL
100
AcDbLine
 10
227.7760526079184
 20
451.9315392983513
 30
0.0
 11
227.7760526079184
 21
459.5302936496961
 31
0.0
  0
LINE
  5
119E
330
1E
100
AcDbEntity
  8
STEMPEL
100
AcDbLine
 10
232.1061796268406
 20
451.9315392983513
 30
0.0
 11
232.1061796268406
 21
459.5302936496961
 31
0.0
  0
LINE
  5
119F
330
1E
100
AcDbEntity
  8
STEMPEL
100
AcDbLine
 10
215.9459255889962
 20
459.8411827821514
 30
0.0
 11
230.9459255889962
 21
459.8411827821514
 31
0.0
  0
POINT
  5
11A0
330
1E
100
AcDbEntity
  8
0
100
AcDbPoint
 10
223.4459255889962
 20
449.8411827821514
 30
0.0
210
0.0000000000000001
220
1.0
230
0.0
  0
ARC
  5
11A1
330
1E
100
AcDbEntity
  8
HILF
100
AcDbCircle
 10
216.9507350606129
 20
446.5926966326218
 30
0.0
 40
5.761140599691502
100
AcDbArc
 50
67.92594526325932
 51
112.0740547367407
  0
ARC
  5
11A2
330
1E
100
AcDbEntity
  8
HILF
100
AcDbCircle
 10
229.9411161173795
 20
446.5926966326218
 30
0.0
 40
5.761140599691502
100
AcDbArc
 50
67.92594526325932
 51
112.0740547367407
  0
ARC
  5
11A3
330
1E
100
AcDbEntity
  8
HILF
100
AcDbCircle
 10
223.4459255889962
 20
429.9427217344901
 30
0.0
 40
22.41111549782308
100
AcDbArc
 50
78.85962783890775
 51
101.1403721610922
  0
ARC
  5
11A4
330
1E
100
AcDbEntity
  8
STEMPEL
100
AcDbCircle
 10
229.9411161173795
 20
452.146877074367
 30
0.0
 40
7.694305707784447
100
AcDbArc
 50
73.65710669401345
 51
106.3428933059865
  0
ARC
  5
11A5
330
1E
100
AcDbEntity
  8
STEMPEL
100
AcDbCircle
 10
216.9507350606129
 20
452.146877074367
 30
0.0
 40
7.694305707784447
100
AcDbArc
 50
73.65710669401345
 51
106.3428933059865
  0
ARC
  5
11A6
330
1E
100
AcDbEntity
  8
STEMPEL
100
AcDbCircle
 10
223.4459255889962
 20
429.5302936496965
 30
0.0
 40
30.31088913245485
100
AcDbArc
 50
81.7867892982638
 51
98.21321070173619
  0
LINE
  5
11A7
330
1E
100
AcDbEntity
  8
STEMPEL
100
AcDbLine
 10
227.4459255889962
 20
464.129934015969
 30
0.0
 11
228.4459255889962
 21
463.129934015969
 31
0.0
  0
LINE
  5
11A8
330
1E
100
AcDbEntity
  8
STEMPEL
100
AcDbLine
 10
219.4459255889962
 20
464.129934015969
 30
0.0
 11
218.4459255889962
 21
463.129934015969
 31
0.0
  0
LINE
  5
11A9
330
1E
100
AcDbEntity
  8
STEMPEL
100
AcDbLine
 10
219.4459255889962
 20
464.129934015969
 30
0.0
 11
227.4459255889962
 21
464.129934015969
 31
0.0
  0
LINE
  5
11AA
330
1E
100
AcDbEntity
  8
STEMPEL
100
AcDbLine
 10
218.4459255889962
 20
463.129934015969
 30
0.0
 11
228.4459255889962
 21
463.129934015969
 31
0.0
  0
LINE
  5
11AB
330
1E
100
AcDbEntity
  8
HILF
100
AcDbLine
 10
219.4459255889963
 20
459.8411827821514
 30
0.0
 11
219.4459255889962
 21
464.129934015969
 31
0.0
  0
LINE
  5
11AC
330
1E
100
AcDbEntity
  8
STEMPEL
100
AcDbLine
 10
218.4459255889963
 20
459.8411827821514
 30
0.0
 11
218.4459255889963
 21
463.1299340159691
 31
0.0
  0
LINE
  5
11AD
330
1E
100
AcDbEntity
  8
HILF
100
AcDbLine
 10
227.4459255889963
 20
459.8411827821514
 30
0.0
 11
227.4459255889963
 21
464.129934015969
 31
0.0
  0
LINE
  5
11AE
330
1E
100
AcDbEntity
  8
STEMPEL
100
AcDbLine
 10
228.4459255889961
 20
459.8411827821514
 30
0.0
 11
228.4459255889962
 21
463.1299340159691
 31
0.0
  0
LINE
  5
11AF
330
1E
100
AcDbEntity
  8
STEMPEL
100
AcDbLine
 10
214.4459255889962
 20
449.3411827821514
 30
0.0
 11
214.4459255889961
 21
449.8411827821514
 31
0.0
  0
LINE
  5
11B0
330
1E
100
AcDbEntity
  8
STEMPEL
100
AcDbLine
 10
232.4459255889963
 20
449.3411827821514
 30
0.0
 11
232.4459255889962
 21
449.8411827821514
 31
0.0
  0
HATCH
  5
11B1
330
1E
100
AcDbEntity
  8
SCHRAFF
100
AcDbHatch
 10
0.0
 20
0.0
 30
0.0
210
0.0
220
0.0
230
1.0
  2
_USER
 70
     0
 71
     1
 91
        2
 92
        7
 72
     1
 73
     1
 93
       17
 10
294.027608119049
 20
443.3411827821516
 42
-0.3394542588634792
 10
296.442422684772
 20
441.4882303949072
 42
0.0
 10
296.4818239738587
 20
441.3411827821514
 42
0.0
 10
299.697214283032
 20
429.3411827821514
 42
0.0
 10
301.6290659356101
 20
429.8588208723564
 42
0.0
 10
298.3742743373495
 20
442.0058684851126
 42
0.3394542588633787
 10
294.0276081190487
 20
445.3411827821514
 42
0.0
 10
259.3098866196751
 20
445.3411827821516
 42
-0.1989123673796423
 10
257.5421196667089
 20
446.0734158291851
 42
0.0
 10
255.5923721984031
 20
448.0231632974908
 42
0.1989123673796613
 10
252.4103916830636
 20
449.3411827821514
 42
0.0
 10
229.4459255889963
 20
449.3411827821514
 42
0.0
 10
229.4459255889962
 20
447.3411827821514
 42
0.0
 10
252.4103916830636
 20
447.3411827821514
 42
-0.1989123673796422
 10
254.1781586360297
 20
446.6089497351179
 42
0.0
 10
256.127906104336
 20
444.6592022668119
 42
0.1989123673796516
 10
259.3098866196754
 20
443.3411827821515
 42
0.0
 97
       17
330
11C1
330
11BC
330
11BB
330
11BF
330
1210
330
11DB
330
1211
330
11BE
330
11C0
330
11BA
330
1209
330
11B6
330
11B7
330
11DA
330
11CD
330
11D9
330
11B4
 92
        7
 72
     1
 73
     1
 93
       16
 10
217.4459255889962
 20
447.3411827821514
 42
0.0
 10
217.4459255889962
 20
449.3411827821514
 42
0.0
 10
194.4814594949291
 20
449.3411827821514
 42
0.198912367379651
 10
191.2994789795896
 20
448.023163297491
 42
0.0
 10
189.3497315112835
 20
446.073415829185
 42
-0.1989123673796727
 10
187.5819645583171
 20
445.3411827821513
 42
0.0
 10
152.8642430589436
 20
445.3411827821513
 42
0.3394542588633843
 10
148.5175768406427
 20
442.0058684851126
 42
0.0
 10
145.2627852423824
 20
429.8588208723564
 42
0.0
 10
147.1946368949606
 20
429.3411827821514
 42
0.0
 10
150.4494284932208
 20
441.4882303949075
 42
-0.3394542588633894
 10
152.8642430589436
 20
443.3411827821512
 42
0.0
 10
187.581964558317
 20
443.3411827821513
 42
0.1989123673796714
 10
190.7639450736566
 20
444.6592022668119
 42
0.0
 10
192.7136925419626
 20
446.6089497351178
 42
-0.1989123673796484
 10
194.4814594949288
 20
447.3411827821514
 42
0.0
 97
       16
330
1210
330
11E1
330
11DE
330
11DF
330
11EA
330
11E5
330
1202
330
11F5
330
1203
330
11E7
330
11B3
330
11DD
330
11E0
330
11E2
330
11E4
330
11DC
 75
     0
 76
     0
 52
135.0
 41
2.0
 77
     0
 78
     1
 53
135.0
 43
-441.9393399923951
 44
-14.22880880357877
 45
-1.414213562373095
 46
-1.414213562373094
 79
     0
 47
0.2224077193655747
 98
        2
 10
265.600071089775
 20
444.2136225830473
 10
213.094040606715
 20
447.9945536289363
  0
HATCH
  5
11B2
330
1E
100
AcDbEntity
  8
SCHRAFF
100
AcDbHatch
 10
0.0
 20
0.0
 30
0.0
210
0.0
220
0.0
230
1.0
  2
_USER
 70
     0
 71
     1
 91
        2
 92
        7
 72
     1
 73
     1
 93
       17
 10
194.2743527137424
 20
429.1299340159691
 42
-0.1989123673796758
 10
192.8601391513692
 20
429.715720453596
 42
0.0
 10
191.2639450736569
 20
431.3119145313085
 42
0.1989123673796605
 10
188.0819645583173
 20
432.6299340159691
 42
0.0
 10
162.8642430589436
 20
432.6299340159691
 42
0.2572610579260627
 10
159.0602080704768
 20
430.5339551902767
 42
0.0
 10
158.2621041833991
 20
428.3411827821512
 42
0.0
 10
156.3345820121068
 20
421.147572106174
 42
0.0
 10
158.266433664685
 20
420.6299340159691
 42
0.0
 10
160.548727912376
 20
429.147572106174
 42
-0.3394542588633698
 10
162.4805795649542
 20
430.6299340159689
 42
0.0
 10
188.289071339504
 20
430.6299340159689
 42
-0.1989123673796559
 10
189.7032849018771
 20
430.044147578342
 42
0.0
 10
191.2994789795895
 20
428.4479535006295
 42
0.1989123673796486
 10
194.4814594949288
 20
427.129934015969
 42
0.0
 10
223.4459255889965
 20
427.129934015969
 42
0.0
 10
223.4459255889964
 20
429.129934015969
 42
0.0
 97
       17
330
120F
330
11EF
330
11ED
330
11EB
330
11FD
330
11F2
330
11FC
330
11FB
330
11F8
330
11FA
330
11F3
330
11FE
330
11EC
330
11F1
330
11F0
330
120E
330
1204
 92
        7
 72
     1
 73
     1
 93
       17
 10
252.4103916830636
 20
427.1299340159689
 42
0.1989123673796752
 10
255.5923721984032
 20
428.4479535006296
 42
0.0
 10
257.1885662761155
 20
430.0441475783421
 42
-0.198912367379658
 10
258.6027798384886
 20
430.629934015969
 42
0.0
 10
284.0276081190491
 20
430.629934015969
 42
-0.3394542588633889
 10
286.4424226847718
 20
428.7769816287253
 42
0.0
 10
288.6254175133076
 20
420.6299340159691
 42
0.0
 10
290.5572691658857
 20
421.147572106174
 42
0.0
 10
288.6297469945943
 20
428.3411827821493
 42
0.0
 10
287.8316431075156
 20
430.533955190277
 42
0.2572610579260396
 10
284.0276081190491
 20
432.6299340159691
 42
0.0
 10
258.8098866196752
 20
432.6299340159691
 42
0.1989123673796591
 10
255.6279061043357
 20
431.3119145313085
 42
0.0
 10
254.0317120266231
 20
429.715720453596
 42
-0.198912367379658
 10
252.61749846425
 20
429.1299340159691
 42
0.0
 10
223.4459255889964
 20
429.1299340159691
 42
0.0
 10
223.4459255889963
 20
427.1299340159689
 42
0.0
 97
       17
330
11CF
330
11CE
330
11D6
330
11CB
330
11C7
330
11C8
330
11CC
330
11CA
330
11C4
330
120B
330
11D3
330
11D4
330
11D0
330
120F
330
1204
330
120E
330
11D2
 75
     0
 76
     0
 52
45.0
 41
2.0
 77
     0
 78
     1
 53
45.0
 43
-441.9393399923951
 44
-14.22880880357877
 45
-1.414213562373094
 46
1.414213562373095
 79
     0
 47
0.2356853976221148
 98
        2
 10
218.3749620028939
 20
428.5930086423178
 10
226.3941649647973
 20
428.1216390655459
  0
LINE
  5
11B3
102
{ACAD_REACTORS
330
11B1
102
}
330
1E
100
AcDbEntity
  8
STEMPEL
100
AcDbLine
 10
218.4459255889962
 20
443.3411827821514
 30
0.0
 11
152.8642430589436
 21
443.3411827821512
 31
0.0
  0
ARC
  5
11B4
102
{ACAD_REACTORS
330
11B1
102
}
330
1E
100
AcDbEntity
  8
STEMPEL
100
AcDbCircle
 10
294.027608119049
 20
440.8411827821514
 30
0.0
 40
4.5
100
AcDbArc
 50
15.00000000000116
 51
90.0
  0
LINE
  5
11B5
330
1E
100
AcDbEntity
  8
STEMPEL
100
AcDbLine
 10
292.9459255889964
 20
441.3411827821514
 30
0.0
 11
296.4818239738587
 21
441.3411827821514
 31
0.0
  0
ARC
  5
11B6
102
{ACAD_REACTORS
330
11B1
102
}
330
1E
100
AcDbEntity
  8
STEMPEL
100
AcDbCircle
 10
294.027608119049
 20
440.8411827821516
 30
0.0
 40
2.5
100
AcDbArc
 50
15.00000000000116
 51
90.0
  0
LINE
  5
11B7
102
{ACAD_REACTORS
330
11B1
102
}
330
1E
100
AcDbEntity
  8
STEMPEL
100
AcDbLine
 10
296.4424226847718
 20
441.4882303949079
 30
0.0
 11
296.4818239738587
 21
441.3411827821514
 31
0.0
  0
POINT
  5
11B8
330
1E
100
AcDbEntity
  8
DEFPOINTS
  6
ByBlock
 62
     0
100
AcDbPoint
 10
296.4424226847718
 20
441.4882303949078
 30
0.0
  0
POINT
  5
11B9
330
1E
100
AcDbEntity
  8
DEFPOINTS
  6
ByBlock
 62
     0
100
AcDbPoint
 10
295.5495116915708
 20
442.8245661328796
 30
0.0
  0
ARC
  5
11BA
102
{ACAD_REACTORS
330
11B1
102
}
330
1E
100
AcDbEntity
  8
STEMPEL
100
AcDbCircle
 10
259.3098866196753
 20
447.8411827821514
 30
0.0
 40
4.5
100
AcDbArc
 50
225.0
 51
270.0
  0
LINE
  5
11BB
102
{ACAD_REACTORS
330
11B1
102
}
330
1E
100
AcDbEntity
  8
STEMPEL
100
AcDbLine
 10
255.5923721984031
 20
448.0231632974908
 30
0.0
 11
257.5421196667089
 21
446.0734158291851
 31
0.0
  0
ARC
  5
11BC
102
{ACAD_REACTORS
330
11B1
102
}
330
1E
100
AcDbEntity
  8
STEMPEL
100
AcDbCircle
 10
259.3098866196751
 20
447.8411827821515
 30
0.0
 40
2.5
100
AcDbArc
 50
225.0
 51
270.0
  0
ARC
  5
11BD
330
1E
100
AcDbEntity
  8
STEMPEL
100
AcDbCircle
 10
252.4103916830636
 20
444.8411827821514
 30
0.0
 40
2.5
100
AcDbArc
 50
45.0
 51
90.0
  0
ARC
  5
11BE
102
{ACAD_REACTORS
330
11B1
102
}
330
1E
100
AcDbEntity
  8
STEMPEL
100
AcDbCircle
 10
252.4103916830636
 20
444.8411827821514
 30
0.0
 40
2.5
100
AcDbArc
 50
45.0
 51
90.0
  0
ARC
  5
11BF
102
{ACAD_REACTORS
330
11B1
102
}
330
1E
100
AcDbEntity
  8
STEMPEL
100
AcDbCircle
 10
252.4103916830636
 20
444.8411827821514
 30
0.0
 40
4.5
100
AcDbArc
 50
45.0
 51
90.0
  0
LINE
  5
11C0
102
{ACAD_REACTORS
330
11B1
102
}
330
1E
100
AcDbEntity
  8
STEMPEL
100
AcDbLine
 10
254.1781586360297
 20
446.6089497351179
 30
0.0
 11
256.127906104336
 21
444.6592022668119
 31
0.0
  0
LINE
  5
11C1
102
{ACAD_REACTORS
330
11B1
102
}
330
1E
100
AcDbEntity
  8
STEMPEL
100
AcDbLine
 10
294.027608119049
 20
445.3411827821514
 30
0.0
 11
259.3098866196751
 21
445.3411827821516
 31
0.0
  0
LINE
  5
11C2
330
1E
100
AcDbEntity
  8
STEMPEL
100
AcDbLine
 10
299.697214283032
 20
429.3411827821514
 30
0.0
 11
292.9459255889964
 21
429.3411827821514
 31
0.0
  0
POINT
  5
11C3
330
1E
100
AcDbEntity
  8
DEFPOINTS
  6
ByBlock
 62
     0
100
AcDbPoint
 10
299.697214283032
 20
429.3411827821514
 30
0.0
  0
ARC
  5
11C4
102
{ACAD_REACTORS
330
11B2
102
}
330
1E
100
AcDbEntity
  8
STEMPEL
100
AcDbCircle
 10
284.0276081190491
 20
428.129934015969
 30
0.0
 40
4.5
100
AcDbArc
 50
15.00000000000116
 51
90.0
  0
POINT
  5
11C5
330
1E
100
AcDbEntity
  8
DEFPOINTS
  6
ByBlock
 62
     0
100
AcDbPoint
 10
285.5495116915708
 20
430.113317366697
 30
0.0
  0
POINT
  5
11C6
330
1E
100
AcDbEntity
  8
DEFPOINTS
  6
ByBlock
 62
     0
100
AcDbPoint
 10
292.9459255889964
 20
428.3411827821514
 30
0.0
  0
LINE
  5
11C7
102
{ACAD_REACTORS
330
11B2
102
}
330
1E
100
AcDbEntity
  8
STEMPEL
100
AcDbLine
 10
288.6254175133076
 20
420.6299340159691
 30
0.0
 11
286.4424226847718
 21
428.7769816287253
 31
0.0
  0
LINE
  5
11C8
102
{ACAD_REACTORS
330
11B2
102
}
330
1E
100
AcDbEntity
  8
STEMPEL
100
AcDbLine
 10
288.6254175133076
 20
420.6299340159691
 30
0.0
 11
290.5572691658857
 21
421.147572106174
 31
0.0
  0
LINE
  5
11C9
330
1E
100
AcDbEntity
  8
STEMPEL
100
AcDbLine
 10
288.6297469945934
 20
428.3411827821514
 30
0.0
 11
292.9459255889964
 21
428.3411827821514
 31
0.0
  0
LINE
  5
11CA
102
{ACAD_REACTORS
330
11B2
102
}
330
1E
100
AcDbEntity
  8
STEMPEL
100
AcDbLine
 10
286.4459255889964
 20
434.3411827821515
 30
0.0
 11
288.6297469945934
 21
428.3411827821514
 31
0.0
  0
ARC
  5
11CB
102
{ACAD_REACTORS
330
11B2
102
}
330
1E
100
AcDbEntity
  8
STEMPEL
100
AcDbCircle
 10
284.0276081190491
 20
428.129934015969
 30
0.0
 40
2.5
100
AcDbArc
 50
15.00000000000116
 51
90.0
  0
LINE
  5
11CC
102
{ACAD_REACTORS
330
11B2
102
}
330
1E
100
AcDbEntity
  8
STEMPEL
100
AcDbLine
 10
290.5572691658857
 20
421.147572106174
 30
0.0
 11
288.3742743373495
 21
429.2946197189303
 31
0.0
  0
LINE
  5
11CD
102
{ACAD_REACTORS
330
11B1
102
}
330
1E
100
AcDbEntity
  8
STEMPEL
100
AcDbLine
 10
299.697214283032
 20
429.3411827821514
 30
0.0
 11
301.62906593561
 21
429.8588208723564
 31
0.0
  0
ARC
  5
11CE
102
{ACAD_REACTORS
330
11B2
102
}
330
1E
100
AcDbEntity
  8
STEMPEL
100
AcDbCircle
 10
258.6027798384888
 20
428.6299340159691
 30
0.0
 40
2.0
100
AcDbArc
 50
90.0
 51
135.0
  0
LINE
  5
11CF
102
{ACAD_REACTORS
330
11B2
102
}
330
1E
100
AcDbEntity
  8
STEMPEL
100
AcDbLine
 10
255.5923721984031
 20
428.4479535006295
 30
0.0
 11
257.1885662761155
 21
430.0441475783421
 31
0.0
  0
ARC
  5
11D0
102
{ACAD_REACTORS
330
11B2
102
}
330
1E
100
AcDbEntity
  8
STEMPEL
100
AcDbCircle
 10
252.61749846425
 20
431.129934015969
 30
0.0
 40
2.0
100
AcDbArc
 50
270.0
 51
315.0
  0
POINT
  5
11D1
330
1E
100
AcDbEntity
  8
DEFPOINTS
  6
ByBlock
 62
     0
100
AcDbPoint
 10
253.3828653289802
 20
429.2821749509464
 30
0.0
  0
ARC
  5
11D2
102
{ACAD_REACTORS
330
11B2
102
}
330
1E
100
AcDbEntity
  8
STEMPEL
100
AcDbCircle
 10
252.4103916830636
 20
431.6299340159689
 30
0.0
 40
4.5
100
AcDbArc
 50
270.0
 51
315.0
  0
ARC
  5
11D3
102
{ACAD_REACTORS
330
11B2
102
}
330
1E
100
AcDbEntity
  8
STEMPEL
100
AcDbCircle
 10
258.8098866196751
 20
428.129934015969
 30
0.0
 40
4.5
100
AcDbArc
 50
90.0
 51
135.0
  0
LINE
  5
11D4
102
{ACAD_REACTORS
330
11B2
102
}
330
1E
100
AcDbEntity
  8
STEMPEL
100
AcDbLine
 10
254.0317120266231
 20
429.715720453596
 30
0.0
 11
255.6279061043357
 21
431.3119145313085
 31
0.0
  0
LINE
  5
11D5
330
1E
100
AcDbEntity
  8
STEMPEL
100
AcDbLine
 10
158.266433664685
 20
420.6299340159688
 30
0.0
 11
288.6254175133076
 21
420.6299340159691
 31
0.0
  0
LINE
  5
11D6
102
{ACAD_REACTORS
330
11B2
102
}
330
1E
100
AcDbEntity
  8
STEMPEL
100
AcDbLine
 10
258.6027798384888
 20
430.629934015969
 30
0.0
 11
284.0276081190491
 21
430.629934015969
 31
0.0
  0
LINE
  5
11D7
330
1E
100
AcDbEntity
  8
STEMPEL
100
AcDbLine
 10
286.4459255889964
 20
434.3411827821515
 30
0.0
 11
286.4459255889964
 21
443.3411827821514
 31
0.0
  0
LINE
  5
11D8
330
1E
100
AcDbEntity
  8
STEMPEL
100
AcDbLine
 10
292.9459255889964
 20
428.3411827821514
 30
0.0
 11
292.9459255889964
 21
441.3411827821514
 31
0.0
  0
LINE
  5
11D9
102
{ACAD_REACTORS
330
11B1
102
}
330
1E
100
AcDbEntity
  8
STEMPEL
100
AcDbLine
 10
298.3742743373495
 20
442.0058684851126
 30
0.0
 11
301.62906593561
 21
429.8588208723564
 31
0.0
  0
LINE
  5
11DA
102
{ACAD_REACTORS
330
11B1
102
}
330
1E
100
AcDbEntity
  8
STEMPEL
100
AcDbLine
 10
296.4424226847718
 20
441.4882303949078
 30
0.0
 11
299.697214283032
 21
429.3411827821514
 31
0.0
  0
LINE
  5
11DB
102
{ACAD_REACTORS
330
11B1
102
}
330
1E
100
AcDbEntity
  8
STEMPEL
100
AcDbLine
 10
229.4459255889962
 20
447.3411827821514
 30
0.0
 11
229.4459255889962
 21
449.3411827821514
 31
0.0
  0
LINE
  5
11DC
102
{ACAD_REACTORS
330
11B1
102
}
330
1E
100
AcDbEntity
  8
STEMPEL
100
AcDbLine
 10
217.4459255889962
 20
447.3411827821514
 30
0.0
 11
217.4459255889962
 21
449.3411827821514
 31
0.0
  0
ARC
  5
11DD
102
{ACAD_REACTORS
330
11B1
102
}
330
1E
100
AcDbEntity
  8
STEMPEL
100
AcDbCircle
 10
187.5819645583171
 20
447.8411827821513
 30
0.0
 40
4.5
100
AcDbArc
 50
270.0
 51
315.0
  0
LINE
  5
11DE
102
{ACAD_REACTORS
330
11B1
102
}
330
1E
100
AcDbEntity
  8
STEMPEL
100
AcDbLine
 10
191.2994789795895
 20
448.0231632974908
 30
0.0
 11
189.3497315112835
 21
446.073415829185
 31
0.0
  0
ARC
  5
11DF
102
{ACAD_REACTORS
330
11B1
102
}
330
1E
100
AcDbEntity
  8
STEMPEL
100
AcDbCircle
 10
187.5819645583173
 20
447.8411827821513
 30
0.0
 40
2.5
100
AcDbArc
 50
270.0
 51
315.0
  0
LINE
  5
11E0
102
{ACAD_REACTORS
330
11B1
102
}
330
1E
100
AcDbEntity
  8
STEMPEL
100
AcDbLine
 10
192.7136925419626
 20
446.6089497351178
 30
0.0
 11
190.7639450736566
 21
444.6592022668119
 31
0.0
  0
ARC
  5
11E1
102
{ACAD_REACTORS
330
11B1
102
}
330
1E
100
AcDbEntity
  8
STEMPEL
100
AcDbCircle
 10
194.4814594949291
 20
444.8411827821514
 30
0.0
 40
4.5
100
AcDbArc
 50
90.0
 51
135.0
  0
ARC
  5
11E2
102
{ACAD_REACTORS
330
11B1
102
}
330
1E
100
AcDbEntity
  8
STEMPEL
100
AcDbCircle
 10
194.4814594949288
 20
444.8411827821514
 30
0.0
 40
2.5
100
AcDbArc
 50
90.0
 51
135.0
  0
ARC
  5
11E3
330
1E
100
AcDbEntity
  8
STEMPEL
100
AcDbCircle
 10
194.4814594949288
 20
444.8411827821514
 30
0.0
 40
2.5
100
AcDbArc
 50
90.0
 51
135.0
  0
LINE
  5
11E4
102
{ACAD_REACTORS
330
11B1
102
}
330
1E
100
AcDbEntity
  8
STEMPEL
100
AcDbLine
 10
218.4459255889962
 20
447.3411827821514
 30
0.0
 11
194.4814594949288
 21
447.3411827821514
 31
0.0
  0
ARC
  5
11E5
102
{ACAD_REACTORS
330
11B1
102
}
330
1E
100
AcDbEntity
  8
STEMPEL
100
AcDbCircle
 10
152.8642430589436
 20
440.8411827821513
 30
0.0
 40
4.5
100
AcDbArc
 50
90.0
 51
164.9999999999988
  0
LINE
  5
11E6
330
1E
100
AcDbEntity
  8
STEMPEL
100
AcDbLine
 10
150.4494284932208
 20
441.4882303949075
 30
0.0
 11
150.4100272041341
 21
441.3411827821514
 31
0.0
  0
ARC
  5
11E7
102
{ACAD_REACTORS
330
11B1
102
}
330
1E
100
AcDbEntity
  8
STEMPEL
100
AcDbCircle
 10
152.8642430589436
 20
440.8411827821512
 30
0.0
 40
2.5
100
AcDbArc
 50
90.0
 51
164.9999999999988
  0
LINE
  5
11E8
330
1E
100
AcDbEntity
  8
STEMPEL
100
AcDbLine
 10
150.4100272041341
 20
441.3411827821514
 30
0.0
 11
153.9459255889962
 21
441.3411827821514
 31
0.0
  0
LINE
  5
11E9
330
1E
100
AcDbEntity
  8
STEMPEL
100
AcDbLine
 10
152.8642430589436
 20
443.3411827821514
 30
0.0
 11
218.4459255889962
 21
443.3411827821515
 31
0.0
  0
LINE
  5
11EA
102
{ACAD_REACTORS
330
11B1
102
}
330
1E
100
AcDbEntity
  8
STEMPEL
100
AcDbLine
 10
187.5819645583173
 20
445.3411827821513
 30
0.0
 11
152.8642430589436
 21
445.3411827821513
 31
0.0
  0
ARC
  5
11EB
102
{ACAD_REACTORS
330
11B2
102
}
330
1E
100
AcDbEntity
  8
STEMPEL
100
AcDbCircle
 10
188.0819645583173
 20
428.129934015969
 30
0.0
 40
4.5
100
AcDbArc
 50
45.0
 51
90.0
  0
ARC
  5
11EC
102
{ACAD_REACTORS
330
11B2
102
}
330
1E
100
AcDbEntity
  8
STEMPEL
100
AcDbCircle
 10
188.289071339504
 20
428.6299340159689
 30
0.0
 40
2.0
100
AcDbArc
 50
45.0
 51
90.0
  0
LINE
  5
11ED
102
{ACAD_REACTORS
330
11B2
102
}
330
1E
100
AcDbEntity
  8
STEMPEL
100
AcDbLine
 10
192.8601391513693
 20
429.715720453596
 30
0.0
 11
191.2639450736569
 21
431.3119145313085
 31
0.0
  0
POINT
  5
11EE
330
1E
100
AcDbEntity
  8
DEFPOINTS
  6
ByBlock
 62
     0
100
AcDbPoint
 10
193.5089858490123
 20
429.2821749509464
 30
0.0
  0
ARC
  5
11EF
102
{ACAD_REACTORS
330
11B2
102
}
330
1E
100
AcDbEntity
  8
STEMPEL
100
AcDbCircle
 10
194.2743527137424
 20
431.129934015969
 30
0.0
 40
2.0
100
AcDbArc
 50
225.0
 51
270.0
  0
ARC
  5
11F0
102
{ACAD_REACTORS
330
11B2
102
}
330
1E
100
AcDbEntity
  8
STEMPEL
100
AcDbCircle
 10
194.4814594949291
 20
431.629934015969
 30
0.0
 40
4.5
100
AcDbArc
 50
225.0
 51
270.0
  0
LINE
  5
11F1
102
{ACAD_REACTORS
330
11B2
102
}
330
1E
100
AcDbEntity
  8
STEMPEL
100
AcDbLine
 10
191.2994789795895
 20
428.4479535006295
 30
0.0
 11
189.7032849018771
 21
430.044147578342
 31
0.0
  0
ARC
  5
11F2
102
{ACAD_REACTORS
330
11B2
102
}
330
1E
100
AcDbEntity
  8
STEMPEL
100
AcDbCircle
 10
162.8642430589436
 20
428.129934015969
 30
0.0
 40
4.5
100
AcDbArc
 50
90.0
 51
164.9999999999988
  0
ARC
  5
11F3
102
{ACAD_REACTORS
330
11B2
102
}
330
1E
100
AcDbEntity
  8
STEMPEL
100
AcDbCircle
 10
162.4805795649542
 20
428.6299340159689
 30
0.0
 40
2.0
100
AcDbArc
 50
90.0
 51
164.9999999999988
  0
POINT
  5
11F4
330
1E
100
AcDbEntity
  8
DEFPOINTS
  6
ByBlock
 62
     0
100
AcDbPoint
 10
161.2630567069367
 20
430.2166406965514
 30
0.0
  0
LINE
  5
11F5
102
{ACAD_REACTORS
330
11B1
102
}
330
1E
100
AcDbEntity
  8
STEMPEL
100
AcDbLine
 10
147.1946368949606
 20
429.3411827821514
 30
0.0
 11
145.2627852423824
 21
429.8588208723564
 31
0.0
  0
LINE
  5
11F6
330
1E
100
AcDbEntity
  8
STEMPEL
100
AcDbLine
 10
153.9459255889962
 20
429.3411827821514
 30
0.0
 11
147.1946368949606
 21
429.3411827821514
 31
0.0
  0
LINE
  5
11F7
330
1E
100
AcDbEntity
  8
STEMPEL
100
AcDbLine
 10
153.9459255889962
 20
428.3411827821514
 30
0.0
 11
158.262104183399
 21
428.3411827821516
 31
0.0
  0
LINE
  5
11F8
102
{ACAD_REACTORS
330
11B2
102
}
330
1E
100
AcDbEntity
  8
STEMPEL
100
AcDbLine
 10
158.266433664685
 20
420.6299340159691
 30
0.0
 11
156.3345820121068
 21
421.147572106174
 31
0.0
  0
POINT
  5
11F9
330
1E
100
AcDbEntity
  8
DEFPOINTS
  6
ByBlock
 62
     0
100
AcDbPoint
 10
153.9459255889962
 20
428.3411827821514
 30
0.0
  0
LINE
  5
11FA
102
{ACAD_REACTORS
330
11B2
102
}
330
1E
100
AcDbEntity
  8
STEMPEL
100
AcDbLine
 10
158.266433664685
 20
420.6299340159691
 30
0.0
 11
160.548727912376
 21
429.147572106174
 31
0.0
  0
LINE
  5
11FB
102
{ACAD_REACTORS
330
11B2
102
}
330
1E
100
AcDbEntity
  8
STEMPEL
100
AcDbLine
 10
156.3345820121068
 20
421.147572106174
 30
0.0
 11
158.5175768406429
 21
429.2946197189303
 31
0.0
  0
LINE
  5
11FC
102
{ACAD_REACTORS
330
11B2
102
}
330
1E
100
AcDbEntity
  8
STEMPEL
100
AcDbLine
 10
160.4459255889962
 20
434.3411827821515
 30
0.0
 11
158.262104183399
 21
428.3411827821514
 31
0.0
  0
LINE
  5
11FD
102
{ACAD_REACTORS
330
11B2
102
}
330
1E
100
AcDbEntity
  8
STEMPEL
100
AcDbLine
 10
162.8642430589436
 20
432.6299340159691
 30
0.0
 11
218.4459255889962
 21
432.6299340159691
 31
0.0
  0
LINE
  5
11FE
102
{ACAD_REACTORS
330
11B2
102
}
330
1E
100
AcDbEntity
  8
STEMPEL
100
AcDbLine
 10
162.4805795649542
 20
430.6299340159689
 30
0.0
 11
188.289071339504
 21
430.6299340159689
 31
0.0
  0
LINE
  5
11FF
330
1E
100
AcDbEntity
  8
STEMPEL
100
AcDbLine
 10
160.4459255889962
 20
434.3411827821515
 30
0.0
 11
218.4459255889962
 21
434.3411827821515
 31
0.0
  0
LINE
  5
1200
330
1E
100
AcDbEntity
  8
STEMPEL
100
AcDbLine
 10
153.9459255889962
 20
428.3411827821514
 30
0.0
 11
153.9459255889962
 21
441.3411827821514
 31
0.0
  0
LINE
  5
1201
330
1E
100
AcDbEntity
  8
STEMPEL
100
AcDbLine
 10
160.4459255889962
 20
434.3411827821515
 30
0.0
 11
160.4459255889962
 21
443.3411827821514
 31
0.0
  0
LINE
  5
1202
102
{ACAD_REACTORS
330
11B1
102
}
330
1E
100
AcDbEntity
  8
STEMPEL
100
AcDbLine
 10
148.5175768406427
 20
442.0058684851126
 30
0.0
 11
145.2627852423824
 21
429.8588208723564
 31
0.0
  0
LINE
  5
1203
102
{ACAD_REACTORS
330
11B1
102
}
330
1E
100
AcDbEntity
  8
STEMPEL
100
AcDbLine
 10
150.4494284932208
 20
441.4882303949075
 30
0.0
 11
147.1946368949606
 21
429.3411827821514
 31
0.0
  0
LINE
  5
1204
102
{ACAD_REACTORS
330
11B2
102
}
330
1E
100
AcDbEntity
  8
MITTEL
100
AcDbLine
 10
223.4459255889963
 20
415.6299340159689
 30
0.0
 11
223.4459255889962
 21
469.129934015969
 31
0.0
  0
LINE
  5
1205
330
1E
100
AcDbEntity
  8
STEMPEL
100
AcDbLine
 10
218.4459255889962
 20
429.1299340159691
 30
0.0
 11
218.4459255889962
 21
449.3411827821514
 31
0.0
  0
LINE
  5
1206
330
1E
100
AcDbEntity
  8
HILF
100
AcDbLine
 10
219.4459255889962
 20
429.1299340159691
 30
0.0
 11
219.4459255889962
 21
449.3411827821514
 31
0.0
  0
LINE
  5
1207
330
1E
100
AcDbEntity
  8
STEMPEL
100
AcDbLine
 10
228.4459255889963
 20
429.1299340159691
 30
0.0
 11
228.4459255889964
 21
449.3411827821514
 31
0.0
  0
LINE
  5
1208
330
1E
100
AcDbEntity
  8
HILF
100
AcDbLine
 10
227.4459255889962
 20
429.1299340159691
 30
0.0
 11
227.4459255889962
 21
449.3411827821514
 31
0.0
  0
LINE
  5
1209
102
{ACAD_REACTORS
330
11B1
102
}
330
1E
100
AcDbEntity
  8
STEMPEL
100
AcDbLine
 10
294.027608119049
 20
443.3411827821516
 30
0.0
 11
228.4459255889964
 21
443.3411827821514
 31
0.0
  0
INSERT
  5
120A
330
1E
100
AcDbEntity
  8
SCHRAFF
100
AcDbBlockReference
  2
*X3
 10
-442.939339992395
 20
-15.22880880357877
 30
0.0
1001
ACAD
1000
HATCH
1002
{
1070
    16
1000
NET,I
1040
30.0
1040
2.530727415391778
1002
}
  0
LINE
  5
120B
102
{ACAD_REACTORS
330
11B2
102
}
330
1E
100
AcDbEntity
  8
STEMPEL
100
AcDbLine
 10
228.4459255889962
 20
432.6299340159691
 30
0.0
 11
284.0276081190491
 21
432.6299340159691
 31
0.0
  0
LINE
  5
120C
330
1E
100
AcDbEntity
  8
STEMPEL
100
AcDbLine
 10
228.4459255889962
 20
434.3411827821515
 30
0.0
 11
286.4459255889964
 21
434.3411827821515
 31
0.0
  0
LINE
  5
120D
330
1E
100
AcDbEntity
  8
STEMPEL
100
AcDbLine
 10
228.4459255889962
 20
443.3411827821515
 30
0.0
 11
294.027608119049
 21
443.3411827821515
 31
0.0
  0
LINE
  5
120E
102
{ACAD_REACTORS
330
11B2
102
}
330
1E
100
AcDbEntity
  8
STEMPEL
100
AcDbLine
 10
194.4814594949291
 20
427.129934015969
 30
0.0
 11
252.4103916830636
 21
427.1299340159689
 31
0.0
  0
LINE
  5
120F
102
{ACAD_REACTORS
330
11B2
102
}
330
1E
100
AcDbEntity
  8
STEMPEL
100
AcDbLine
 10
194.2743527137424
 20
429.1299340159691
 30
0.0
 11
252.61749846425
 21
429.1299340159691
 31
0.0
  0
LINE
  5
1210
102
{ACAD_REACTORS
330
11B1
102
}
330
1E
100
AcDbEntity
  8
STEMPEL
100
AcDbLine
 10
252.4103916830636
 20
449.3411827821514
 30
0.0
 11
194.4814594949291
 21
449.3411827821514
 31
0.0
  0
LINE
  5
1211
102
{ACAD_REACTORS
330
11B1
102
}
330
1E
100
AcDbEntity
  8
STEMPEL
100
AcDbLine
 10
252.4103916830636
 20
447.3411827821514
 30
0.0
 11
228.4459255889964
 21
447.3411827821514
 31
0.0
  0
POINT
  5
121D
330
1E
100
AcDbEntity
  8
0
100
AcDbPoint
 10
223.4459255889962
 20
267.0989165397251
 30
0.0
  0
CIRCLE
  5
121E
330
1E
100
AcDbEntity
  8
STEMPEL
100
AcDbCircle
 10
223.4459255889963
 20
267.0989165397251
 30
0.0
 40
7.499999999999968
  0
ARC
  5
121F
330
1E
100
AcDbEntity
  8
HILF
100
AcDbCircle
 10
223.4459255889962
 20
267.0989165397251
 30
0.0
 40
4.188000000000005
100
AcDbArc
 50
200.0000000000001
 51
110.0000000000037
  0
CIRCLE
  5
1220
330
1E
100
AcDbEntity
  8
HILF
100
AcDbCircle
 10
223.4459255889962
 20
267.0989165397251
 30
0.0
 40
10.40651510749425
  0
CIRCLE
  5
1221
330
1E
100
AcDbEntity
  8
STEMPEL
100
AcDbCircle
 10
223.4459255889962
 20
267.0989165397251
 30
0.0
 40
10.9
  0
LWPOLYLINE
  5
1222
330
1E
100
AcDbEntity
  8
STEMPEL
100
AcDbPolyline
 90
        6
 70
     1
 43
0.0
 10
219.1157985700741
 20
274.5989165397251
 10
214.7856715511519
 20
267.0989165397251
 10
219.1157985700741
 20
259.5989165397251
 10
227.7760526079184
 20
259.5989165397251
 10
232.1061796268405
 20
267.0989165397251
 10
227.7760526079184
 20
274.5989165397251
  0
CIRCLE
  5
1223
330
1E
100
AcDbEntity
  8
STEMPEL
100
AcDbCircle
 10
223.4459255889962
 20
267.0989165397251
 30
0.0
 40
5.0
  0
ENDSEC
  0
SECTION
  2
OBJECTS
  0
DICTIONARY
  5
C
330
0
100
AcDbDictionary
281
     1
  3
ACAD_COLOR
350
DF
  3
ACAD_GROUP
350
D
  3
ACAD_LAYOUT
350
19
  3
ACAD_MATERIAL
350
DE
  3
ACAD_MLINESTYLE
350
16
  3
ACAD_PLOTSETTINGS
350
18
  3
ACAD_PLOTSTYLENAME
350
E
  3
AcDbVariableDictionary
350
EA
  0
DICTIONARY
  5
A0
330
1E
100
AcDbDictionary
280
     1
281
     1
  3
ACAD_LAYOUTSELFREF
360
D4
  0
DICTIONARY
  5
A2
330
1A
100
AcDbDictionary
280
     1
281
     1
  3
ACAD_LAYOUTSELFREF
360
D3
  0
DICTIONARY
  5
DF
102
{ACAD_REACTORS
330
C
102
}
330
C
100
AcDbDictionary
281
     1
  0
DICTIONARY
  5
D
102
{ACAD_REACTORS
330
C
102
}
330
C
100
AcDbDictionary
281
     1
  0
DICTIONARY
  5
19
102
{ACAD_REACTORS
330
C
102
}
330
C
100
AcDbDictionary
281
     1
  3
Layout1
350
1D
  3
Model
350
21
  0
DICTIONARY
  5
DE
102
{ACAD_REACTORS
330
C
102
}
330
C
100
AcDbDictionary
281
     1
  0
DICTIONARY
  5
16
102
{ACAD_REACTORS
330
C
102
}
330
C
100
AcDbDictionary
281
     1
  3
Standard
350
17
  0
DICTIONARY
  5
18
102
{ACAD_REACTORS
330
C
102
}
330
C
100
AcDbDictionary
281
     1
  0
ACDBDICTIONARYWDFLT
  5
E
102
{ACAD_REACTORS
330
C
102
}
330
C
100
AcDbDictionary
281
     1
  3
Normal
350
F
100
AcDbDictionaryWithDefault
340
F
  0
DICTIONARY
  5
EA
102
{ACAD_REACTORS
330
C
102
}
330
C
100
AcDbDictionary
281
     1
  3
DIMASSOC
350
EB
  3
PROJECTNAME
350
EC
  0
XRECORD
  5
D4
102
{ACAD_REACTORS
330
A0
102
}
330
A0
100
AcDbXrecord
280
     1
340
1E
  0
XRECORD
  5
D3
102
{ACAD_REACTORS
330
A2
102
}
330
A2
100
AcDbXrecord
280
     1
340
1A
  0
LAYOUT
  5
1D
102
{ACAD_REACTORS
330
19
102
}
330
19
100
AcDbPlotSettings
  1

  2
\\NT_WORK01\HP LaserJet 5000 PCL 6
  4

  6

 40
0.0
 41
0.0
 42
0.0
 43
0.0
 44
0.0
 45
0.0
 46
0.0
 47
0.0
 48
0.0
 49
0.0
140
0.0
141
0.0
142
1.0
143
1.0
 70
   688
 72
     0
 73
     0
 74
     5
  7

 75
    16
147
1.0
 76
     0
 77
     2
 78
   300
148
0.0
149
0.0
100
AcDbLayout
  1
Layout1
 70
     0
 71
     1
 10
0.0
 20
0.0
 11
12.0
 21
9.0
 12
0.0
 22
0.0
 32
0.0
 14
1.000000000000000E+20
 24
1.000000000000000E+20
 34
1.000000000000000E+20
 15
-1.000000000000000E+20
 25
-1.000000000000000E+20
 35
-1.000000000000000E+20
146
0.0
 13
0.0
 23
0.0
 33
0.0
 16
1.0
 26
0.0
 36
0.0
 17
0.0
 27
1.0
 37
0.0
 76
     0
330
1A
  0
LAYOUT
  5
21
102
{ACAD_REACTORS
330
19
102
}
330
19
100
AcDbPlotSettings
  1

  2
\\NT_WORK01\HP LaserJet 5000 PCL 6
  4

  6

 40
0.0
 41
0.0
 42
0.0
 43
0.0
 44
0.0
 45
0.0
 46
0.0
 47
0.0
 48
0.0
 49
0.0
140
0.0
141
0.0
142
1.0
143
1.0
 70
  1712
 72
     0
 73
     0
 74
     0
  7

 75
     0
147
1.0
 76
     0
 77
     2
 78
   300
148
0.0
149
0.0
100
AcDbLayout
  1
Model
 70
     1
 71
     0
 10
0.0
 20
0.0
 11
12.0
 21
9.0
 12
0.0
 22
0.0
 32
0.0
 14
0.0
 24
0.0
 34
0.0
 15
0.0
 25
0.0
 35
0.0
146
0.0
 13
0.0
 23
0.0
 33
0.0
 16
1.0
 26
0.0
 36
0.0
 17
0.0
 27
1.0
 37
0.0
 76
     0
330
1E
  0
MLINESTYLE
  5
17
102
{ACAD_REACTORS
330
16
102
}
330
16
100
AcDbMlineStyle
  2
STANDARD
 70
     0
  3

 62
   256
 51
90.0
 52
90.0
 71
     2
 49
0.5
 62
   256
  6
BYLAYER
 49
-0.5
 62
   256
  6
BYLAYER
  0
ACDBPLACEHOLDER
  5
F
102
{ACAD_REACTORS
330
E
102
}
330
E
  0
DICTIONARYVAR
  5
EB
102
{ACAD_REACTORS
330
EA
102
}
330
EA
100
DictionaryVariables
280
     0
  1
1
  0
DICTIONARYVAR
  5
EC
102
{ACAD_REACTORS
330
EA
102
}
330
EA
100
DictionaryVariables
280
     0
  1

  0
ENDSEC
  0
EOF
