  0
SECTION
  2
HEADER
  9
$ACADVER
  1
AC1018
  9
$ACADMAINTVER
 70
     2
  9
$DWGCODEPAGE
  3
ANSI_1252
  9
$INSBASE
 10
0.0
 20
0.0
 30
0.0
  9
$EXTMIN
 10
-0.0064082024694017
 20
-0.0090630292066862
 30
-0.0015258207003583
  9
$EXTMAX
 10
210.006409180358
 20
297.0090644122208
 30
0.0000000349246037
  9
$LIMMIN
 10
0.0
 20
0.0
  9
$LIMMAX
 10
210.0
 20
297.0
  9
$ORTHOMODE
 70
     1
  9
$REGENMODE
 70
     1
  9
$FILLMODE
 70
     1
  9
$QTEXTMODE
 70
     0
  9
$MIRRTEXT
 70
     1
  9
$LTSCALE
 40
10.0
  9
$ATTMODE
 70
     1
  9
$TEXTSIZE
 40
3.5
  9
$TRACEWID
 40
0.5
  9
$TEXTSTYLE
  7
STANDARD
  9
$CLAYER
  8
VOLL
  9
$CELTYPE
  6
ByLayer
  9
$CECOLOR
 62
   256
  9
$CELTSCALE
 40
1.0
  9
$DISPSILH
 70
     0
  9
$DIMSCALE
 40
1.0
  9
$DIMASZ
 40
3.5
  9
$DIMEXO
 40
1.0
  9
$DIMDLI
 40
7.0
  9
$DIMRND
 40
0.0
  9
$DIMDLE
 40
0.0
  9
$DIMEXE
 40
1.0
  9
$DIMTP
 40
0.0
  9
$DIMTM
 40
0.0
  9
$DIMTXT
 40
3.5
  9
$DIMCEN
 40
1.5
  9
$DIMTSZ
 40
0.0
  9
$DIMTOL
 70
     0
  9
$DIMLIM
 70
     0
  9
$DIMTIH
 70
     0
  9
$DIMTOH
 70
     0
  9
$DIMSE1
 70
     0
  9
$DIMSE2
 70
     0
  9
$DIMTAD
 70
     1
  9
$DIMZIN
 70
     8
  9
$DIMBLK
  1

  9
$DIMASO
 70
     1
  9
$DIMSHO
 70
     0
  9
$DIMPOST
  1

  9
$DIMAPOST
  1

  9
$DIMALT
 70
     0
  9
$DIMALTD
 70
     2
  9
$DIMALTF
 40
25.4
  9
$DIMLFAC
 40
1.0
  9
$DIMTOFL
 70
     1
  9
$DIMTVP
 40
0.0
  9
$DIMTIX
 70
     0
  9
$DIMSOXD
 70
     0
  9
$DIMSAH
 70
     0
  9
$DIMBLK1
  1

  9
$DIMBLK2
  1

  9
$DIMSTYLE
  2
Standard
  9
$DIMCLRD
 70
     0
  9
$DIMCLRE
 70
     0
  9
$DIMCLRT
 70
     1
  9
$DIMTFAC
 40
0.5
  9
$DIMGAP
 40
1.5
  9
$DIMJUST
 70
     0
  9
$DIMSD1
 70
     0
  9
$DIMSD2
 70
     0
  9
$DIMTOLJ
 70
     1
  9
$DIMTZIN
 70
     8
  9
$DIMALTZ
 70
     8
  9
$DIMALTTZ
 70
     8
  9
$DIMUPT
 70
     0
  9
$DIMDEC
 70
     2
  9
$DIMTDEC
 70
     2
  9
$DIMALTU
 70
     2
  9
$DIMALTTD
 70
     2
  9
$DIMTXSTY
  7
STANDARD
  9
$DIMAUNIT
 70
     0
  9
$DIMADEC
 70
     2
  9
$DIMALTRND
 40
0.0
  9
$DIMAZIN
 70
     2
  9
$DIMDSEP
 70
    46
  9
$DIMATFIT
 70
     3
  9
$DIMFRAC
 70
     0
  9
$DIMLDRBLK
  1

  9
$DIMLUNIT
 70
     2
  9
$DIMLWD
 70
    -2
  9
$DIMLWE
 70
    -2
  9
$DIMTMOVE
 70
     0
  9
$LUNITS
 70
     2
  9
$LUPREC
 70
     2
  9
$SKETCHINC
 40
1.0
  9
$FILLETRAD
 40
0.0
  9
$AUNITS
 70
     0
  9
$AUPREC
 70
     0
  9
$MENU
  1
ACAD
  9
$ELEVATION
 40
0.0
  9
$PELEVATION
 40
0.0
  9
$THICKNESS
 40
0.0
  9
$LIMCHECK
 70
     0
  9
$CHAMFERA
 40
0.0
  9
$CHAMFERB
 40
0.0
  9
$CHAMFERC
 40
0.0
  9
$CHAMFERD
 40
0.0
  9
$SKPOLY
 70
     0
  9
$TDCREATE
 40
2455397.823042361
  9
$TDUCREATE
 40
2455397.781375695
  9
$TDUPDATE
 40
2455583.408148680
  9
$TDUUPDATE
 40
2455583.366482014
  9
$TDINDWG
 40
0.0393577546
  9
$TDUSRTIMER
 40
0.0393577546
  9
$USRTIMER
 70
     1
  9
$ANGBASE
 50
0.0
  9
$ANGDIR
 70
     0
  9
$PDMODE
 70
     0
  9
$PDSIZE
 40
0.0
  9
$PLINEWID
 40
0.0
  9
$SPLFRAME
 70
     0
  9
$SPLINETYPE
 70
     6
  9
$SPLINESEGS
 70
     8
  9
$HANDSEED
  5
FDF
  9
$SURFTAB1
 70
     6
  9
$SURFTAB2
 70
     6
  9
$SURFTYPE
 70
     6
  9
$SURFU
 70
     6
  9
$SURFV
 70
     6
  9
$UCSBASE
  2

  9
$UCSNAME
  2

  9
$UCSORG
 10
0.0
 20
0.0
 30
0.0
  9
$UCSXDIR
 10
1.0
 20
0.0
 30
0.0
  9
$UCSYDIR
 10
0.0
 20
1.0
 30
0.0
  9
$UCSORTHOREF
  2

  9
$UCSORTHOVIEW
 70
     0
  9
$UCSORGTOP
 10
0.0
 20
0.0
 30
0.0
  9
$UCSORGBOTTOM
 10
0.0
 20
0.0
 30
0.0
  9
$UCSORGLEFT
 10
0.0
 20
0.0
 30
0.0
  9
$UCSORGRIGHT
 10
0.0
 20
0.0
 30
0.0
  9
$UCSORGFRONT
 10
0.0
 20
0.0
 30
0.0
  9
$UCSORGBACK
 10
0.0
 20
0.0
 30
0.0
  9
$PUCSBASE
  2

  9
$PUCSNAME
  2

  9
$PUCSORG
 10
0.0
 20
0.0
 30
0.0
  9
$PUCSXDIR
 10
1.0
 20
0.0
 30
0.0
  9
$PUCSYDIR
 10
0.0
 20
1.0
 30
0.0
  9
$PUCSORTHOREF
  2

  9
$PUCSORTHOVIEW
 70
     0
  9
$PUCSORGTOP
 10
0.0
 20
0.0
 30
0.0
  9
$PUCSORGBOTTOM
 10
0.0
 20
0.0
 30
0.0
  9
$PUCSORGLEFT
 10
0.0
 20
0.0
 30
0.0
  9
$PUCSORGRIGHT
 10
0.0
 20
0.0
 30
0.0
  9
$PUCSORGFRONT
 10
0.0
 20
0.0
 30
0.0
  9
$PUCSORGBACK
 10
0.0
 20
0.0
 30
0.0
  9
$USERI1
 70
     0
  9
$USERI2
 70
     0
  9
$USERI3
 70
     0
  9
$USERI4
 70
     0
  9
$USERI5
 70
     0
  9
$USERR1
 40
0.0
  9
$USERR2
 40
0.0
  9
$USERR3
 40
0.0
  9
$USERR4
 40
0.0
  9
$USERR5
 40
0.0
  9
$WORLDVIEW
 70
     1
  9
$SHADEDGE
 70
     3
  9
$SHADEDIF
 70
    70
  9
$TILEMODE
 70
     1
  9
$MAXACTVP
 70
    16
  9
$PINSBASE
 10
0.0
 20
0.0
 30
0.0
  9
$PLIMCHECK
 70
     0
  9
$PEXTMIN
 10
1.000000000000000E+20
 20
1.000000000000000E+20
 30
1.000000000000000E+20
  9
$PEXTMAX
 10
-1.000000000000000E+20
 20
-1.000000000000000E+20
 30
-1.000000000000000E+20
  9
$PLIMMIN
 10
0.0
 20
0.0
  9
$PLIMMAX
 10
12.0
 20
9.0
  9
$UNITMODE
 70
     0
  9
$VISRETAIN
 70
     0
  9
$PLINEGEN
 70
     0
  9
$PSLTSCALE
 70
     0
  9
$TREEDEPTH
 70
  3020
  9
$CMLSTYLE
  2
Standard
  9
$CMLJUST
 70
     0
  9
$CMLSCALE
 40
1.0
  9
$PROXYGRAPHICS
 70
     1
  9
$MEASUREMENT
 70
     0
  9
$CELWEIGHT
370
    -1
  9
$ENDCAPS
280
     0
  9
$JOINSTYLE
280
     0
  9
$LWDISPLAY
290
     0
  9
$INSUNITS
 70
     0
  9
$HYPERLINKBASE
  1

  9
$STYLESHEET
  1

  9
$XEDIT
290
     1
  9
$CEPSNTYPE
380
     0
  9
$PSTYLEMODE
290
     1
  9
$FINGERPRINTGUID
  2
{D68B0D02-A558-11D7-B632-000102183313}
  9
$VERSIONGUID
  2
{E63CA121-4BB5-4A82-BB9C-E0EB8B95CB74}
  9
$EXTNAMES
290
     1
  9
$PSVPSCALE
 40
0.0
  9
$OLESTARTUP
290
     0
  9
$SORTENTS
280
   127
  9
$INDEXCTL
280
     0
  9
$HIDETEXT
280
     0
  9
$XCLIPFRAME
290
     0
  9
$HALOGAP
280
     0
  9
$OBSCOLOR
 70
   257
  9
$OBSLTYPE
280
     0
  9
$INTERSECTIONDISPLAY
280
     0
  9
$INTERSECTIONCOLOR
 70
   257
  9
$DIMASSOC
280
     1
  9
$PROJECTNAME
  1

  0
ENDSEC
  0
SECTION
  2
CLASSES
  0
CLASS
  1
ACDBDICTIONARYWDFLT
  2
AcDbDictionaryWithDefault
  3
ObjectDBX Classes
 90
        0
 91
        1
280
     0
281
     0
  0
CLASS
  1
DICTIONARYVAR
  2
AcDbDictionaryVar
  3
ObjectDBX Classes
 90
        0
 91
        2
280
     0
281
     0
  0
ENDSEC
  0
SECTION
  2
TABLES
  0
TABLE
  2
VPORT
  5
8
330
0
100
AcDbSymbolTable
 70
     2
  0
VPORT
  5
FDE
330
8
100
AcDbSymbolTableRecord
100
AcDbViewportTableRecord
  2
*Active
 70
     0
 10
0.0
 20
0.0
 11
1.0
 21
1.0
 12
105.0
 22
148.5
 13
0.0
 23
0.0
 14
1.0
 24
1.0
 15
10.0
 25
10.0
 16
0.0
 26
0.0
 36
1.0
 17
0.0
 27
0.0
 37
0.0
 40
297.0563047800471
 41
1.336927223719676
 42
50.0
 43
0.0
 44
0.0
 50
0.0
 51
0.0
 71
     0
 72
  1500
 73
     1
 74
     0
 75
     0
 76
     0
 77
     0
 78
     0
281
     0
 65
     1
110
0.0
120
0.0
130
0.0
111
1.0
121
0.0
131
0.0
112
0.0
122
1.0
132
0.0
 79
     0
146
0.0
  0
ENDTAB
  0
TABLE
  2
LTYPE
  5
5
330
0
100
AcDbSymbolTable
 70
     2
  0
LTYPE
  5
13
330
5
100
AcDbSymbolTableRecord
100
AcDbLinetypeTableRecord
  2
ByBlock
 70
     0
  3

 72
    65
 73
     0
 40
0.0
  0
LTYPE
  5
14
330
5
100
AcDbSymbolTableRecord
100
AcDbLinetypeTableRecord
  2
ByLayer
 70
     0
  3

 72
    65
 73
     0
 40
0.0
  0
LTYPE
  5
15
330
5
100
AcDbSymbolTableRecord
100
AcDbLinetypeTableRecord
  2
Continuous
 70
     0
  3
Solid line
 72
    65
 73
     0
 40
0.0
  0
LTYPE
  5
25
330
5
100
AcDbSymbolTableRecord
100
AcDbLinetypeTableRecord
  2
STRICHPUNKT
 70
     0
  3
__ . __ . __ . __ . __ . __ . __ . __ . __ . __
 72
    65
 73
     4
 40
1.0
 49
0.5
 74
     0
 49
-0.25
 74
     0
 49
0.0
 74
     0
 49
-0.25
 74
     0
  0
ENDTAB
  0
TABLE
  2
LAYER
  5
2
330
0
100
AcDbSymbolTable
 70
     9
  0
LAYER
  5
10
330
2
100
AcDbSymbolTableRecord
100
AcDbLayerTableRecord
  2
0
 70
     0
 62
     7
  6
Continuous
370
    -3
390
F
  0
LAYER
  5
2A
330
2
100
AcDbSymbolTableRecord
100
AcDbLayerTableRecord
  2
VOLL
 70
     0
 62
     1
  6
Continuous
370
    -3
390
F
  0
LAYER
  5
2B
330
2
100
AcDbSymbolTableRecord
100
AcDbLayerTableRecord
  2
HILF
 70
     0
 62
     2
  6
Continuous
370
    -3
390
F
  0
LAYER
  5
2C
330
2
100
AcDbSymbolTableRecord
100
AcDbLayerTableRecord
  2
MITTEL
 70
     0
 62
     2
  6
STRICHPUNKT
370
    -3
390
F
  0
LAYER
  5
2F
330
2
100
AcDbSymbolTableRecord
100
AcDbLayerTableRecord
  2
BEM
 70
     0
 62
     7
  6
Continuous
370
    -3
390
F
  0
LAYER
  5
30
330
2
100
AcDbSymbolTableRecord
100
AcDbLayerTableRecord
  2
STEMPEL
 70
     0
 62
     3
  6
Continuous
370
    -3
390
F
  0
LAYER
  5
31
330
2
100
AcDbSymbolTableRecord
100
AcDbLayerTableRecord
  2
TEXT
 70
     0
 62
     7
  6
Continuous
370
    -3
390
F
  0
LAYER
  5
231
330
2
100
AcDbSymbolTableRecord
100
AcDbLayerTableRecord
  2
SCHRAFF
 70
     0
 62
     7
  6
Continuous
370
    -3
390
F
  0
LAYER
  5
232
330
2
100
AcDbSymbolTableRecord
100
AcDbLayerTableRecord
  2
DEFPOINTS
 70
     0
 62
     7
  6
Continuous
290
     0
370
    -3
390
F
  0
ENDTAB
  0
TABLE
  2
STYLE
  5
3
330
0
100
AcDbSymbolTable
 70
     2
  0
STYLE
  5
11
330
3
100
AcDbSymbolTableRecord
100
AcDbTextStyleTableRecord
  2
STANDARD
 70
     0
 40
0.0
 41
0.8
 50
0.0
 71
     0
 42
3.5
  3
simplex.shx
  4

  0
STYLE
  5
24
330
3
100
AcDbSymbolTableRecord
100
AcDbTextStyleTableRecord
  2
GREEKS
 70
     0
 40
0.0
 41
0.8
 50
0.0
 71
     0
 42
2.5
  3
SIMPLEX.shx
  4

  0
ENDTAB
  0
TABLE
  2
VIEW
  5
6
330
0
100
AcDbSymbolTable
 70
     0
  0
ENDTAB
  0
TABLE
  2
UCS
  5
7
330
0
100
AcDbSymbolTable
 70
     0
  0
ENDTAB
  0
TABLE
  2
APPID
  5
9
330
0
100
AcDbSymbolTable
 70
     1
  0
APPID
  5
12
330
9
100
AcDbSymbolTableRecord
100
AcDbRegAppTableRecord
  2
ACAD
 70
     0
  0
ENDTAB
  0
TABLE
  2
DIMSTYLE
  5
A
330
0
100
AcDbSymbolTable
 70
     1
100
AcDbDimStyleTable
 71
     1
340
9D
  0
DIMSTYLE
105
9D
102
{ACAD_REACTORS
330
E1D
330
F9B
102
}
330
A
100
AcDbSymbolTableRecord
100
AcDbDimStyleTableRecord
  2
Standard
 70
     0
340
11
  0
ENDTAB
  0
TABLE
  2
BLOCK_RECORD
  5
1
330
0
100
AcDbSymbolTable
 70
     4
  0
BLOCK_RECORD
  5
1E
102
{ACAD_XDICTIONARY
360
A0
102
}
330
1
100
AcDbSymbolTableRecord
100
AcDbBlockTableRecord
  2
*Model_Space
340
21
  0
BLOCK_RECORD
  5
1A
102
{ACAD_XDICTIONARY
360
A2
102
}
330
1
100
AcDbSymbolTableRecord
100
AcDbBlockTableRecord
  2
*Paper_Space
340
1D
  0
BLOCK_RECORD
  5
22
330
1
100
AcDbSymbolTableRecord
100
AcDbBlockTableRecord
  2
LOGO
340
0
102
{BLKREFS
331
9B
102
}
  0
BLOCK_RECORD
  5
E1E
330
1
100
AcDbSymbolTableRecord
100
AcDbBlockTableRecord
  2
*D1
340
0
  0
BLOCK_RECORD
  5
E66
330
1
100
AcDbSymbolTableRecord
100
AcDbBlockTableRecord
  2
*X2
340
0
102
{BLKREFS
331
F9A
102
}
  0
BLOCK_RECORD
  5
F9C
330
1
100
AcDbSymbolTableRecord
100
AcDbBlockTableRecord
  2
*D3
340
0
  0
ENDTAB
  0
ENDSEC
  0
SECTION
  2
BLOCKS
  0
BLOCK
  5
35
330
1E
100
AcDbEntity
  8
0
100
AcDbBlockBegin
  2
*Model_Space
 70
     0
 10
0.0
 20
0.0
 30
0.0
  3
*Model_Space
  1

  0
ENDBLK
  5
36
330
1E
100
AcDbEntity
  8
0
100
AcDbBlockEnd
  0
BLOCK
  5
33
330
1A
100
AcDbEntity
 67
     1
  8
0
100
AcDbBlockBegin
  2
*Paper_Space
 70
     0
 10
0.0
 20
0.0
 30
0.0
  3
*Paper_Space
  1

  0
ENDBLK
  5
34
330
1A
100
AcDbEntity
 67
     1
  8
0
100
AcDbBlockEnd
  0
BLOCK
  5
37
330
22
100
AcDbEntity
  8
0
100
AcDbBlockBegin
  2
LOGO
 70
     0
 10
0.0
 20
0.0
 30
0.0
  3
LOGO
  1

  0
ARC
  5
38
330
22
100
AcDbEntity
  8
0
100
AcDbCircle
 10
11.59973089678112
 20
-9.271599258481501
 30
0.0
 40
4.5
100
AcDbArc
 50
270.0
 51
231.0575587310159
  0
LINE
  5
39
330
22
100
AcDbEntity
  8
0
100
AcDbLine
 10
3.599730896781125
 20
-4.771599258481529
 30
0.0
 11
3.599730896781153
 21
-11.77159925848133
 31
0.0
  0
LINE
  5
3A
330
22
100
AcDbEntity
  8
0
100
AcDbLine
 10
2.599730896781125
 20
-4.771599258481529
 30
0.0
 11
2.599730896781153
 21
-11.77159925848133
 31
0.0
  0
CIRCLE
  5
3B
330
22
100
AcDbEntity
  8
0
100
AcDbCircle
 10
11.59973089678112
 20
-9.271599258481501
 30
0.0
 40
3.5
  0
ARC
  5
3C
330
22
100
AcDbEntity
  8
0
100
AcDbCircle
 10
31.59973089678115
 20
-9.271599258481472
 30
0.0
 40
4.5
100
AcDbArc
 50
270.0
 51
231.0575587310182
  0
LINE
  5
3D
330
22
100
AcDbEntity
  8
0
100
AcDbLine
 10
17.59973089678112
 20
-4.771599258481472
 30
0.0
 11
17.59973089678115
 21
-13.77159925848147
 31
0.0
  0
ARC
  5
3E
330
22
100
AcDbEntity
  8
0
100
AcDbCircle
 10
22.59973089678116
 20
-7.271599258481472
 30
0.0
 40
2.5
100
AcDbArc
 50
293.1161887722295
 51
90.0
  0
CIRCLE
  5
3F
330
22
100
AcDbEntity
  8
0
100
AcDbCircle
 10
31.59973089678115
 20
-9.271599258481472
 30
0.0
 40
3.5
  0
ARC
  5
40
330
22
100
AcDbEntity
  8
0
100
AcDbCircle
 10
4.599730896781153
 20
-11.77159925848133
 30
0.0
 40
1.0
100
AcDbArc
 50
180.0
 51
270.0
  0
ARC
  5
41
330
22
100
AcDbEntity
  8
0
100
AcDbCircle
 10
4.599730896781153
 20
-11.77159925848133
 30
0.0
 40
2.0
100
AcDbArc
 50
179.9999999999992
 51
270.0
  0
LINE
  5
42
330
22
100
AcDbEntity
  8
0
100
AcDbLine
 10
11.59973089678115
 20
-13.77159925848144
 30
0.0
 11
4.599730896781153
 21
-13.77159925848147
 31
0.0
  0
LINE
  5
43
330
22
100
AcDbEntity
  8
0
100
AcDbLine
 10
8.771303772034769
 20
-12.77159925848136
 30
0.0
 11
4.599730896781153
 21
-12.77159925848133
 31
0.0
  0
LINE
  5
44
330
22
100
AcDbEntity
  8
0
100
AcDbLine
 10
31.59973089678115
 20
-13.77159925848147
 30
0.0
 11
23.6715276665056
 21
-13.77159925848144
 31
0.0
  0
LINE
  5
45
330
22
100
AcDbEntity
  8
0
100
AcDbLine
 10
23.56565672307022
 20
-9.51278021337896
 30
0.0
 11
24.4388546544846
 21
-12.77159925848144
 31
0.0
  0
LINE
  5
46
330
22
100
AcDbEntity
  8
0
100
AcDbLine
 10
22.59973089678116
 20
-9.771599258481472
 30
0.0
 11
18.59973089678112
 21
-9.771599258481472
 31
0.0
  0
LINE
  5
47
330
22
100
AcDbEntity
  8
0
100
AcDbLine
 10
18.59973089678115
 20
-13.77159925848144
 30
0.0
 11
17.59973089678115
 21
-13.77159925848144
 31
0.0
  0
LINE
  5
48
330
22
100
AcDbEntity
  8
0
100
AcDbLine
 10
18.59973089678115
 20
-9.771599258481472
 30
0.0
 11
18.59973089678115
 21
-13.77159925848144
 31
0.0
  0
LINE
  5
49
330
22
100
AcDbEntity
  8
0
100
AcDbLine
 10
22.59973089678116
 20
-9.771599258481472
 30
0.0
 11
23.67152766650562
 21
-13.77159925848147
 31
0.0
  0
ARC
  5
4A
330
22
100
AcDbEntity
  8
0
100
AcDbCircle
 10
22.59973089678116
 20
-7.271599258481472
 30
0.0
 40
2.5
100
AcDbArc
 50
270.0
 51
270.0000000000007
  0
LINE
  5
4B
330
22
100
AcDbEntity
  8
0
100
AcDbLine
 10
28.77130377203494
 20
-12.77159925848147
 30
0.0
 11
24.43885465448463
 21
-12.77159925848144
 31
0.0
  0
LINE
  5
4C
330
22
100
AcDbEntity
  8
0
100
AcDbLine
 10
3.599730896781125
 20
-4.771599258481472
 30
0.0
 11
2.599730896781125
 21
-4.771599258481472
 31
0.0
  0
LINE
  5
4D
330
22
100
AcDbEntity
  8
0
100
AcDbLine
 10
22.59973089678116
 20
-8.771599258481472
 30
0.0
 11
18.59973089678115
 21
-8.771599258481472
 31
0.0
  0
LINE
  5
4E
330
22
100
AcDbEntity
  8
0
100
AcDbLine
 10
22.59973089678116
 20
-5.771599258481472
 30
0.0
 11
18.59973089678115
 21
-5.771599258481472
 31
0.0
  0
LINE
  5
4F
330
22
100
AcDbEntity
  8
0
100
AcDbLine
 10
22.59973089678116
 20
-4.771599258481472
 30
0.0
 11
17.59973089678115
 21
-4.771599258481472
 31
0.0
  0
LINE
  5
50
330
22
100
AcDbEntity
  8
0
100
AcDbLine
 10
18.59973089678115
 20
-5.771599258481472
 30
0.0
 11
18.59973089678115
 21
-8.771599258481472
 31
0.0
  0
ARC
  5
51
330
22
100
AcDbEntity
  8
0
100
AcDbCircle
 10
22.59973089678116
 20
-7.271599258481472
 30
0.0
 40
1.5
100
AcDbArc
 50
270.0
 51
90.0
  0
ENDBLK
  5
52
330
22
100
AcDbEntity
  8
0
100
AcDbBlockEnd
  0
BLOCK
  5
E28
330
E1E
100
AcDbEntity
  8
0
100
AcDbBlockBegin
  2
*D1
 70
     1
 10
0.0
 20
0.0
 30
0.0
  3
*D1
  1

  0
LINE
  5
FB1
330
E1E
100
AcDbEntity
  8
BEM
 62
     0
370
    -2
100
AcDbLine
 10
58.72296279449819
 20
221.2752687598195
 30
0.0
 11
58.72296279449819
 21
206.8842609474693
 31
0.0
  0
LINE
  5
FB2
330
E1E
100
AcDbEntity
  8
BEM
 62
     0
370
    -2
100
AcDbLine
 10
164.7229627944982
 20
221.2752687598195
 30
0.0
 11
164.7229627944982
 21
206.8842609474693
 31
0.0
  0
LINE
  5
FB3
330
E1E
100
AcDbEntity
  8
BEM
 62
     0
370
    -2
100
AcDbLine
 10
62.22296279449818
 20
207.8842609474693
 30
0.0
 11
161.2229627944982
 21
207.8842609474693
 31
0.0
  0
SOLID
  5
FB4
330
E1E
100
AcDbEntity
  8
BEM
 62
     0
100
AcDbTrace
 10
62.22296279449818
 20
208.4675942808027
 30
0.0
 11
62.22296279449818
 21
207.300927614136
 31
0.0
 12
58.72296279449819
 22
207.8842609474693
 32
0.0
 13
58.72296279449819
 23
207.8842609474693
 33
0.0
  0
SOLID
  5
FB5
330
E1E
100
AcDbEntity
  8
BEM
 62
     0
100
AcDbTrace
 10
161.2229627944982
 20
208.4675942808027
 30
0.0
 11
161.2229627944982
 21
207.300927614136
 31
0.0
 12
164.7229627944982
 22
207.8842609474693
 32
0.0
 13
164.7229627944982
 23
207.8842609474693
 33
0.0
  0
MTEXT
  5
FB6
330
E1E
100
AcDbEntity
  8
BEM
 62
     1
100
AcDbMText
 10
111.7229627944982
 20
211.1342609474693
 30
0.0
 40
3.5
 41
0.0
 71
     5
 72
     1
  1
\A1;%%c106
 73
     1
 44
1.0
  0
POINT
  5
FB7
330
E1E
100
AcDbEntity
  8
DEFPOINTS
 62
     0
100
AcDbPoint
 10
58.72296279449819
 20
222.2752687598195
 30
0.0
  0
POINT
  5
FB8
330
E1E
100
AcDbEntity
  8
DEFPOINTS
 62
     0
100
AcDbPoint
 10
164.7229627944982
 20
222.2752687598195
 30
0.0
  0
POINT
  5
FB9
330
E1E
100
AcDbEntity
  8
DEFPOINTS
 62
     0
100
AcDbPoint
 10
164.7229627944982
 20
207.8842609474693
 30
0.0
  0
ENDBLK
  5
E29
330
E1E
100
AcDbEntity
  8
0
100
AcDbBlockEnd
  0
BLOCK
  5
E67
330
E66
100
AcDbEntity
  8
0
100
AcDbBlockBegin
  2
*X2
 70
     1
 10
0.0
 20
0.0
 30
0.0
  3
*X2
  1

  0
LINE
  5
E68
330
E66
100
AcDbEntity
  8
0
 62
     0
100
AcDbLine
 10
281.6491510868517
 20
236.5710937862093
 30
0.0
 11
284.3624036067751
 21
239.2843463061327
 31
0.0
  0
LINE
  5
E69
330
E66
100
AcDbEntity
  8
0
 62
     0
100
AcDbLine
 10
280.1249461741103
 20
237.6985393029174
 30
0.0
 11
284.7313725093238
 21
242.3049656381309
 31
0.0
  0
LINE
  5
E6A
330
E66
100
AcDbEntity
  8
0
 62
     0
100
AcDbLine
 10
279.7313725093238
 20
239.9566160675805
 30
0.0
 11
284.7313725093238
 21
244.9566160675805
 31
0.0
  0
LINE
  5
E6B
330
E66
100
AcDbEntity
  8
0
 62
     0
100
AcDbLine
 10
279.7313725093238
 20
242.6082664970301
 30
0.0
 11
284.7313725093238
 21
247.60826649703
 31
0.0
  0
LINE
  5
E6C
330
E66
100
AcDbEntity
  8
0
 62
     0
100
AcDbLine
 10
279.7313725093238
 20
245.2599169264796
 30
0.0
 11
284.7313725093238
 21
250.2599169264796
 31
0.0
  0
LINE
  5
E6D
330
E66
100
AcDbEntity
  8
0
 62
     0
100
AcDbLine
 10
279.7313725093238
 20
247.9115673559292
 30
0.0
 11
283.390898939604
 21
251.5710937862094
 31
0.0
  0
LINE
  5
E6E
330
E66
100
AcDbEntity
  8
0
 62
     0
100
AcDbLine
 10
279.2392485101544
 20
250.0710937862093
 30
0.0
 11
280.7392485101544
 21
251.5710937862094
 31
0.0
  0
LINE
  5
E6F
330
E66
100
AcDbEntity
  8
0
 62
     0
100
AcDbLine
 10
276.5875980807048
 20
250.0710937862093
 30
0.0
 11
278.0875980807049
 21
251.5710937862094
 31
0.0
  0
LINE
  5
E70
330
E66
100
AcDbEntity
  8
0
 62
     0
100
AcDbLine
 10
381.2313725093238
 20
251.3005014662957
 30
0.0
 11
381.5019648292375
 21
251.5710937862094
 31
0.0
  0
LINE
  5
E71
330
E66
100
AcDbEntity
  8
0
 62
     0
100
AcDbLine
 10
381.2313725093238
 20
248.6488510368461
 30
0.0
 11
384.153615258687
 21
251.5710937862094
 31
0.0
  0
LINE
  5
E72
330
E66
100
AcDbEntity
  8
0
 62
     0
100
AcDbLine
 10
381.2313725093238
 20
245.9972006073966
 30
0.0
 11
386.8052656881366
 21
251.5710937862094
 31
0.0
  0
LINE
  5
E73
330
E66
100
AcDbEntity
  8
0
 62
     0
100
AcDbLine
 10
381.2313725093238
 20
243.345550177947
 30
0.0
 11
386.2313725093237
 21
248.345550177947
 31
0.0
  0
LINE
  5
E74
330
E66
100
AcDbEntity
  8
0
 62
     0
100
AcDbLine
 10
387.9569161175861
 20
250.0710937862093
 30
0.0
 11
389.3315439155017
 21
251.4457215841249
 31
0.0
  0
LINE
  5
E75
330
E66
100
AcDbEntity
  8
0
 62
     0
100
AcDbLine
 10
381.2313725093238
 20
240.6938997484975
 30
0.0
 11
386.2313725093237
 21
245.6938997484974
 31
0.0
  0
LINE
  5
E76
330
E66
100
AcDbEntity
  8
0
 62
     0
100
AcDbLine
 10
390.6085665470357
 20
250.0710937862093
 30
0.0
 11
390.765814838115
 21
250.2283420772887
 31
0.0
  0
LINE
  5
E77
330
E66
100
AcDbEntity
  8
0
 62
     0
100
AcDbLine
 10
381.7949140539726
 20
238.6057908636967
 30
0.0
 11
386.2313725093238
 21
243.0422493190479
 31
0.0
  0
LINE
  5
E78
330
E66
100
AcDbEntity
  8
0
 62
     0
100
AcDbLine
 10
382.4118674059347
 20
236.5710937862092
 30
0.0
 11
386.2313725093238
 21
240.3905988895984
 31
0.0
  0
LINE
  5
E79
330
E66
100
AcDbEntity
  8
0
 62
     0
100
AcDbLine
 10
385.136859379744
 20
236.644435330569
 30
0.0
 11
385.6876134504642
 21
237.1951894012892
 31
0.0
  0
LINE
  5
E7A
330
E66
100
AcDbEntity
  8
0
 62
     0
100
AcDbLine
 10
284.7313725093238
 20
250.9020142394859
 30
0.0
 11
284.0622929626004
 21
251.5710937862094
 31
0.0
  0
LINE
  5
E7B
330
E66
100
AcDbEntity
  8
0
 62
     0
100
AcDbLine
 10
284.7313725093238
 20
248.2503638100364
 30
0.0
 11
281.4106425331508
 21
251.5710937862094
 31
0.0
  0
LINE
  5
E7C
330
E66
100
AcDbEntity
  8
0
 62
     0
100
AcDbLine
 10
284.7313725093238
 20
245.5987133805869
 30
0.0
 11
278.7589921037013
 21
251.5710937862094
 31
0.0
  0
LINE
  5
E7D
330
E66
100
AcDbEntity
  8
0
 62
     0
100
AcDbLine
 10
284.7313725093238
 20
242.9470629511373
 30
0.0
 11
279.7313725093238
 21
247.9470629511373
 31
0.0
  0
LINE
  5
E7E
330
E66
100
AcDbEntity
  8
0
 62
     0
100
AcDbLine
 10
277.6073416742517
 20
250.0710937862093
 30
0.0
 11
276.3463101187266
 21
251.3321253417344
 31
0.0
  0
LINE
  5
E7F
330
E66
100
AcDbEntity
  8
0
 62
     0
100
AcDbLine
 10
284.6699381871831
 20
240.3568468438284
 30
0.0
 11
279.7313725093238
 21
245.2954125216877
 31
0.0
  0
LINE
  5
E80
330
E66
100
AcDbEntity
  8
0
 62
     0
100
AcDbLine
 10
284.0790298896246
 20
238.2961047119374
 30
0.0
 11
279.7313725093238
 21
242.6437620922382
 31
0.0
  0
LINE
  5
E81
330
E66
100
AcDbEntity
  8
0
 62
     0
100
AcDbLine
 10
283.152390385903
 20
236.5710937862093
 30
0.0
 11
279.7313725093238
 21
239.9921116627886
 31
0.0
  0
LINE
  5
E82
330
E66
100
AcDbEntity
  8
0
 62
     0
100
AcDbLine
 10
383.915106704986
 20
236.5710937862092
 30
0.0
 11
381.7605427919829
 21
238.7256576992125
 31
0.0
  0
LINE
  5
E83
330
E66
100
AcDbEntity
  8
0
 62
     0
100
AcDbLine
 10
385.7489977694868
 20
237.388853151158
 30
0.0
 11
381.2313725093238
 21
241.9064784113211
 31
0.0
  0
LINE
  5
E84
330
E66
100
AcDbEntity
  8
0
 62
     0
100
AcDbLine
 10
386.2313725093238
 20
239.5581288407707
 30
0.0
 11
381.2313725093238
 21
244.5581288407707
 31
0.0
  0
LINE
  5
E85
330
E66
100
AcDbEntity
  8
0
 62
     0
100
AcDbLine
 10
386.2313725093238
 20
242.2097792702202
 30
0.0
 11
381.2313725093238
 21
247.2097792702203
 31
0.0
  0
LINE
  5
E86
330
E66
100
AcDbEntity
  8
0
 62
     0
100
AcDbLine
 10
386.2313725093237
 20
244.8614296996698
 30
0.0
 11
381.2313725093238
 21
249.8614296996698
 31
0.0
  0
LINE
  5
E87
330
E66
100
AcDbEntity
  8
0
 62
     0
100
AcDbLine
 10
386.2313725093237
 20
247.5130801291194
 30
0.0
 11
382.1733588522337
 21
251.5710937862094
 31
0.0
  0
LINE
  5
E88
330
E66
100
AcDbEntity
  8
0
 62
     0
100
AcDbLine
 10
386.3250092816834
 20
250.0710937862093
 30
0.0
 11
384.8250092816833
 21
251.5710937862094
 31
0.0
  0
LINE
  5
E89
330
E66
100
AcDbEntity
  8
0
 62
     0
100
AcDbLine
 10
388.9766597111329
 20
250.0710937862093
 30
0.0
 11
387.4766597111328
 21
251.5710937862094
 31
0.0
  0
ENDBLK
  5
E8A
330
E66
100
AcDbEntity
  8
0
100
AcDbBlockEnd
  0
BLOCK
  5
FA6
330
F9C
100
AcDbEntity
  8
0
100
AcDbBlockBegin
  2
*D3
 70
     1
 10
0.0
 20
0.0
 30
0.0
  3
*D3
  1

  0
LINE
  5
FCD
330
F9C
100
AcDbEntity
  8
BEM
 62
     0
370
    -2
100
AcDbLine
 10
49.2229627944983
 20
233.474327474625
 30
0.0
 11
49.2229627944983
 21
272.4605886172592
 31
0.0
  0
LINE
  5
FCE
330
F9C
100
AcDbEntity
  8
BEM
 62
     0
370
    -2
100
AcDbLine
 10
174.2229627944982
 20
233.474327474625
 30
0.0
 11
174.2229627944982
 21
272.4605886172592
 31
0.0
  0
LINE
  5
FCF
330
F9C
100
AcDbEntity
  8
BEM
 62
     0
370
    -2
100
AcDbLine
 10
52.7229627944983
 20
271.4605886172592
 30
0.0
 11
170.7229627944982
 21
271.4605886172592
 31
0.0
  0
SOLID
  5
FD0
330
F9C
100
AcDbEntity
  8
BEM
 62
     0
100
AcDbTrace
 10
52.7229627944983
 20
272.0439219505925
 30
0.0
 11
52.7229627944983
 21
270.8772552839259
 31
0.0
 12
49.2229627944983
 22
271.4605886172592
 32
0.0
 13
49.2229627944983
 23
271.4605886172592
 33
0.0
  0
SOLID
  5
FD1
330
F9C
100
AcDbEntity
  8
BEM
 62
     0
100
AcDbTrace
 10
170.7229627944982
 20
272.0439219505925
 30
0.0
 11
170.7229627944982
 21
270.8772552839259
 31
0.0
 12
174.2229627944982
 22
271.4605886172592
 32
0.0
 13
174.2229627944982
 23
271.4605886172592
 33
0.0
  0
MTEXT
  5
FD2
330
F9C
100
AcDbEntity
  8
BEM
 62
     1
100
AcDbMText
 10
111.7229627944982
 20
274.7105886172592
 30
0.0
 40
3.5
 41
0.0
 71
     5
 72
     1
  1
\A1;%%c125
 73
     1
 44
1.0
  0
POINT
  5
FD3
330
F9C
100
AcDbEntity
  8
DEFPOINTS
 62
     0
100
AcDbPoint
 10
49.2229627944983
 20
232.474327474625
 30
0.0
  0
POINT
  5
FD4
330
F9C
100
AcDbEntity
  8
DEFPOINTS
 62
     0
100
AcDbPoint
 10
174.2229627944982
 20
232.474327474625
 30
0.0
  0
POINT
  5
FD5
330
F9C
100
AcDbEntity
  8
DEFPOINTS
 62
     0
100
AcDbPoint
 10
174.2229627944982
 20
271.4605886172592
 30
0.0
  0
ENDBLK
  5
FA7
330
F9C
100
AcDbEntity
  8
0
100
AcDbBlockEnd
  0
ENDSEC
  0
SECTION
  2
ENTITIES
  0
LINE
  5
57
330
1E
100
AcDbEntity
  8
STEMPEL
100
AcDbLine
 10
205.0
 20
55.00000000000003
 30
0.0
 11
19.99999999999998
 21
55.0
 31
0.0
  0
LINE
  5
58
330
1E
100
AcDbEntity
  8
STEMPEL
100
AcDbLine
 10
68.00000000000006
 20
54.99999999999997
 30
0.0
 11
68.0
 21
4.999999999999985
 31
0.0
  0
LINE
  5
59
330
1E
100
AcDbEntity
  8
STEMPEL
100
AcDbLine
 10
110.0
 20
55.00000000000003
 30
0.0
 11
110.0
 21
4.999999999999985
 31
0.0
  0
LINE
  5
5A
330
1E
100
AcDbEntity
  8
STEMPEL
100
AcDbLine
 10
166.0
 20
54.99999999999989
 30
0.0
 11
166.0
 21
20.0
 31
0.0
  0
LINE
  5
5B
330
1E
100
AcDbEntity
  8
STEMPEL
100
AcDbLine
 10
67.99999999999994
 20
14.99999999999998
 30
0.0
 11
19.99999999999998
 21
14.99999999999998
 31
0.0
  0
LINE
  5
5C
330
1E
100
AcDbEntity
  8
STEMPEL
100
AcDbLine
 10
205.0
 20
20.0
 30
0.0
 11
68.00000000000006
 21
19.99999999999998
 31
0.0
  0
LINE
  5
5D
330
1E
100
AcDbEntity
  8
STEMPEL
100
AcDbLine
 10
205.0
 20
40.0
 30
0.0
 11
68.00000000000006
 21
39.99999999999997
 31
0.0
  0
LINE
  5
5E
330
1E
100
AcDbEntity
  8
VOLL
100
AcDbLine
 10
27.00000000000005
 20
55.00000000000003
 30
0.0
 11
26.99999999999999
 21
4.999999999999985
 31
0.0
  0
LINE
  5
5F
330
1E
100
AcDbEntity
  8
VOLL
100
AcDbLine
 10
47.00000000000005
 20
54.99999999999997
 30
0.0
 11
47.0
 21
4.999999999999985
 31
0.0
  0
LINE
  5
60
330
1E
100
AcDbEntity
  8
VOLL
100
AcDbLine
 10
57.00000000000006
 20
54.99999999999997
 30
0.0
 11
57.0
 21
4.999999999999985
 31
0.0
  0
LINE
  5
61
330
1E
100
AcDbEntity
  8
VOLL
100
AcDbLine
 10
77.00000000000006
 20
39.99999999999997
 30
0.0
 11
77.00000000000006
 21
19.99999999999998
 31
0.0
  0
LINE
  5
62
330
1E
100
AcDbEntity
  8
VOLL
100
AcDbLine
 10
90.00000000000005
 20
54.99999999999992
 30
0.0
 11
90.0
 21
19.99999999999998
 31
0.0
  0
LINE
  5
63
330
1E
100
AcDbEntity
  8
HILF
100
AcDbLine
 10
20.00000000000004
 20
50.00000000000003
 30
0.0
 11
68.00000000000006
 21
50.00000000000003
 31
0.0
  0
LINE
  5
64
330
1E
100
AcDbEntity
  8
HILF
100
AcDbLine
 10
20.00000000000004
 20
45.00000000000002
 30
0.0
 11
68.00000000000006
 21
45.00000000000002
 31
0.0
  0
LINE
  5
65
330
1E
100
AcDbEntity
  8
HILF
100
AcDbLine
 10
20.00000000000004
 20
39.99999999999997
 30
0.0
 11
68.00000000000006
 21
39.99999999999997
 31
0.0
  0
LINE
  5
66
330
1E
100
AcDbEntity
  8
HILF
100
AcDbLine
 10
20.00000000000004
 20
34.99999999999997
 30
0.0
 11
68.00000000000006
 21
34.99999999999997
 31
0.0
  0
LINE
  5
67
330
1E
100
AcDbEntity
  8
HILF
100
AcDbLine
 10
20.00000000000004
 20
29.99999999999999
 30
0.0
 11
68.00000000000006
 21
29.99999999999999
 31
0.0
  0
LINE
  5
68
330
1E
100
AcDbEntity
  8
HILF
100
AcDbLine
 10
20.00000000000004
 20
24.99999999999999
 30
0.0
 11
68.00000000000006
 21
24.99999999999999
 31
0.0
  0
LINE
  5
69
330
1E
100
AcDbEntity
  8
HILF
100
AcDbLine
 10
20.00000000000004
 20
19.99999999999998
 30
0.0
 11
68.00000000000006
 21
19.99999999999998
 31
0.0
  0
LINE
  5
6A
330
1E
100
AcDbEntity
  8
HILF
100
AcDbLine
 10
68.00000000000006
 20
34.99999999999997
 30
0.0
 11
110.0
 21
34.99999999999997
 31
0.0
  0
LINE
  5
6B
330
1E
100
AcDbEntity
  8
HILF
100
AcDbLine
 10
68.00000000000006
 20
29.99999999999999
 30
0.0
 11
110.0
 21
29.99999999999999
 31
0.0
  0
LINE
  5
6C
330
1E
100
AcDbEntity
  8
HILF
100
AcDbLine
 10
68.00000000000006
 20
24.99999999999999
 30
0.0
 11
110.0
 21
24.99999999999999
 31
0.0
  0
LINE
  5
6D
330
1E
100
AcDbEntity
  8
HILF
100
AcDbLine
 10
112.3868400548474
 20
42.01879123782069
 30
0.0
 11
162.4176958278155
 21
42.01879123782069
 31
0.0
  0
LINE
  5
6E
330
1E
100
AcDbEntity
  8
HILF
100
AcDbLine
 10
112.3868400548474
 20
34.99999999999997
 30
0.0
 11
162.4176958278155
 21
34.99999999999997
 31
0.0
  0
LINE
  5
6F
330
1E
100
AcDbEntity
  8
HILF
100
AcDbLine
 10
112.3868400548474
 20
29.99999999999999
 30
0.0
 11
162.4176958278155
 21
29.99999999999999
 31
0.0
  0
LINE
  5
70
330
1E
100
AcDbEntity
  8
HILF
100
AcDbLine
 10
112.3868400548474
 20
24.99999999999999
 30
0.0
 11
162.4176958278155
 21
24.99999999999999
 31
0.0
  0
LINE
  5
71
330
1E
100
AcDbEntity
  8
VOLL
100
AcDbLine
 10
166.0
 20
30.0
 30
0.0
 11
205.0
 21
30.0
 31
0.0
  0
LINE
  5
72
330
1E
100
AcDbEntity
  8
HILF
100
AcDbLine
 10
168.3619308148496
 20
41.88991818477913
 30
0.0
 11
202.4294419663364
 21
41.88991818477913
 31
0.0
  0
LINE
  5
73
330
1E
100
AcDbEntity
  8
HILF
100
AcDbLine
 10
111.7454849644942
 20
7.446991290141568
 30
0.0
 11
202.4294419663364
 21
7.446991290141568
 31
0.0
  0
TEXT
  5
74
330
1E
100
AcDbEntity
  8
TEXT
100
AcDbText
 10
31.9308298981591
 20
9.336909474920659
 30
0.0
 40
2.0
  1
Änderung
 41
0.8
  7
GREEKS
 72
     1
 11
37.30225846958767
 21
9.336909474920659
 31
0.0
100
AcDbText
  0
TEXT
  5
75
330
1E
100
AcDbEntity
  8
TEXT
100
AcDbText
 10
71.75817860751886
 20
51.23104475435443
 30
0.0
 40
2.5
  1
Maßstab
 41
0.8
  7
GREEKS
100
AcDbText
  0
TEXT
  5
76
330
1E
100
AcDbEntity
  8
TEXT
100
AcDbText
 10
92.14294773670257
 20
51.20920842174095
 30
0.0
 40
2.5
  1
Zul. Abw.
 41
0.8
  7
GREEKS
100
AcDbText
  0
TEXT
  5
77
330
1E
100
AcDbEntity
  8
TEXT
100
AcDbText
 10
112.4389701904505
 20
51.27446640058898
 30
0.0
 40
2.5
  1
Benennung
 41
0.8
  7
GREEKS
100
AcDbText
  0
TEXT
  5
78
330
1E
100
AcDbEntity
  8
TEXT
100
AcDbText
 10
168.089377478817
 20
51.15660172685682
 30
0.0
 40
2.5
  1
Zeichnungs Nr.
 41
0.8
  7
GREEKS
100
AcDbText
  0
TEXT
  5
79
330
1E
100
AcDbEntity
  8
TEXT
100
AcDbText
 10
112.371119195568
 20
15.42280285096528
 30
0.0
 40
2.5
  1
Bauvorhaben
 41
0.8
  7
GREEKS
100
AcDbText
  0
TEXT
  5
7A
330
1E
100
AcDbEntity
  8
TEXT
100
AcDbText
 10
168.3619308148496
 20
36.59059118549985
 30
0.0
 40
2.5
  1
Ersatz für:
 41
0.8
  7
GREEKS
100
AcDbText
  0
TEXT
  5
7B
330
1E
100
AcDbEntity
  8
TEXT
100
AcDbText
 10
24.13320553522878
 20
6.827329230135958
 30
0.0
 40
2.0
  1
Index
 50
90.0
 41
0.8
  7
GREEKS
100
AcDbText
  0
TEXT
  5
7C
330
1E
100
AcDbEntity
  8
TEXT
100
AcDbText
 10
50.04673380377405
 20
9.33578134669905
 30
0.0
 40
2.0
  1
Tag
 41
0.8
  7
GREEKS
 72
     1
 11
51.91340047044072
 21
9.33578134669905
 31
0.0
100
AcDbText
  0
TEXT
  5
7D
330
1E
100
AcDbEntity
  8
TEXT
100
AcDbText
 10
59.50613721932963
 20
9.29662108483204
 30
0.0
 40
2.0
  1
Name
 41
0.8
  7
GREEKS
 72
     1
 11
62.66804198123439
 21
9.29662108483204
 31
0.0
100
AcDbText
  0
TEXT
  5
7E
330
1E
100
AcDbEntity
  8
TEXT
100
AcDbText
 10
81.16558365768254
 20
36.65940250614963
 30
0.0
 40
2.0
  1
Tag
 41
0.8
  7
GREEKS
100
AcDbText
  0
TEXT
  5
7F
330
1E
100
AcDbEntity
  8
TEXT
100
AcDbText
 10
96.23132921131475
 20
36.65480545957612
 30
0.0
 40
2.0
  1
Name
 41
0.8
  7
GREEKS
100
AcDbText
  0
TEXT
  5
80
330
1E
100
AcDbEntity
  8
TEXT
100
AcDbText
 10
68.79180635838077
 20
31.81495184808982
 30
0.0
 40
2.0
  1
Gez.
 41
0.8
  7
GREEKS
100
AcDbText
  0
TEXT
  5
81
330
1E
100
AcDbEntity
  8
TEXT
100
AcDbText
 10
68.77575432858361
 20
26.84463145714189
 30
0.0
 40
2.0
  1
Gepr.
 41
0.8
  7
GREEKS
100
AcDbText
  0
TEXT
  5
82
330
1E
100
AcDbEntity
  8
TEXT
100
AcDbText
 10
68.80033886936519
 20
21.76473194824904
 30
0.0
 40
2.0
  1
Norm.
 41
0.8
  7
GREEKS
100
AcDbText
  0
LINE
  5
83
330
1E
100
AcDbEntity
  8
STEMPEL
100
AcDbLine
 10
24.99999999999995
 20
5.0
 30
0.0
 11
205.0
 21
5.0
 31
0.0
  0
TEXT
  5
84
330
1E
100
AcDbEntity
  8
TEXT
100
AcDbText
 10
168.6200430748503
 20
26.03708088939301
 30
0.0
 40
2.5
  1
ersetzt durch:
 41
0.8
  7
GREEKS
100
AcDbText
  0
LINE
  5
85
330
1E
100
AcDbEntity
  8
STEMPEL
100
AcDbLine
 10
205.0
 20
5.0
 30
0.0
 11
19.99999999999994
 21
5.0
 31
0.0
  0
LINE
  5
86
330
1E
100
AcDbEntity
  8
STEMPEL
100
AcDbLine
 10
205.0
 20
5.0
 30
0.0
 11
205.0
 21
292.0
 31
0.0
  0
LINE
  5
87
330
1E
100
AcDbEntity
  8
STEMPEL
100
AcDbLine
 10
20.0
 20
5.0
 30
0.0
 11
19.99999999999994
 21
292.0
 31
0.0
  0
LINE
  5
88
330
1E
100
AcDbEntity
  8
STEMPEL
100
AcDbLine
 10
205.0
 20
292.0
 30
0.0
 11
19.99999999999994
 21
292.0
 31
0.0
  0
LINE
  5
89
330
1E
100
AcDbEntity
  8
HILF
100
AcDbLine
 10
0.0
 20
0.0
 30
0.0
 11
-0.0000000000000568
 21
297.0
 31
0.0
  0
LINE
  5
8A
330
1E
100
AcDbEntity
  8
HILF
100
AcDbLine
 10
210.0
 20
297.0000000000001
 30
0.0
 11
0.0
 21
297.0
 31
0.0
  0
LINE
  5
8B
330
1E
100
AcDbEntity
  8
HILF
100
AcDbLine
 10
210.0
 20
0.0
 30
0.0
 11
0.0
 21
0.0
 31
0.0
  0
LINE
  5
8C
330
1E
100
AcDbEntity
  8
HILF
100
AcDbLine
 10
15.54383567856928
 20
148.5
 30
0.0
 11
0.0000000000000568
 21
148.5
 31
0.0
  0
TEXT
  5
8D
330
1E
100
AcDbEntity
  8
TEXT
100
AcDbText
 10
69.31105491105199
 20
36.57012735575833
 30
0.0
 40
2.0
  1
2011
 41
0.8
  7
GREEKS
100
AcDbText
  0
LINE
  5
8E
330
1E
100
AcDbEntity
  8
HILF
100
AcDbLine
 10
210.0
 20
-0.0000000000000568
 30
0.0
 11
210.0
 21
297.0
 31
0.0
  0
TEXT
  5
8F
330
1E
100
AcDbEntity
  8
VOLL
100
AcDbText
 10
78.07675471698113
 20
31.02594776470585
 30
0.0
 40
1.8
  1

  7
GREEKS
100
AcDbText
  0
TEXT
  5
90
330
1E
100
AcDbEntity
  8
TEXT
100
AcDbText
 10
20.92754975488837
 20
55.83599999999997
 30
0.0
 40
2.5
  1
Erstellt mit AUTOCAD 2004
 41
0.8
  7
GREEKS
100
AcDbText
  0
TEXT
  5
91
330
1E
100
AcDbEntity
  8
TEXT
100
AcDbText
 10
97.21080242906285
 20
31.54481959861755
 30
0.0
 40
2.0
  1
Koeh
 41
0.8
  7
GREEKS
 72
     1
 11
99.83937385763429
 21
31.54481959861755
 31
0.0
100
AcDbText
  0
TEXT
  5
92
330
1E
100
AcDbEntity
  8
TEXT
 62
     1
100
AcDbText
 10
171.8905253938001
 20
44.07450714456979
 30
0.0
 40
3.5
  1
00805100W
 41
0.8
  7
GREEKS
 72
     1
 11
183.6238587271335
 21
44.07450714456979
 31
0.0
100
AcDbText
  0
TEXT
  5
93
330
1E
100
AcDbEntity
  8
TEXT
 62
     1
100
AcDbText
 10
75.25031532409435
 20
44.07450714456979
 30
0.0
 40
3.5
  1
1:1
 41
0.8
  7
GREEKS
100
AcDbText
  0
TEXT
  5
94
330
1E
100
AcDbEntity
  8
TEXT
100
AcDbText
 10
80.50426045887993
 20
31.55382520412866
 30
0.0
 40
2.0
  1
21.01.
 41
0.8
  7
GREEKS
 72
     1
 11
83.70426045887993
 21
31.55382520412866
 31
0.0
100
AcDbText
  0
TEXT
  5
95
330
1E
100
AcDbEntity
  8
TEXT
 62
     1
100
AcDbText
 10
113.4467865528701
 20
43.70874394626889
 30
0.0
 40
3.5
  1
Verschlußstopfen DN100
 41
0.75
  7
GREEKS
100
AcDbText
  0
TEXT
  5
96
330
1E
100
AcDbEntity
  8
TEXT
100
AcDbText
 10
112.5648195562657
 20
35.75167208792644
 30
0.0
 40
2.5
  1
mit Schraubverschluß
 41
0.8
  7
GREEKS
100
AcDbText
  0
TEXT
  5
98
330
1E
100
AcDbEntity
  8
TEXT
100
AcDbText
 10
112.5648195562657
 20
25.82005971521079
 30
0.0
 40
2.5
  1
EDV-Art.Nr.: 00805.100X
 41
0.8
  7
GREEKS
100
AcDbText
  0
TEXT
  5
99
330
1E
100
AcDbEntity
  8
TEXT
100
AcDbText
 10
112.4918750788913
 20
21.31487076511316
 30
0.0
 40
2.0
  1
00805100W.DWG
 41
0.8
  7
GREEKS
100
AcDbText
  0
TEXT
  5
9A
330
1E
100
AcDbEntity
  8
TEXT
100
AcDbText
 10
91.31306610404202
 20
45.38181920511511
 30
0.0
 40
2.0
  1
DIN EN1123-2
 41
0.8
  7
GREEKS
 72
     1
 11
99.80830419928011
 21
45.38181920511511
 31
0.0
100
AcDbText
  0
INSERT
  5
9B
330
1E
100
AcDbEntity
  8
STEMPEL
100
AcDbBlockReference
  2
LOGO
 10
70.4977742728897
 20
22.51052638224161
 30
0.0
  0
TEXT
  5
118
330
1E
100
AcDbEntity
  8
BEM
100
AcDbText
 10
208.6511461928583
 20
5.083950539994247
 30
0.0
 40
2.0
  1
Diese Zeichnung ist urheberrechtlich geschützt und bleibt unser Eigentum. Sie darf weder ganz noch teilweise verfielfältigt und nicht an Dritte weitergegeben werden.
 50
90.0
 41
0.8
  7
GREEKS
100
AcDbText
  0
CIRCLE
  5
D4C
330
1E
100
AcDbEntity
  8
STEMPEL
100
AcDbCircle
 10
126.1317306814097
 20
173.5494582698626
 30
0.0
 40
4.076397129085354
  0
LINE
  5
D95
330
1E
100
AcDbEntity
  8
STEMPEL
100
AcDbLine
 10
107.8468510734892
 20
179.699398447269
 30
0.0
 11
107.8468510734892
 21
176.9563275471907
 31
0.0
  0
ARC
  5
D96
330
1E
100
AcDbEntity
  8
STEMPEL
100
AcDbCircle
 10
108.7893706409078
 20
179.699398447269
 30
0.0
 40
0.9425195674185887
100
AcDbArc
 50
90.0
 51
180.0
  0
LINE
  5
D97
330
1E
100
AcDbEntity
  8
STEMPEL
100
AcDbLine
 10
108.7893706409078
 20
180.6419180146875
 30
0.0
 11
114.4444880454193
 21
180.6419180146873
 31
0.0
  0
LINE
  5
D98
330
1E
100
AcDbEntity
  8
STEMPEL
100
AcDbLine
 10
110.8629136892286
 20
177.6258553989479
 30
0.0
 11
114.4444880454193
 21
177.6258553989478
 31
0.0
  0
ARC
  5
D99
330
1E
100
AcDbEntity
  8
STEMPEL
100
AcDbCircle
 10
114.6801179372739
 20
171.7351081025817
 30
0.0
 40
3.817204248045295
100
AcDbArc
 50
10.00000000000021
 51
38.69301093833205
  0
ARC
  5
D9A
330
1E
100
AcDbEntity
  8
STEMPEL
100
AcDbCircle
 10
114.6801179372739
 20
171.7351081025817
 30
0.0
 40
0.8011416323058108
100
AcDbArc
 50
10.00000000000021
 51
90.0
  0
ARC
  5
D9B
330
1E
100
AcDbEntity
  8
STEMPEL
100
AcDbCircle
 10
119.3302860128832
 20
169.9443209244865
 30
0.0
 40
0.4712597837092944
100
AcDbArc
 50
189.5550026106585
 51
270.0
  0
ARC
  5
D9C
330
1E
100
AcDbEntity
  8
STEMPEL
100
AcDbCircle
 10
118.7178833126255
 20
169.2374312489226
 30
0.0
 40
2.780432723884836
100
AcDbArc
 50
190.0000000000002
 51
270.0
  0
LINE
  5
D9D
330
1E
100
AcDbEntity
  8
STEMPEL
100
AcDbLine
 10
115.9918037775078
 20
168.768642819037
 30
0.0
 11
115.4670994067538
 21
171.8857671126814
 31
0.0
  0
LINE
  5
D9E
330
1E
100
AcDbEntity
  8
STEMPEL
100
AcDbLine
 10
118.8655641550547
 20
169.8660944673366
 30
0.0
 11
118.4413192968557
 21
172.3864164384405
 31
0.0
  0
LINE
  5
D9F
330
1E
100
AcDbEntity
  8
STEMPEL
100
AcDbLine
 10
107.8468510734892
 20
170.1425889925345
 30
0.0
 11
107.8468510734892
 21
167.9650298329075
 31
0.0
  0
ARC
  5
DA0
330
1E
100
AcDbEntity
  8
STEMPEL
100
AcDbCircle
 10
109.354882381359
 20
167.9650298329075
 30
0.0
 40
1.508031307869763
100
AcDbArc
 50
180.0
 51
0.0
  0
LINE
  5
DA1
330
1E
100
AcDbEntity
  8
STEMPEL
100
AcDbLine
 10
110.8629136892286
 20
172.5362497348875
 30
0.0
 11
110.8629136892286
 21
167.9650298329075
 31
0.0
  0
LINE
  5
DA2
330
1E
100
AcDbEntity
  8
STEMPEL
100
AcDbLine
 10
110.8629136892286
 20
175.552312350627
 30
0.0
 11
114.4444880454193
 21
175.552312350627
 31
0.0
  0
LINE
  5
DA3
330
1E
100
AcDbEntity
  8
STEMPEL
100
AcDbLine
 10
110.8629136892286
 20
172.5362497348875
 30
0.0
 11
114.6801179372739
 21
172.5362497348874
 31
0.0
  0
LINE
  5
DA4
330
1E
100
AcDbEntity
  8
STEMPEL
100
AcDbLine
 10
110.8629136892286
 20
177.6258553989479
 30
0.0
 11
110.8629136892286
 21
175.552312350627
 31
0.0
  0
ARC
  5
DA5
330
1E
100
AcDbEntity
  8
STEMPEL
100
AcDbCircle
 10
114.4444880454193
 20
176.5890838747874
 30
0.0
 40
1.036771524160383
100
AcDbArc
 50
270.0
 51
90.0
  0
ARC
  5
DA6
330
1E
100
AcDbEntity
  8
STEMPEL
100
AcDbCircle
 10
114.4444880454193
 20
176.5890838747874
 30
0.0
 40
4.052834139899866
100
AcDbArc
 50
322.4919601629172
 51
90.0
  0
ARC
  5
DA7
330
1E
100
AcDbEntity
  8
STEMPEL
100
AcDbCircle
 10
91.72976647063135
 20
179.1338867068176
 30
0.0
 40
1.508031307869763
100
AcDbArc
 50
0.0
 51
180.0
  0
ARC
  5
DA8
330
1E
100
AcDbEntity
  8
STEMPEL
100
AcDbCircle
 10
93.70905756221041
 20
169.9443209244867
 30
0.0
 40
0.4712597837092944
100
AcDbArc
 50
180.0
 51
270.0
  0
ARC
  5
DA9
330
1E
100
AcDbEntity
  8
STEMPEL
100
AcDbCircle
 10
93.00216788664647
 20
169.2374312489226
 30
0.0
 40
2.780432723884836
100
AcDbArc
 50
180.0
 51
270.0
  0
LINE
  5
DAA
330
1E
100
AcDbEntity
  8
STEMPEL
100
AcDbLine
 10
93.00216788664647
 20
166.4569985250377
 30
0.0
 11
101.6262219285265
 21
166.4569985250377
 31
0.0
  0
LINE
  5
DAB
330
1E
100
AcDbEntity
  8
STEMPEL
100
AcDbLine
 10
93.70905756221041
 20
169.4730611407773
 30
0.0
 11
95.82226020588086
 21
169.4730611407772
 31
0.0
  0
LINE
  5
DAC
330
1E
100
AcDbEntity
  8
STEMPEL
100
AcDbLine
 10
90.22173516276142
 20
179.1338867068176
 30
0.0
 11
90.22173516276142
 21
169.2374312489226
 31
0.0
  0
LINE
  5
DAD
330
1E
100
AcDbEntity
  8
STEMPEL
100
AcDbLine
 10
93.23779777850107
 20
179.1338867068176
 30
0.0
 11
93.23779777850107
 21
169.9443209244867
 31
0.0
  0
ARC
  5
DAE
330
1E
100
AcDbEntity
  8
STEMPEL
100
AcDbCircle
 10
101.6262219285265
 20
173.5494582698626
 30
0.0
 40
7.092459744824837
100
AcDbArc
 50
270.0
 51
331.2916789772524
  0
CIRCLE
  5
DAF
330
1E
100
AcDbEntity
  8
STEMPEL
100
AcDbCircle
 10
101.6262219285265
 20
173.5494582698626
 30
0.0
 40
4.076397129085354
  0
ARC
  5
DB0
330
1E
100
AcDbEntity
  8
STEMPEL
100
AcDbCircle
 10
101.6262219285265
 20
173.5494582698626
 30
0.0
 40
7.092459744824837
100
AcDbArc
 50
28.70832102274762
 51
215.0821845754639
  0
LINE
  5
DC9
330
1E
100
AcDbEntity
  8
STEMPEL
100
AcDbLine
 10
119.3302860128832
 20
169.4730611407772
 30
0.0
 11
120.3277689587632
 21
169.4730611407772
 31
0.0
  0
LINE
  5
DCA
330
1E
100
AcDbEntity
  8
STEMPEL
100
AcDbLine
 10
118.7178833126255
 20
166.4569985250377
 30
0.0
 11
126.1317306814097
 21
166.4569985250377
 31
0.0
  0
ARC
  5
DCB
330
1E
100
AcDbEntity
  8
STEMPEL
100
AcDbCircle
 10
126.1317306814097
 20
173.5494582698626
 30
0.0
 40
7.092459744824837
100
AcDbArc
 50
270.0
 51
215.0821845754598
  0
LINE
  5
DCF
330
1E
100
AcDbEntity
  8
MITTEL
100
AcDbLine
 10
44.22296279449811
 20
133.5494582698625
 30
0.0
 11
179.222962794498
 21
133.5494582698625
 31
0.0
  0
LINE
  5
DD0
330
1E
100
AcDbEntity
  8
MITTEL
100
AcDbLine
 10
111.7229627944981
 20
201.0494582698625
 30
0.0
 11
111.7229627944981
 21
66.04945826986264
 31
0.0
  0
CIRCLE
  5
DD3
330
1E
100
AcDbEntity
  8
HILF
100
AcDbCircle
 10
111.7229627944981
 20
133.5494582698625
 30
0.0
 40
21.0
  0
CIRCLE
  5
DD4
330
1E
100
AcDbEntity
  8
HILF
100
AcDbCircle
 10
111.7229627944981
 20
133.5494582698625
 30
0.0
 40
57.5
  0
CIRCLE
  5
DD5
330
1E
100
AcDbEntity
  8
STEMPEL
100
AcDbCircle
 10
111.7229627944981
 20
133.5494582698625
 30
0.0
 40
62.5
  0
CIRCLE
  5
DD6
330
1E
100
AcDbEntity
  8
HILF
100
AcDbCircle
 10
111.7229627944981
 20
133.5494582698625
 30
0.0
 40
26.0
  0
DIMENSION
  5
E1D
330
1E
100
AcDbEntity
  8
BEM
100
AcDbDimension
  2
*D1
 10
164.7229627944982
 20
207.8842609474693
 30
0.0
 11
111.7229627944982
 21
211.1342609474693
 31
0.0
 70
    32
  1
%%c<>
 71
     5
 42
106.0
  3
Standard
100
AcDbAlignedDimension
 13
58.72296279449819
 23
222.2752687598195
 33
0.0
 14
164.7229627944982
 24
222.2752687598195
 34
0.0
100
AcDbRotatedDimension
1001
ACAD
1000
DSTYLE
1002
{
1070
    41
1040
3.5
1070
    42
1040
1.0
1070
    43
1040
7.0
1070
    44
1040
1.0
1070
    73
1070
     0
1070
    74
1070
     0
1070
    77
1070
     1
1070
    78
1070
     8
1070
    79
1070
     2
1070
   140
1040
3.5
1070
   141
1040
1.5
1070
   146
1040
0.5
1070
   147
1040
1.5
1070
   172
1070
     1
1070
   178
1070
     1
1070
   179
1070
     2
1070
   271
1070
     2
1070
   272
1070
     2
1070
   284
1070
     8
1070
   285
1070
     8
1070
   286
1070
     8
1002
}
  0
LINE
  5
F15
330
1E
100
AcDbEntity
  8
STEMPEL
100
AcDbLine
 10
120.7229627944982
 20
248.95668938442
 30
0.0
 11
120.7229627944981
 21
249.45668938442
 31
0.0
  0
LINE
  5
F16
330
1E
100
AcDbEntity
  8
STEMPEL
100
AcDbLine
 10
102.7229627944981
 20
248.95668938442
 30
0.0
 11
102.7229627944981
 21
249.45668938442
 31
0.0
  0
LINE
  5
F17
330
1E
100
AcDbEntity
  8
STEMPEL
100
AcDbLine
 10
116.7229627944981
 20
259.4566893844199
 30
0.0
 11
116.7229627944982
 21
260.2752687598195
 31
0.0
  0
LINE
  5
F18
330
1E
100
AcDbEntity
  8
HILF
100
AcDbLine
 10
115.7229627944982
 20
259.45668938442
 30
0.0
 11
115.7229627944982
 21
261.2752687598195
 31
0.0
  0
LINE
  5
F19
330
1E
100
AcDbEntity
  8
STEMPEL
100
AcDbLine
 10
106.7229627944982
 20
259.4566893844199
 30
0.0
 11
106.7229627944982
 21
260.2752687598195
 31
0.0
  0
LINE
  5
F1A
330
1E
100
AcDbEntity
  8
HILF
100
AcDbLine
 10
107.7229627944982
 20
259.45668938442
 30
0.0
 11
107.7229627944982
 21
261.2752687598195
 31
0.0
  0
LINE
  5
F1B
330
1E
100
AcDbEntity
  8
STEMPEL
100
AcDbLine
 10
106.7229627944981
 20
260.2752687598195
 30
0.0
 11
116.7229627944982
 21
260.2752687598195
 31
0.0
  0
LINE
  5
F1C
330
1E
100
AcDbEntity
  8
STEMPEL
100
AcDbLine
 10
107.7229627944982
 20
261.2752687598195
 30
0.0
 11
115.7229627944982
 21
261.2752687598195
 31
0.0
  0
LINE
  5
F1D
330
1E
100
AcDbEntity
  8
STEMPEL
100
AcDbLine
 10
107.7229627944982
 20
261.2752687598195
 30
0.0
 11
106.7229627944981
 21
260.2752687598195
 31
0.0
  0
LINE
  5
F1E
330
1E
100
AcDbEntity
  8
STEMPEL
100
AcDbLine
 10
115.7229627944982
 20
261.2752687598195
 30
0.0
 11
116.7229627944982
 21
260.2752687598195
 31
0.0
  0
ARC
  5
F1F
330
1E
100
AcDbEntity
  8
STEMPEL
100
AcDbCircle
 10
111.7229627944982
 20
229.1458002519651
 30
0.0
 40
30.31088913245485
100
AcDbArc
 50
81.78678929826357
 51
98.21321070173642
  0
ARC
  5
F20
330
1E
100
AcDbEntity
  8
STEMPEL
100
AcDbCircle
 10
105.2277722661148
 20
251.7623836766355
 30
0.0
 40
7.694305707784447
100
AcDbArc
 50
73.65710669401391
 51
106.3428933059861
  0
ARC
  5
F21
330
1E
100
AcDbEntity
  8
STEMPEL
100
AcDbCircle
 10
118.2181533228815
 20
251.7623836766355
 30
0.0
 40
7.694305707784447
100
AcDbArc
 50
73.65710669401391
 51
106.3428933059861
  0
ARC
  5
F22
330
1E
100
AcDbEntity
  8
HILF
100
AcDbCircle
 10
111.7229627944982
 20
229.5582283367587
 30
0.0
 40
22.41111549782308
100
AcDbArc
 50
78.85962783890775
 51
101.1403721610922
  0
ARC
  5
F23
330
1E
100
AcDbEntity
  8
HILF
100
AcDbCircle
 10
118.2181533228815
 20
246.2082032348903
 30
0.0
 40
5.761140599691502
100
AcDbArc
 50
67.92594526326357
 51
112.0740547367364
  0
ARC
  5
F24
330
1E
100
AcDbEntity
  8
HILF
100
AcDbCircle
 10
105.2277722661148
 20
246.2082032348903
 30
0.0
 40
5.761140599691502
100
AcDbArc
 50
67.92594526326357
 51
112.0740547367364
  0
POINT
  5
F25
330
1E
100
AcDbEntity
  8
0
100
AcDbPoint
 10
111.7229627944982
 20
249.45668938442
 30
0.0
210
0.0000000000000001
220
1.0
230
0.0
  0
LINE
  5
F26
330
1E
100
AcDbEntity
  8
STEMPEL
100
AcDbLine
 10
104.2229627944981
 20
259.45668938442
 30
0.0
 11
119.2229627944981
 21
259.45668938442
 31
0.0
  0
LINE
  5
F27
330
1E
100
AcDbEntity
  8
STEMPEL
100
AcDbLine
 10
120.3832168323426
 20
251.5470459006198
 30
0.0
 11
120.3832168323426
 21
259.1458002519646
 31
0.0
  0
LINE
  5
F28
330
1E
100
AcDbEntity
  8
STEMPEL
100
AcDbLine
 10
116.0530898134204
 20
251.5470459006198
 30
0.0
 11
116.0530898134204
 21
259.1458002519646
 31
0.0
  0
LINE
  5
F29
330
1E
100
AcDbEntity
  8
STEMPEL
100
AcDbLine
 10
107.3928357755759
 20
251.5470459006198
 30
0.0
 11
107.3928357755759
 21
259.1458002519646
 31
0.0
  0
LINE
  5
F2A
330
1E
100
AcDbEntity
  8
STEMPEL
100
AcDbLine
 10
122.1294779019924
 20
250.9114588500094
 30
0.0
 11
101.3164476870039
 21
250.9114588500094
 31
0.0
  0
LINE
  5
F2B
330
1E
100
AcDbEntity
  8
STEMPEL
100
AcDbLine
 10
121.8729627944981
 20
249.45668938442
 30
0.0
 11
101.5729627944982
 21
249.45668938442
 31
0.0
  0
LINE
  5
F2C
330
1E
100
AcDbEntity
  8
STEMPEL
100
AcDbLine
 10
103.0627087566538
 20
251.5470459006198
 30
0.0
 11
103.0627087566538
 21
259.1458002519646
 31
0.0
  0
LINE
  5
F2D
330
1E
100
AcDbEntity
  8
STEMPEL
100
AcDbLine
 10
104.2229627944981
 20
259.45668938442
 30
0.0
 11
103.0627087566538
 21
259.1458002519646
 31
0.0
  0
LINE
  5
F2E
330
1E
100
AcDbEntity
  8
STEMPEL
100
AcDbLine
 10
120.3832168323426
 20
259.1458002519646
 30
0.0
 11
119.2229627944981
 21
259.45668938442
 31
0.0
  0
LINE
  5
F2F
330
1E
100
AcDbEntity
  8
STEMPEL
100
AcDbLine
 10
122.1294779019924
 20
250.9114588500094
 30
0.0
 11
120.3832168323426
 21
251.5470459006198
 31
0.0
  0
LINE
  5
F30
330
1E
100
AcDbEntity
  8
STEMPEL
100
AcDbLine
 10
103.0627087566538
 20
251.5470459006198
 30
0.0
 11
101.3164476870039
 21
250.9114588500094
 31
0.0
  0
ARC
  5
F31
330
1E
100
AcDbEntity
  8
STEMPEL
100
AcDbCircle
 10
101.5729627944982
 20
250.20668938442
 30
0.0
 40
0.7500000000000013
100
AcDbArc
 50
110.0000000000001
 51
269.9999991462263
  0
ARC
  5
F32
330
1E
100
AcDbEntity
  8
STEMPEL
100
AcDbCircle
 10
121.8729627944981
 20
250.20668938442
 30
0.0
 40
0.750000000000001
100
AcDbArc
 50
269.9999991462263
 51
69.99999999999992
  0
HATCH
  5
F33
330
1E
100
AcDbEntity
  8
SCHRAFF
100
AcDbHatch
 10
0.0
 20
0.0
 30
0.0
210
0.0
220
0.0
230
1.0
  2
_USER
 70
     0
 71
     1
 91
        2
 92
        7
 72
     1
 73
     1
 93
       16
 10
56.15454762998176
 20
245.45668938442
 42
0.339454258863376
 10
51.80788141168095
 20
242.1213750873813
 42
0.0
 10
49.22296279449835
 20
232.474327474625
 42
0.0
 10
51.15481444707636
 20
231.95668938442
 42
0.0
 10
53.73973306425902
 20
241.6037369971763
 42
-0.3394542588633807
 10
56.15454762998171
 20
243.45668938442
 42
0.0
 10
85.85900176381947
 20
243.45668938442
 42
0.1989123673796522
 10
89.04098227915886
 20
244.7747088690805
 42
0.0
 10
90.49072974746461
 20
246.2244563373863
 42
-0.1989123673796676
 10
92.25849670043105
 20
246.95668938442
 42
0.0
 10
105.7229627944981
 20
246.95668938442
 42
0.0
 10
105.7229627944981
 20
248.95668938442
 42
0.0
 10
92.25849670043094
 20
248.95668938442
 42
0.1989123673796607
 10
89.07651618509145
 20
247.6386698997593
 42
0.0
 10
87.62676871678575
 20
246.1889224314536
 42
-0.1989123673796662
 10
85.85900176381931
 20
245.45668938442
 42
0.0
 97
       16
330
F5F
330
F5D
330
F60
330
F5C
330
F97
330
F5E
330
F65
330
F61
330
F62
330
F69
330
F92
330
F88
330
F91
330
F6A
330
F63
330
F66
 92
        7
 72
     1
 73
     1
 93
       16
 10
117.7229627944981
 20
248.95668938442
 42
0.0
 10
117.7229627944981
 20
246.95668938442
 42
0.0
 10
131.1874288885655
 20
246.95668938442
 42
-0.1989123673796617
 10
132.9551958415319
 20
246.2244563373863
 42
0.0
 10
134.4049433098376
 20
244.7747088690805
 42
0.1989123673796511
 10
137.586923825177
 20
243.4566893844201
 42
0.0
 10
167.2913779590147
 20
243.4566893844201
 42
-0.3394542588633733
 10
169.7061925247374
 20
241.6037369971764
 42
0.0
 10
172.29111114192
 20
231.95668938442
 42
0.0
 10
174.2229627944982
 20
232.474327474625
 42
0.0
 10
171.6380441773155
 20
242.1213750873814
 42
0.3394542588633745
 10
167.2913779590147
 20
245.45668938442
 42
0.0
 10
137.5869238251771
 20
245.45668938442
 42
-0.1989123673796661
 10
135.8191568722107
 20
246.1889224314536
 42
0.0
 10
134.3694094039049
 20
247.6386698997594
 42
0.1989123673796565
 10
131.1874288885655
 20
248.95668938442
 42
0.0
 97
       16
330
F97
330
F5B
330
F99
330
F3A
330
F3C
330
F3D
330
F98
330
F36
330
F5A
330
F40
330
F59
330
F38
330
F3F
330
F3E
330
F39
330
F3B
 75
     0
 76
     0
 52
135.0
 41
2.0
 77
     0
 78
     1
 53
135.0
 43
-220.9696699961976
 44
-7.114404401789329
 45
-1.414213562373095
 46
-1.414213562373094
 79
     0
 47
0.1830699081790703
 98
        2
 10
74.05190776621672
 20
244.521524936018
 10
120.9337060650245
 20
248.3659929022759
  0
HATCH
  5
F34
330
1E
100
AcDbEntity
  8
SCHRAFF
100
AcDbHatch
 10
0.0
 20
0.0
 30
0.0
210
0.0
220
0.0
230
1.0
  2
_USER
 70
     0
 71
     1
 91
        2
 92
        7
 72
     1
 73
     1
 93
       16
 10
111.7229627944982
 20
224.2752687598196
 42
0.0
 10
111.7229627944982
 20
226.2752687598195
 42
0.0
 10
93.25849670043094
 20
226.2752687598195
 42
-0.1989123673796598
 10
91.49072974746456
 20
227.0075018068532
 42
0.0
 10
89.54098227915874
 20
228.957249275159
 42
0.1989123673796573
 10
86.3590017638193
 20
230.2752687598195
 42
0.0
 10
65.93984115936852
 20
230.2752687598195
 42
0.2679491924311267
 10
62.04272684233846
 20
228.0252687598195
 42
0.0
 10
58.72296279449817
 20
222.2752687598195
 42
0.0
 10
60.45501360206701
 20
221.2752687598196
 42
0.0
 10
63.77477764990742
 20
227.0252687598195
 42
-0.2679491924311238
 10
65.93984115936852
 20
228.2752687598195
 42
0.0
 10
86.3590017638193
 20
228.2752687598195
 42
-0.1989123673796506
 10
88.12676871678563
 20
227.5430357127859
 42
0.0
 10
90.0765161850915
 20
225.59328824448
 42
0.1989123673796565
 10
93.25849670043094
 20
224.2752687598195
 42
0.0
 97
       16
330
F95
330
F6D
330
F6E
330
F84
330
F83
330
F7D
330
F81
330
F7F
330
F80
330
F71
330
F82
330
F85
330
F86
330
F6C
330
F93
330
F8A
 92
        7
 72
     1
 73
     1
 93
       16
 10
130.1874288885655
 20
224.2752687598195
 42
0.1989123673796612
 10
133.369409403905
 20
225.5932882444801
 42
0.0
 10
135.3191568722107
 20
227.5430357127859
 42
-0.1989123673796586
 10
137.0869238251771
 20
228.2752687598195
 42
0.0
 10
157.5060844296279
 20
228.2752687598195
 42
-0.2679491924311233
 10
159.671147939089
 20
227.0252687598195
 42
0.0
 10
162.9909119869293
 20
221.2752687598195
 42
0.0
 10
164.7229627944982
 20
222.2752687598195
 42
0.0
 10
161.4031987466579
 20
228.0252687598195
 42
0.2679491924311195
 10
157.5060844296279
 20
230.2752687598195
 42
0.0
 10
137.0869238251771
 20
230.2752687598195
 42
0.1989123673796632
 10
133.9049433098376
 20
228.957249275159
 42
0.0
 10
131.9551958415318
 20
227.0075018068531
 42
-0.1989123673796533
 10
130.1874288885655
 20
226.2752687598195
 42
0.0
 10
111.722962794498
 20
226.2752687598195
 42
0.0
 10
111.7229627944981
 20
224.2752687598196
 42
0.0
 97
       16
330
F4F
330
F53
330
F56
330
F48
330
F4B
330
F4A
330
F4C
330
F47
330
F94
330
F4E
330
F54
330
F50
330
F95
330
F8A
330
F93
330
F52
 75
     0
 76
     0
 52
45.0
 41
2.0
 77
     0
 78
     1
 53
45.0
 43
-220.9696699961976
 44
-7.114404401789329
 45
-1.414213562373094
 46
1.414213562373095
 79
     0
 47
0.2359295056199639
 98
        2
 10
97.53881229898246
 20
224.9240529773907
 10
118.5520003097548
 20
224.9240529773907
  0
POINT
  5
F35
330
1E
100
AcDbEntity
  8
DEFPOINTS
  6
ByBlock
 62
     0
100
AcDbPoint
 10
168.8132815315366
 20
242.9400727351481
 30
0.0
  0
ARC
  5
F36
102
{ACAD_REACTORS
330
F33
102
}
330
1E
100
AcDbEntity
  8
STEMPEL
100
AcDbCircle
 10
167.2913779590147
 20
240.95668938442
 30
0.0
 40
2.5
100
AcDbArc
 50
14.99999999999959
 51
90.0
  0
LINE
  5
F37
330
1E
100
AcDbEntity
  8
STEMPEL
100
AcDbLine
 10
164.9729627944982
 20
241.95668938442
 30
0.0
 11
169.5826658064925
 21
241.95668938442
 31
0.0
  0
ARC
  5
F38
102
{ACAD_REACTORS
330
F33
102
}
330
1E
100
AcDbEntity
  8
STEMPEL
100
AcDbCircle
 10
167.2913779590147
 20
240.95668938442
 30
0.0
 40
4.5
100
AcDbArc
 50
14.99999999999959
 51
90.0
  0
LINE
  5
F39
102
{ACAD_REACTORS
330
F33
102
}
330
1E
100
AcDbEntity
  8
STEMPEL
100
AcDbLine
 10
134.3694094039049
 20
247.6386698997594
 30
0.0
 11
135.8191568722107
 21
246.1889224314536
 31
0.0
  0
ARC
  5
F3A
102
{ACAD_REACTORS
330
F33
102
}
330
1E
100
AcDbEntity
  8
STEMPEL
100
AcDbCircle
 10
131.1874288885655
 20
244.45668938442
 30
0.0
 40
2.5
100
AcDbArc
 50
45.0
 51
90.0
  0
ARC
  5
F3B
102
{ACAD_REACTORS
330
F33
102
}
330
1E
100
AcDbEntity
  8
STEMPEL
100
AcDbCircle
 10
131.1874288885655
 20
244.45668938442
 30
0.0
 40
4.5
100
AcDbArc
 50
45.0
 51
90.0
  0
LINE
  5
F3C
102
{ACAD_REACTORS
330
F33
102
}
330
1E
100
AcDbEntity
  8
STEMPEL
100
AcDbLine
 10
132.9551958415318
 20
246.2244563373863
 30
0.0
 11
134.4049433098376
 21
244.7747088690805
 31
0.0
  0
ARC
  5
F3D
102
{ACAD_REACTORS
330
F33
102
}
330
1E
100
AcDbEntity
  8
STEMPEL
100
AcDbCircle
 10
137.5869238251771
 20
247.95668938442
 30
0.0
 40
4.5
100
AcDbArc
 50
225.0
 51
270.0
  0
ARC
  5
F3E
102
{ACAD_REACTORS
330
F33
102
}
330
1E
100
AcDbEntity
  8
STEMPEL
100
AcDbCircle
 10
137.5869238251771
 20
247.95668938442
 30
0.0
 40
2.5
100
AcDbArc
 50
225.0
 51
270.0
  0
LINE
  5
F3F
102
{ACAD_REACTORS
330
F33
102
}
330
1E
100
AcDbEntity
  8
STEMPEL
100
AcDbLine
 10
137.5869238251771
 20
245.45668938442
 30
0.0
 11
167.2913779590147
 21
245.45668938442
 31
0.0
  0
LINE
  5
F40
102
{ACAD_REACTORS
330
F33
102
}
330
1E
100
AcDbEntity
  8
STEMPEL
100
AcDbLine
 10
172.2911111419201
 20
231.95668938442
 30
0.0
 11
174.2229627944982
 21
232.474327474625
 31
0.0
  0
LINE
  5
F41
330
1E
100
AcDbEntity
  8
STEMPEL
100
AcDbLine
 10
164.9729627944983
 20
230.9566893844201
 30
0.0
 11
164.4638069759367
 21
229.181052028603
 31
0.0
  0
POINT
  5
F42
330
1E
100
AcDbEntity
  8
DEFPOINTS
  6
ByBlock
 62
     0
100
AcDbPoint
 10
164.9729627944983
 20
230.9566893844201
 30
0.0
  0
ARC
  5
F43
330
1E
100
AcDbEntity
  8
STEMPEL
100
AcDbCircle
 10
163.5025452799984
 20
229.45668938442
 30
0.0
 40
1.0
100
AcDbArc
 50
270.0
 51
344.0000000000001
  0
LINE
  5
F44
330
1E
100
AcDbEntity
  8
STEMPEL
100
AcDbLine
 10
159.9729627944982
 20
232.45668938442
 30
0.0
 11
161.1199443375334
 21
228.45668938442
 31
0.0
  0
POINT
  5
F45
330
1E
100
AcDbEntity
  8
DEFPOINTS
  6
ByBlock
 62
     0
100
AcDbPoint
 10
159.9729627944982
 20
232.45668938442
 30
0.0
  0
POINT
  5
F46
330
1E
100
AcDbEntity
  8
DEFPOINTS
  6
ByBlock
 62
     0
100
AcDbPoint
 10
158.7560844296279
 20
227.9403322692806
 30
0.0
  0
ARC
  5
F47
102
{ACAD_REACTORS
330
F34
102
}
330
1E
100
AcDbEntity
  8
STEMPEL
100
AcDbCircle
 10
157.5060844296279
 20
225.7752687598195
 30
0.0
 40
4.5
100
AcDbArc
 50
30.00000000000014
 51
90.0
  0
ARC
  5
F48
102
{ACAD_REACTORS
330
F34
102
}
330
1E
100
AcDbEntity
  8
STEMPEL
100
AcDbCircle
 10
157.5060844296279
 20
225.7752687598195
 30
0.0
 40
2.5
100
AcDbArc
 50
30.00000000000014
 51
90.0
  0
LINE
  5
F49
330
1E
100
AcDbEntity
  8
STEMPEL
100
AcDbLine
 10
161.1199443375334
 20
228.45668938442
 30
0.0
 11
163.5025452799984
 21
228.45668938442
 31
0.0
  0
LINE
  5
F4A
102
{ACAD_REACTORS
330
F34
102
}
330
1E
100
AcDbEntity
  8
STEMPEL
100
AcDbLine
 10
164.7229627944982
 20
222.2752687598195
 30
0.0
 11
162.9909119869293
 21
221.2752687598195
 31
0.0
  0
LINE
  5
F4B
102
{ACAD_REACTORS
330
F34
102
}
330
1E
100
AcDbEntity
  8
STEMPEL
100
AcDbLine
 10
162.9909119869293
 20
221.2752687598195
 30
0.0
 11
159.671147939089
 21
227.0252687598195
 31
0.0
  0
LINE
  5
F4C
102
{ACAD_REACTORS
330
F34
102
}
330
1E
100
AcDbEntity
  8
STEMPEL
100
AcDbLine
 10
164.7229627944982
 20
222.2752687598195
 30
0.0
 11
161.4031987466579
 21
228.0252687598195
 31
0.0
  0
LINE
  5
F4D
330
1E
100
AcDbEntity
  8
STEMPEL
100
AcDbLine
 10
164.9729627944982
 20
231.95668938442
 30
0.0
 11
172.2911111419201
 21
231.95668938442
 31
0.0
  0
ARC
  5
F4E
102
{ACAD_REACTORS
330
F34
102
}
330
1E
100
AcDbEntity
  8
STEMPEL
100
AcDbCircle
 10
137.0869238251771
 20
225.7752687598195
 30
0.0
 40
4.5
100
AcDbArc
 50
90.0
 51
135.0
  0
LINE
  5
F4F
102
{ACAD_REACTORS
330
F34
102
}
330
1E
100
AcDbEntity
  8
STEMPEL
100
AcDbLine
 10
133.3694094039049
 20
225.5932882444801
 30
0.0
 11
135.3191568722107
 21
227.5430357127859
 31
0.0
  0
ARC
  5
F50
102
{ACAD_REACTORS
330
F34
102
}
330
1E
100
AcDbEntity
  8
STEMPEL
100
AcDbCircle
 10
130.1874288885655
 20
228.7752687598195
 30
0.0
 40
2.5
100
AcDbArc
 50
270.0
 51
315.0
  0
POINT
  5
F51
330
1E
100
AcDbEntity
  8
DEFPOINTS
  6
ByBlock
 62
     0
100
AcDbPoint
 10
131.1441374694782
 20
226.4655699285413
 30
0.0
  0
ARC
  5
F52
102
{ACAD_REACTORS
330
F34
102
}
330
1E
100
AcDbEntity
  8
STEMPEL
100
AcDbCircle
 10
130.1874288885655
 20
228.7752687598195
 30
0.0
 40
4.5
100
AcDbArc
 50
270.0
 51
315.0
  0
ARC
  5
F53
102
{ACAD_REACTORS
330
F34
102
}
330
1E
100
AcDbEntity
  8
STEMPEL
100
AcDbCircle
 10
137.0869238251771
 20
225.7752687598195
 30
0.0
 40
2.5
100
AcDbArc
 50
90.0
 51
135.0
  0
LINE
  5
F54
102
{ACAD_REACTORS
330
F34
102
}
330
1E
100
AcDbEntity
  8
STEMPEL
100
AcDbLine
 10
131.9551958415318
 20
227.0075018068531
 30
0.0
 11
133.9049433098376
 21
228.957249275159
 31
0.0
  0
LINE
  5
F55
330
1E
100
AcDbEntity
  8
STEMPEL
100
AcDbLine
 10
60.45501360206696
 20
221.2752687598195
 30
0.0
 11
162.9909119869293
 21
221.2752687598195
 31
0.0
  0
LINE
  5
F56
102
{ACAD_REACTORS
330
F34
102
}
330
1E
100
AcDbEntity
  8
STEMPEL
100
AcDbLine
 10
137.0869238251771
 20
228.2752687598195
 30
0.0
 11
157.5060844296279
 21
228.2752687598195
 31
0.0
  0
LINE
  5
F57
330
1E
100
AcDbEntity
  8
STEMPEL
100
AcDbLine
 10
159.9729627944982
 20
232.45668938442
 30
0.0
 11
159.9729627944982
 21
243.45668938442
 31
0.0
  0
LINE
  5
F58
330
1E
100
AcDbEntity
  8
STEMPEL
100
AcDbLine
 10
164.9729627944983
 20
230.9566893844201
 30
0.0
 11
164.9729627944982
 21
241.95668938442
 31
0.0
  0
LINE
  5
F59
102
{ACAD_REACTORS
330
F33
102
}
330
1E
100
AcDbEntity
  8
STEMPEL
100
AcDbLine
 10
171.6380441773155
 20
242.1213750873814
 30
0.0
 11
174.2229627944982
 21
232.474327474625
 31
0.0
  0
LINE
  5
F5A
102
{ACAD_REACTORS
330
F33
102
}
330
1E
100
AcDbEntity
  8
STEMPEL
100
AcDbLine
 10
169.7061925247374
 20
241.6037369971763
 30
0.0
 11
172.2911111419201
 21
231.95668938442
 31
0.0
  0
LINE
  5
F5B
102
{ACAD_REACTORS
330
F33
102
}
330
1E
100
AcDbEntity
  8
STEMPEL
100
AcDbLine
 10
117.7229627944981
 20
246.95668938442
 30
0.0
 11
117.7229627944981
 21
248.95668938442
 31
0.0
  0
LINE
  5
F5C
102
{ACAD_REACTORS
330
F33
102
}
330
1E
100
AcDbEntity
  8
STEMPEL
100
AcDbLine
 10
105.7229627944981
 20
246.95668938442
 30
0.0
 11
105.7229627944981
 21
248.95668938442
 31
0.0
  0
ARC
  5
F5D
102
{ACAD_REACTORS
330
F33
102
}
330
1E
100
AcDbEntity
  8
STEMPEL
100
AcDbCircle
 10
92.25849670043094
 20
244.45668938442
 30
0.0
 40
2.5
100
AcDbArc
 50
90.0
 51
135.0
  0
ARC
  5
F5E
102
{ACAD_REACTORS
330
F33
102
}
330
1E
100
AcDbEntity
  8
STEMPEL
100
AcDbCircle
 10
92.25849670043094
 20
244.45668938442
 30
0.0
 40
4.5
100
AcDbArc
 50
90.0
 51
135.0
  0
LINE
  5
F5F
102
{ACAD_REACTORS
330
F33
102
}
330
1E
100
AcDbEntity
  8
STEMPEL
100
AcDbLine
 10
90.49072974746461
 20
246.2244563373863
 30
0.0
 11
89.04098227915886
 21
244.7747088690805
 31
0.0
  0
LINE
  5
F60
102
{ACAD_REACTORS
330
F33
102
}
330
1E
100
AcDbEntity
  8
STEMPEL
100
AcDbLine
 10
92.25849670043094
 20
246.95668938442
 30
0.0
 11
106.7229627944981
 21
246.95668938442
 31
0.0
  0
ARC
  5
F61
102
{ACAD_REACTORS
330
F33
102
}
330
1E
100
AcDbEntity
  8
STEMPEL
100
AcDbCircle
 10
85.85900176381931
 20
247.95668938442
 30
0.0
 40
2.5
100
AcDbArc
 50
270.0
 51
315.0
  0
LINE
  5
F62
102
{ACAD_REACTORS
330
F33
102
}
330
1E
100
AcDbEntity
  8
STEMPEL
100
AcDbLine
 10
56.15454762998176
 20
245.45668938442
 30
0.0
 11
85.85900176381931
 21
245.45668938442
 31
0.0
  0
LINE
  5
F63
102
{ACAD_REACTORS
330
F33
102
}
330
1E
100
AcDbEntity
  8
STEMPEL
100
AcDbLine
 10
56.15454762998176
 20
243.45668938442
 30
0.0
 11
106.7229627944981
 21
243.45668938442
 31
0.0
  0
LINE
  5
F64
330
1E
100
AcDbEntity
  8
STEMPEL
100
AcDbLine
 10
56.15454762998176
 20
243.45668938442
 30
0.0
 11
106.7229627944981
 21
243.45668938442
 31
0.0
  0
LINE
  5
F65
102
{ACAD_REACTORS
330
F33
102
}
330
1E
100
AcDbEntity
  8
STEMPEL
100
AcDbLine
 10
89.0765161850915
 20
247.6386698997594
 30
0.0
 11
87.62676871678575
 21
246.1889224314536
 31
0.0
  0
ARC
  5
F66
102
{ACAD_REACTORS
330
F33
102
}
330
1E
100
AcDbEntity
  8
STEMPEL
100
AcDbCircle
 10
85.85900176381942
 20
247.95668938442
 30
0.0
 40
4.5
100
AcDbArc
 50
270.0
 51
315.0
  0
POINT
  5
F67
330
1E
100
AcDbEntity
  8
DEFPOINTS
  6
ByBlock
 62
     0
100
AcDbPoint
 10
54.6326440574599
 20
242.9400727351481
 30
0.0
  0
LINE
  5
F68
330
1E
100
AcDbEntity
  8
STEMPEL
100
AcDbLine
 10
53.86325978250379
 20
241.95668938442
 30
0.0
 11
58.47296279449818
 21
241.95668938442
 31
0.0
  0
ARC
  5
F69
102
{ACAD_REACTORS
330
F33
102
}
330
1E
100
AcDbEntity
  8
STEMPEL
100
AcDbCircle
 10
56.15454762998176
 20
240.95668938442
 30
0.0
 40
4.5
100
AcDbArc
 50
90.0
 51
165.0000000000004
  0
ARC
  5
F6A
102
{ACAD_REACTORS
330
F33
102
}
330
1E
100
AcDbEntity
  8
STEMPEL
100
AcDbCircle
 10
56.15454762998176
 20
240.95668938442
 30
0.0
 40
2.5
100
AcDbArc
 50
90.0
 51
165.0000000000004
  0
POINT
  5
F6B
330
1E
100
AcDbEntity
  8
DEFPOINTS
  6
ByBlock
 62
     0
100
AcDbPoint
 10
92.30178811951821
 20
226.4655699285413
 30
0.0
  0
ARC
  5
F6C
102
{ACAD_REACTORS
330
F34
102
}
330
1E
100
AcDbEntity
  8
STEMPEL
100
AcDbCircle
 10
93.25849670043094
 20
228.7752687598195
 30
0.0
 40
4.5
100
AcDbArc
 50
225.0
 51
270.0
  0
ARC
  5
F6D
102
{ACAD_REACTORS
330
F34
102
}
330
1E
100
AcDbEntity
  8
STEMPEL
100
AcDbCircle
 10
93.25849670043094
 20
228.7752687598195
 30
0.0
 40
2.5
100
AcDbArc
 50
225.0
 51
270.0
  0
LINE
  5
F6E
102
{ACAD_REACTORS
330
F34
102
}
330
1E
100
AcDbEntity
  8
STEMPEL
100
AcDbLine
 10
91.49072974746461
 20
227.0075018068531
 30
0.0
 11
89.54098227915874
 21
228.957249275159
 31
0.0
  0
POINT
  5
F6F
330
1E
100
AcDbEntity
  8
DEFPOINTS
  6
ByBlock
 62
     0
100
AcDbPoint
 10
68.63356485359865
 20
230.2752687598195
 30
0.0
  0
POINT
  5
F70
330
1E
100
AcDbEntity
  8
DEFPOINTS
  6
ByBlock
 62
     0
100
AcDbPoint
 10
64.68984115936852
 20
227.9403322692806
 30
0.0
  0
ARC
  5
F71
102
{ACAD_REACTORS
330
F34
102
}
330
1E
100
AcDbEntity
  8
STEMPEL
100
AcDbCircle
 10
65.93984115936852
 20
225.7752687598195
 30
0.0
 40
2.5
100
AcDbArc
 50
90.0
 51
149.9999999999998
  0
LINE
  5
F72
330
1E
100
AcDbEntity
  8
STEMPEL
100
AcDbLine
 10
59.94338030899807
 20
228.4566893844201
 30
0.0
 11
62.325981251463
 21
228.4566893844201
 31
0.0
  0
LINE
  5
F73
330
1E
100
AcDbEntity
  8
STEMPEL
100
AcDbLine
 10
63.47296279449828
 20
232.4566893844201
 30
0.0
 11
62.325981251463
 21
228.4566893844201
 31
0.0
  0
POINT
  5
F74
330
1E
100
AcDbEntity
  8
DEFPOINTS
  6
ByBlock
 62
     0
100
AcDbPoint
 10
59.94338030899807
 20
229.45668938442
 30
0.0
  0
POINT
  5
F75
330
1E
100
AcDbEntity
  8
DEFPOINTS
  6
ByBlock
 62
     0
100
AcDbPoint
 10
62.325981251463
 20
228.4566893844201
 30
0.0
  0
POINT
  5
F76
330
1E
100
AcDbEntity
  8
DEFPOINTS
  6
ByBlock
 62
     0
100
AcDbPoint
 10
63.47296279449818
 20
232.4566893844201
 30
0.0
  0
POINT
  5
F77
330
1E
100
AcDbEntity
  8
DEFPOINTS
  6
ByBlock
 62
     0
100
AcDbPoint
 10
63.47296279449828
 20
232.4566893844201
 30
0.0
  0
POINT
  5
F78
330
1E
100
AcDbEntity
  8
DEFPOINTS
  6
ByBlock
 62
     0
100
AcDbPoint
 10
63.47296279449818
 20
231.95668938442
 30
0.0
  0
LINE
  5
F79
330
1E
100
AcDbEntity
  8
STEMPEL
100
AcDbLine
 10
58.47296279449818
 20
230.9566893844202
 30
0.0
 11
58.98211861305973
 21
229.1810520286031
 31
0.0
  0
POINT
  5
F7A
330
1E
100
AcDbEntity
  8
DEFPOINTS
  6
ByBlock
 62
     0
100
AcDbPoint
 10
59.16818451917679
 20
228.8249683324966
 30
0.0
  0
POINT
  5
F7B
330
1E
100
AcDbEntity
  8
DEFPOINTS
  6
ByBlock
 62
     0
100
AcDbPoint
 10
58.47296279449818
 20
232.3584612659177
 30
0.0
  0
ARC
  5
F7C
330
1E
100
AcDbEntity
  8
STEMPEL
100
AcDbCircle
 10
59.94338030899807
 20
229.45668938442
 30
0.0
 40
1.0
100
AcDbArc
 50
195.9999999999998
 51
270.0
  0
ARC
  5
F7D
102
{ACAD_REACTORS
330
F34
102
}
330
1E
100
AcDbEntity
  8
STEMPEL
100
AcDbCircle
 10
65.93984115936852
 20
225.7752687598195
 30
0.0
 40
4.5
100
AcDbArc
 50
90.0
 51
149.9999999999998
  0
POINT
  5
F7E
330
1E
100
AcDbEntity
  8
DEFPOINTS
  6
ByBlock
 62
     0
100
AcDbPoint
 10
60.45501360206701
 20
221.2752687598195
 30
0.0
  0
LINE
  5
F7F
102
{ACAD_REACTORS
330
F34
102
}
330
1E
100
AcDbEntity
  8
STEMPEL
100
AcDbLine
 10
60.45501360206701
 20
221.2752687598195
 30
0.0
 11
58.72296279449817
 21
222.2752687598195
 31
0.0
  0
LINE
  5
F80
102
{ACAD_REACTORS
330
F34
102
}
330
1E
100
AcDbEntity
  8
STEMPEL
100
AcDbLine
 10
60.45501360206701
 20
221.2752687598195
 30
0.0
 11
63.77477764990742
 21
227.0252687598195
 31
0.0
  0
LINE
  5
F81
102
{ACAD_REACTORS
330
F34
102
}
330
1E
100
AcDbEntity
  8
STEMPEL
100
AcDbLine
 10
58.72296279449817
 20
222.2752687598195
 30
0.0
 11
62.04272684233846
 21
228.0252687598195
 31
0.0
  0
LINE
  5
F82
102
{ACAD_REACTORS
330
F34
102
}
330
1E
100
AcDbEntity
  8
STEMPEL
100
AcDbLine
 10
65.93984115936852
 20
228.2752687598195
 30
0.0
 11
86.3590017638193
 21
228.2752687598195
 31
0.0
  0
LINE
  5
F83
102
{ACAD_REACTORS
330
F34
102
}
330
1E
100
AcDbEntity
  8
STEMPEL
100
AcDbLine
 10
65.93984115936852
 20
230.2752687598195
 30
0.0
 11
106.7229627944981
 21
230.2752687598195
 31
0.0
  0
ARC
  5
F84
102
{ACAD_REACTORS
330
F34
102
}
330
1E
100
AcDbEntity
  8
STEMPEL
100
AcDbCircle
 10
86.3590017638193
 20
225.7752687598195
 30
0.0
 40
4.5
100
AcDbArc
 50
45.0
 51
90.0
  0
ARC
  5
F85
102
{ACAD_REACTORS
330
F34
102
}
330
1E
100
AcDbEntity
  8
STEMPEL
100
AcDbCircle
 10
86.3590017638193
 20
225.7752687598195
 30
0.0
 40
2.5
100
AcDbArc
 50
45.0
 51
90.0
  0
LINE
  5
F86
102
{ACAD_REACTORS
330
F34
102
}
330
1E
100
AcDbEntity
  8
STEMPEL
100
AcDbLine
 10
90.0765161850915
 20
225.59328824448
 30
0.0
 11
88.12676871678563
 21
227.5430357127859
 31
0.0
  0
LINE
  5
F87
330
1E
100
AcDbEntity
  8
STEMPEL
100
AcDbLine
 10
63.47296279449818
 20
232.4566893844201
 30
0.0
 11
106.7229627944981
 21
232.45668938442
 31
0.0
  0
LINE
  5
F88
102
{ACAD_REACTORS
330
F33
102
}
330
1E
100
AcDbEntity
  8
STEMPEL
100
AcDbLine
 10
51.15481444707636
 20
231.95668938442
 30
0.0
 11
49.22296279449828
 21
232.474327474625
 31
0.0
  0
LINE
  5
F89
330
1E
100
AcDbEntity
  8
STEMPEL
100
AcDbLine
 10
51.15481444707636
 20
231.95668938442
 30
0.0
 11
58.47296279449818
 21
231.95668938442
 31
0.0
  0
LINE
  5
F8A
102
{ACAD_REACTORS
330
F34
102
}
330
1E
100
AcDbEntity
  8
MITTEL
100
AcDbLine
 10
111.7229627944981
 20
216.2752687598195
 30
0.0
 11
111.7229627944982
 21
266.2752687598194
 31
0.0
  0
LINE
  5
F8B
330
1E
100
AcDbEntity
  8
HILF
100
AcDbLine
 10
107.7229627944981
 20
226.2752687598195
 30
0.0
 11
107.7229627944982
 21
248.95668938442
 31
0.0
  0
LINE
  5
F8C
330
1E
100
AcDbEntity
  8
HILF
100
AcDbLine
 10
115.7229627944981
 20
226.2752687598195
 30
0.0
 11
115.722962794498
 21
248.95668938442
 31
0.0
  0
LINE
  5
F8D
330
1E
100
AcDbEntity
  8
STEMPEL
100
AcDbLine
 10
116.7229627944982
 20
226.2752687598195
 30
0.0
 11
116.7229627944981
 21
248.95668938442
 31
0.0
  0
LINE
  5
F8E
330
1E
100
AcDbEntity
  8
STEMPEL
100
AcDbLine
 10
106.7229627944981
 20
226.2752687598195
 30
0.0
 11
106.7229627944981
 21
248.95668938442
 31
0.0
  0
LINE
  5
F8F
330
1E
100
AcDbEntity
  8
STEMPEL
100
AcDbLine
 10
63.47296279449818
 20
232.4566893844201
 30
0.0
 11
63.47296279449818
 21
243.45668938442
 31
0.0
  0
LINE
  5
F90
330
1E
100
AcDbEntity
  8
STEMPEL
100
AcDbLine
 10
58.47296279449818
 20
230.9566893844202
 30
0.0
 11
58.47296279449818
 21
241.95668938442
 31
0.0
  0
LINE
  5
F91
102
{ACAD_REACTORS
330
F33
102
}
330
1E
100
AcDbEntity
  8
STEMPEL
100
AcDbLine
 10
53.73973306425902
 20
241.6037369971763
 30
0.0
 11
51.15481444707636
 21
231.95668938442
 31
0.0
  0
LINE
  5
F92
102
{ACAD_REACTORS
330
F33
102
}
330
1E
100
AcDbEntity
  8
STEMPEL
100
AcDbLine
 10
51.80788141168095
 20
242.1213750873814
 30
0.0
 11
49.22296279449828
 21
232.474327474625
 31
0.0
  0
LINE
  5
F93
102
{ACAD_REACTORS
330
F34
102
}
330
1E
100
AcDbEntity
  8
STEMPEL
100
AcDbLine
 10
93.25849670043094
 20
224.2752687598195
 30
0.0
 11
130.1874288885655
 21
224.2752687598195
 31
0.0
  0
LINE
  5
F94
102
{ACAD_REACTORS
330
F34
102
}
330
1E
100
AcDbEntity
  8
STEMPEL
100
AcDbLine
 10
116.7229627944982
 20
230.2752687598195
 30
0.0
 11
157.5060844296279
 21
230.2752687598195
 31
0.0
  0
LINE
  5
F95
102
{ACAD_REACTORS
330
F34
102
}
330
1E
100
AcDbEntity
  8
STEMPEL
100
AcDbLine
 10
93.25849670043094
 20
226.2752687598195
 30
0.0
 11
130.1874288885655
 21
226.2752687598195
 31
0.0
  0
LINE
  5
F96
330
1E
100
AcDbEntity
  8
STEMPEL
100
AcDbLine
 10
116.7229627944982
 20
232.45668938442
 30
0.0
 11
159.9729627944982
 21
232.45668938442
 31
0.0
  0
LINE
  5
F97
102
{ACAD_REACTORS
330
F33
102
}
330
1E
100
AcDbEntity
  8
STEMPEL
100
AcDbLine
 10
92.25849670043094
 20
248.95668938442
 30
0.0
 11
131.1874288885655
 21
248.95668938442
 31
0.0
  0
LINE
  5
F98
102
{ACAD_REACTORS
330
F33
102
}
330
1E
100
AcDbEntity
  8
STEMPEL
100
AcDbLine
 10
116.7229627944982
 20
243.45668938442
 30
0.0
 11
167.2913779590147
 21
243.4566893844201
 31
0.0
  0
LINE
  5
F99
102
{ACAD_REACTORS
330
F33
102
}
330
1E
100
AcDbEntity
  8
STEMPEL
100
AcDbLine
 10
116.7229627944982
 20
246.95668938442
 30
0.0
 11
131.1874288885655
 21
246.95668938442
 31
0.0
  0
INSERT
  5
F9A
330
1E
100
AcDbEntity
  8
SCHRAFF
100
AcDbBlockReference
  2
*X2
 10
-221.2584097148256
 20
-8.1144044017893
 30
0.0
1001
ACAD
1000
HATCH
1002
{
1070
    16
1000
NET,I
1040
15.0
1040
0.7853981633974483
1002
}
  0
DIMENSION
  5
F9B
330
1E
100
AcDbEntity
  8
BEM
100
AcDbDimension
  2
*D3
 10
174.2229627944982
 20
271.4605886172592
 30
0.0
 11
111.7229627944982
 21
274.7105886172592
 31
0.0
 70
    32
  1
%%c<>
 71
     5
 42
124.9999999999999
  3
Standard
100
AcDbAlignedDimension
 13
49.2229627944983
 23
232.474327474625
 33
0.0
 14
174.2229627944982
 24
232.474327474625
 34
0.0
100
AcDbRotatedDimension
1001
ACAD
1000
DSTYLE
1002
{
1070
    41
1040
3.5
1070
    42
1040
1.0
1070
    43
1040
7.0
1070
    44
1040
1.0
1070
    73
1070
     0
1070
    74
1070
     0
1070
    77
1070
     1
1070
    78
1070
     8
1070
    79
1070
     2
1070
   140
1040
3.5
1070
   141
1040
1.5
1070
   146
1040
0.5
1070
   147
1040
1.5
1070
   172
1070
     1
1070
   178
1070
     1
1070
   179
1070
     2
1070
   271
1070
     2
1070
   272
1070
     2
1070
   284
1070
     8
1070
   285
1070
     8
1070
   286
1070
     8
1002
}
  0
CIRCLE
  5
FC5
330
1E
100
AcDbEntity
  8
STEMPEL
100
AcDbCircle
 10
111.7229627944981
 20
133.5494582698625
 30
0.0
 40
5.0
  0
LWPOLYLINE
  5
FC6
330
1E
100
AcDbEntity
  8
STEMPEL
100
AcDbPolyline
 90
        6
 70
     1
 43
0.0
 10
107.3928357755759
 20
141.0494582698626
 10
103.0627087566537
 20
133.5494582698625
 10
107.3928357755759
 20
126.0494582698626
 10
116.0530898134203
 20
126.0494582698626
 10
120.3832168323424
 20
133.5494582698625
 10
116.0530898134203
 20
141.0494582698626
  0
CIRCLE
  5
FC7
330
1E
100
AcDbEntity
  8
STEMPEL
100
AcDbCircle
 10
111.7229627944981
 20
133.5494582698625
 30
0.0
 40
10.9
  0
CIRCLE
  5
FC8
330
1E
100
AcDbEntity
  8
HILF
100
AcDbCircle
 10
111.7229627944981
 20
133.5494582698625
 30
0.0
 40
10.40651510749425
  0
ARC
  5
FC9
330
1E
100
AcDbEntity
  8
HILF
100
AcDbCircle
 10
111.7229627944981
 20
133.5494582698625
 30
0.0
 40
4.188000000000005
100
AcDbArc
 50
200.0000000000001
 51
110.0000000000001
  0
CIRCLE
  5
FCA
330
1E
100
AcDbEntity
  8
STEMPEL
100
AcDbCircle
 10
111.7229627944982
 20
133.5494582698625
 30
0.0
 40
7.499999999999968
  0
POINT
  5
FCB
330
1E
100
AcDbEntity
  8
0
100
AcDbPoint
 10
111.7229627944981
 20
133.5494582698625
 30
0.0
  0
ENDSEC
  0
SECTION
  2
OBJECTS
  0
DICTIONARY
  5
C
330
0
100
AcDbDictionary
281
     1
  3
ACAD_COLOR
350
DF
  3
ACAD_GROUP
350
D
  3
ACAD_LAYOUT
350
19
  3
ACAD_MATERIAL
350
DE
  3
ACAD_MLINESTYLE
350
16
  3
ACAD_PLOTSETTINGS
350
18
  3
ACAD_PLOTSTYLENAME
350
E
  3
AcDbVariableDictionary
350
EA
  0
DICTIONARY
  5
A0
330
1E
100
AcDbDictionary
280
     1
281
     1
  3
ACAD_LAYOUTSELFREF
360
D4
  0
DICTIONARY
  5
A2
330
1A
100
AcDbDictionary
280
     1
281
     1
  3
ACAD_LAYOUTSELFREF
360
D3
  0
DICTIONARY
  5
DF
102
{ACAD_REACTORS
330
C
102
}
330
C
100
AcDbDictionary
281
     1
  0
DICTIONARY
  5
D
102
{ACAD_REACTORS
330
C
102
}
330
C
100
AcDbDictionary
281
     1
  0
DICTIONARY
  5
19
102
{ACAD_REACTORS
330
C
102
}
330
C
100
AcDbDictionary
281
     1
  3
Layout1
350
1D
  3
Model
350
21
  0
DICTIONARY
  5
DE
102
{ACAD_REACTORS
330
C
102
}
330
C
100
AcDbDictionary
281
     1
  0
DICTIONARY
  5
16
102
{ACAD_REACTORS
330
C
102
}
330
C
100
AcDbDictionary
281
     1
  3
Standard
350
17
  0
DICTIONARY
  5
18
102
{ACAD_REACTORS
330
C
102
}
330
C
100
AcDbDictionary
281
     1
  0
ACDBDICTIONARYWDFLT
  5
E
102
{ACAD_REACTORS
330
C
102
}
330
C
100
AcDbDictionary
281
     1
  3
Normal
350
F
100
AcDbDictionaryWithDefault
340
F
  0
DICTIONARY
  5
EA
102
{ACAD_REACTORS
330
C
102
}
330
C
100
AcDbDictionary
281
     1
  3
DIMASSOC
350
EB
  3
PROJECTNAME
350
EC
  0
XRECORD
  5
D4
102
{ACAD_REACTORS
330
A0
102
}
330
A0
100
AcDbXrecord
280
     1
340
1E
  0
XRECORD
  5
D3
102
{ACAD_REACTORS
330
A2
102
}
330
A2
100
AcDbXrecord
280
     1
340
1A
  0
LAYOUT
  5
1D
102
{ACAD_REACTORS
330
19
102
}
330
19
100
AcDbPlotSettings
  1

  2
\\NT_WORK01\HP LaserJet 5000 PCL 6
  4

  6

 40
0.0
 41
0.0
 42
0.0
 43
0.0
 44
0.0
 45
0.0
 46
0.0
 47
0.0
 48
0.0
 49
0.0
140
0.0
141
0.0
142
1.0
143
1.0
 70
   688
 72
     0
 73
     0
 74
     5
  7

 75
    16
147
1.0
 76
     0
 77
     2
 78
   300
148
0.0
149
0.0
100
AcDbLayout
  1
Layout1
 70
     0
 71
     1
 10
0.0
 20
0.0
 11
12.0
 21
9.0
 12
0.0
 22
0.0
 32
0.0
 14
1.000000000000000E+20
 24
1.000000000000000E+20
 34
1.000000000000000E+20
 15
-1.000000000000000E+20
 25
-1.000000000000000E+20
 35
-1.000000000000000E+20
146
0.0
 13
0.0
 23
0.0
 33
0.0
 16
1.0
 26
0.0
 36
0.0
 17
0.0
 27
1.0
 37
0.0
 76
     0
330
1A
  0
LAYOUT
  5
21
102
{ACAD_REACTORS
330
19
102
}
330
19
100
AcDbPlotSettings
  1

  2
none_device
  4
Letter_(8.50_x_11.00_Inches)
  6

 40
6.349999904632568
 41
6.349999904632568
 42
6.350006103515625
 43
6.350006103515625
 44
215.8999938964844
 45
279.3999938964844
 46
0.0
 47
0.0
 48
0.0
 49
0.0
140
0.0
141
0.0
142
1.0
143
1.0
 70
 11952
 72
     0
 73
     1
 74
     0
  7

 75
     0
147
1.0
 76
     0
 77
     2
 78
   300
148
1105.615070706598
149
0.7150707065978054
100
AcDbLayout
  1
Model
 70
     1
 71
     0
 10
0.0
 20
0.0
 11
12.0
 21
9.0
 12
0.0
 22
0.0
 32
0.0
 14
0.0
 24
0.0
 34
0.0
 15
0.0
 25
0.0
 35
0.0
146
0.0
 13
0.0
 23
0.0
 33
0.0
 16
1.0
 26
0.0
 36
0.0
 17
0.0
 27
1.0
 37
0.0
 76
     0
330
1E
  0
MLINESTYLE
  5
17
102
{ACAD_REACTORS
330
16
102
}
330
16
100
AcDbMlineStyle
  2
STANDARD
 70
     0
  3

 62
   256
 51
90.0
 52
90.0
 71
     2
 49
0.5
 62
   256
  6
BYLAYER
 49
-0.5
 62
   256
  6
BYLAYER
  0
ACDBPLACEHOLDER
  5
F
102
{ACAD_REACTORS
330
E
102
}
330
E
  0
DICTIONARYVAR
  5
EB
102
{ACAD_REACTORS
330
EA
102
}
330
EA
100
DictionaryVariables
280
     0
  1
1
  0
DICTIONARYVAR
  5
EC
102
{ACAD_REACTORS
330
EA
102
}
330
EA
100
DictionaryVariables
280
     0
  1

  0
ENDSEC
  0
EOF
