  0
SECTION
  2
HEADER
  9
$ACADVER
  1
AC1018
  9
$ACADMAINTVER
 70
     2
  9
$DWGCODEPAGE
  3
ANSI_1252
  9
$INSBASE
 10
0.0
 20
0.0
 30
0.0
  9
$EXTMIN
 10
-0.012813617635004
 20
-0.0212588330173276
 30
-0.000000000000013
  9
$EXTMAX
 10
210.0128202187944
 20
297.002802681511
 30
0.0000000000000023
  9
$LIMMIN
 10
0.0
 20
0.0
  9
$LIMMAX
 10
210.0
 20
297.0
  9
$ORTHOMODE
 70
     1
  9
$REGENMODE
 70
     1
  9
$FILLMODE
 70
     1
  9
$QTEXTMODE
 70
     0
  9
$MIRRTEXT
 70
     1
  9
$LTSCALE
 40
10.0
  9
$ATTMODE
 70
     1
  9
$TEXTSIZE
 40
3.5
  9
$TRACEWID
 40
0.5
  9
$TEXTSTYLE
  7
STANDARD
  9
$CLAYER
  8
VOLL
  9
$CELTYPE
  6
BYLAYER
  9
$CECOLOR
 62
   256
  9
$CELTSCALE
 40
1.0
  9
$DISPSILH
 70
     0
  9
$DIMSCALE
 40
1.0
  9
$DIMASZ
 40
3.5
  9
$DIMEXO
 40
1.0
  9
$DIMDLI
 40
8.0
  9
$DIMRND
 40
0.0
  9
$DIMDLE
 40
0.0
  9
$DIMEXE
 40
1.0
  9
$DIMTP
 40
2.0
  9
$DIMTM
 40
2.0
  9
$DIMTXT
 40
3.5
  9
$DIMCEN
 40
1.5
  9
$DIMTSZ
 40
0.0
  9
$DIMTOL
 70
     0
  9
$DIMLIM
 70
     0
  9
$DIMTIH
 70
     0
  9
$DIMTOH
 70
     0
  9
$DIMSE1
 70
     0
  9
$DIMSE2
 70
     0
  9
$DIMTAD
 70
     1
  9
$DIMZIN
 70
     8
  9
$DIMBLK
  1

  9
$DIMASO
 70
     1
  9
$DIMSHO
 70
     0
  9
$DIMPOST
  1

  9
$DIMAPOST
  1

  9
$DIMALT
 70
     0
  9
$DIMALTD
 70
     2
  9
$DIMALTF
 40
25.4
  9
$DIMLFAC
 40
1.0
  9
$DIMTOFL
 70
     1
  9
$DIMTVP
 40
0.0
  9
$DIMTIX
 70
     0
  9
$DIMSOXD
 70
     0
  9
$DIMSAH
 70
     0
  9
$DIMBLK1
  1

  9
$DIMBLK2
  1

  9
$DIMSTYLE
  2
STANDARD
  9
$DIMCLRD
 70
     0
  9
$DIMCLRE
 70
     0
  9
$DIMCLRT
 70
     1
  9
$DIMTFAC
 40
1.0
  9
$DIMGAP
 40
1.0
  9
$DIMJUST
 70
     0
  9
$DIMSD1
 70
     0
  9
$DIMSD2
 70
     0
  9
$DIMTOLJ
 70
     1
  9
$DIMTZIN
 70
     8
  9
$DIMALTZ
 70
     8
  9
$DIMALTTZ
 70
     8
  9
$DIMUPT
 70
     0
  9
$DIMDEC
 70
     2
  9
$DIMTDEC
 70
     2
  9
$DIMALTU
 70
     2
  9
$DIMALTTD
 70
     2
  9
$DIMTXSTY
  7
STANDARD
  9
$DIMAUNIT
 70
     0
  9
$DIMADEC
 70
     2
  9
$DIMALTRND
 40
0.0
  9
$DIMAZIN
 70
     2
  9
$DIMDSEP
 70
    46
  9
$DIMATFIT
 70
     3
  9
$DIMFRAC
 70
     0
  9
$DIMLDRBLK
  1

  9
$DIMLUNIT
 70
     2
  9
$DIMLWD
 70
    -2
  9
$DIMLWE
 70
    -2
  9
$DIMTMOVE
 70
     0
  9
$LUNITS
 70
     2
  9
$LUPREC
 70
     2
  9
$SKETCHINC
 40
1.0
  9
$FILLETRAD
 40
12.0
  9
$AUNITS
 70
     0
  9
$AUPREC
 70
     0
  9
$MENU
  1
ACAD
  9
$ELEVATION
 40
0.0
  9
$PELEVATION
 40
0.0
  9
$THICKNESS
 40
0.0
  9
$LIMCHECK
 70
     0
  9
$CHAMFERA
 40
0.0
  9
$CHAMFERB
 40
0.0
  9
$CHAMFERC
 40
0.0
  9
$CHAMFERD
 40
0.0
  9
$SKPOLY
 70
     0
  9
$TDCREATE
 40
2455397.864709028
  9
$TDUCREATE
 40
2455397.781375695
  9
$TDUPDATE
 40
2455653.484018669
  9
$TDUUPDATE
 40
2455653.400685336
  9
$TDINDWG
 40
0.2914075347
  9
$TDUSRTIMER
 40
0.2914075347
  9
$USRTIMER
 70
     1
  9
$ANGBASE
 50
0.0
  9
$ANGDIR
 70
     0
  9
$PDMODE
 70
     0
  9
$PDSIZE
 40
0.0
  9
$PLINEWID
 40
0.0
  9
$SPLFRAME
 70
     0
  9
$SPLINETYPE
 70
     6
  9
$SPLINESEGS
 70
     8
  9
$HANDSEED
  5
12BF
  9
$SURFTAB1
 70
     6
  9
$SURFTAB2
 70
     6
  9
$SURFTYPE
 70
     6
  9
$SURFU
 70
     6
  9
$SURFV
 70
     6
  9
$UCSBASE
  2

  9
$UCSNAME
  2

  9
$UCSORG
 10
0.0
 20
0.0
 30
0.0
  9
$UCSXDIR
 10
1.0
 20
0.0
 30
0.0
  9
$UCSYDIR
 10
0.0
 20
1.0
 30
0.0
  9
$UCSORTHOREF
  2

  9
$UCSORTHOVIEW
 70
     0
  9
$UCSORGTOP
 10
0.0
 20
0.0
 30
0.0
  9
$UCSORGBOTTOM
 10
0.0
 20
0.0
 30
0.0
  9
$UCSORGLEFT
 10
0.0
 20
0.0
 30
0.0
  9
$UCSORGRIGHT
 10
0.0
 20
0.0
 30
0.0
  9
$UCSORGFRONT
 10
0.0
 20
0.0
 30
0.0
  9
$UCSORGBACK
 10
0.0
 20
0.0
 30
0.0
  9
$PUCSBASE
  2

  9
$PUCSNAME
  2

  9
$PUCSORG
 10
0.0
 20
0.0
 30
0.0
  9
$PUCSXDIR
 10
1.0
 20
0.0
 30
0.0
  9
$PUCSYDIR
 10
0.0
 20
1.0
 30
0.0
  9
$PUCSORTHOREF
  2

  9
$PUCSORTHOVIEW
 70
     0
  9
$PUCSORGTOP
 10
0.0
 20
0.0
 30
0.0
  9
$PUCSORGBOTTOM
 10
0.0
 20
0.0
 30
0.0
  9
$PUCSORGLEFT
 10
0.0
 20
0.0
 30
0.0
  9
$PUCSORGRIGHT
 10
0.0
 20
0.0
 30
0.0
  9
$PUCSORGFRONT
 10
0.0
 20
0.0
 30
0.0
  9
$PUCSORGBACK
 10
0.0
 20
0.0
 30
0.0
  9
$USERI1
 70
     0
  9
$USERI2
 70
     0
  9
$USERI3
 70
     0
  9
$USERI4
 70
     0
  9
$USERI5
 70
     0
  9
$USERR1
 40
0.0
  9
$USERR2
 40
0.0
  9
$USERR3
 40
0.0
  9
$USERR4
 40
0.0
  9
$USERR5
 40
0.0
  9
$WORLDVIEW
 70
     1
  9
$SHADEDGE
 70
     3
  9
$SHADEDIF
 70
    70
  9
$TILEMODE
 70
     1
  9
$MAXACTVP
 70
    16
  9
$PINSBASE
 10
0.0
 20
0.0
 30
0.0
  9
$PLIMCHECK
 70
     0
  9
$PEXTMIN
 10
1.000000000000000E+20
 20
1.000000000000000E+20
 30
1.000000000000000E+20
  9
$PEXTMAX
 10
-1.000000000000000E+20
 20
-1.000000000000000E+20
 30
-1.000000000000000E+20
  9
$PLIMMIN
 10
0.0
 20
0.0
  9
$PLIMMAX
 10
12.0
 20
9.0
  9
$UNITMODE
 70
     0
  9
$VISRETAIN
 70
     0
  9
$PLINEGEN
 70
     0
  9
$PSLTSCALE
 70
     0
  9
$TREEDEPTH
 70
  3020
  9
$CMLSTYLE
  2
STANDARD
  9
$CMLJUST
 70
     0
  9
$CMLSCALE
 40
1.0
  9
$PROXYGRAPHICS
 70
     1
  9
$MEASUREMENT
 70
     0
  9
$CELWEIGHT
370
    -1
  9
$ENDCAPS
280
     0
  9
$JOINSTYLE
280
     0
  9
$LWDISPLAY
290
     0
  9
$INSUNITS
 70
     0
  9
$HYPERLINKBASE
  1

  9
$STYLESHEET
  1
monochrome 1.ctb
  9
$XEDIT
290
     1
  9
$CEPSNTYPE
380
     0
  9
$PSTYLEMODE
290
     1
  9
$FINGERPRINTGUID
  2
{A24037B6-A1E1-4B12-869E-16428E1CCB11}
  9
$VERSIONGUID
  2
{C077496E-0082-4E8F-970A-B0851A0AEE0D}
  9
$EXTNAMES
290
     1
  9
$PSVPSCALE
 40
0.0
  9
$OLESTARTUP
290
     0
  9
$SORTENTS
280
   127
  9
$INDEXCTL
280
     0
  9
$HIDETEXT
280
     0
  9
$XCLIPFRAME
290
     0
  9
$HALOGAP
280
     0
  9
$OBSCOLOR
 70
   257
  9
$OBSLTYPE
280
     0
  9
$INTERSECTIONDISPLAY
280
     0
  9
$INTERSECTIONCOLOR
 70
   257
  9
$DIMASSOC
280
     1
  9
$PROJECTNAME
  1

  0
ENDSEC
  0
SECTION
  2
CLASSES
  0
CLASS
  1
DICTIONARYVAR
  2
AcDbDictionaryVar
  3
ObjectDBX Classes
 90
        0
 91
        3
280
     0
281
     0
  0
CLASS
  1
ACDBDICTIONARYWDFLT
  2
AcDbDictionaryWithDefault
  3
ObjectDBX Classes
 90
        0
 91
        1
280
     0
281
     0
  0
ENDSEC
  0
SECTION
  2
TABLES
  0
TABLE
  2
VPORT
  5
8
330
0
100
AcDbSymbolTable
 70
     3
  0
VPORT
  5
12BE
330
8
100
AcDbSymbolTableRecord
100
AcDbViewportTableRecord
  2
*Active
 70
     0
 10
0.0
 20
0.0
 11
1.0
 21
1.0
 12
105.0
 22
148.5
 13
0.0
 23
0.0
 14
1.0
 24
1.0
 15
10.0
 25
10.0
 16
0.0
 26
0.0
 36
1.0
 17
0.0
 27
0.0
 37
0.0
 40
297.0
 41
1.334231805929919
 42
50.0
 43
0.0
 44
0.0
 50
0.0
 51
0.0
 71
     0
 72
  1500
 73
     1
 74
     0
 75
     0
 76
     0
 77
     0
 78
     0
281
     0
 65
     1
110
0.0
120
0.0
130
0.0
111
1.0
121
0.0
131
0.0
112
0.0
122
1.0
132
0.0
 79
     0
146
0.0
  0
ENDTAB
  0
TABLE
  2
LTYPE
  5
5
330
0
100
AcDbSymbolTable
 70
     3
  0
LTYPE
  5
11
330
5
100
AcDbSymbolTableRecord
100
AcDbLinetypeTableRecord
  2
BYBLOCK
 70
     0
  3

 72
    65
 73
     0
 40
0.0
  0
LTYPE
  5
12
330
5
100
AcDbSymbolTableRecord
100
AcDbLinetypeTableRecord
  2
BYLAYER
 70
     0
  3

 72
    65
 73
     0
 40
0.0
  0
LTYPE
  5
13
330
5
100
AcDbSymbolTableRecord
100
AcDbLinetypeTableRecord
  2
AUSGEZOGEN
 70
     0
  3
Ausgezogene Linie
 72
    65
 73
     0
 40
0.0
  0
LTYPE
  5
1F
330
5
100
AcDbSymbolTableRecord
100
AcDbLinetypeTableRecord
  2
STRICHPUNKT
 70
     0
  3
__ . __ . __ . __ . __ . __ . __ . __ . __ . __
 72
    65
 73
     4
 40
1.0
 49
0.5
 74
     0
 49
-0.25
 74
     0
 49
0.0
 74
     0
 49
-0.25
 74
     0
  0
LTYPE
  5
2D
330
5
100
AcDbSymbolTableRecord
100
AcDbLinetypeTableRecord
  2
CONTINUOUS
 70
     0
  3
Solid line
 72
    65
 73
     0
 40
0.0
  0
ENDTAB
  0
TABLE
  2
LAYER
  5
2
330
0
100
AcDbSymbolTable
 70
    10
  0
LAYER
  5
E
330
2
100
AcDbSymbolTableRecord
100
AcDbLayerTableRecord
  2
0
 70
     0
 62
     7
  6
AUSGEZOGEN
370
    -3
390
B6C
1001
RAK
1000
{LAYER_STATE1
1070
     0
1070
     7
1000
AUSGEZOGEN
1000
LAYER_STATE1}
  0
LAYER
  5
24
330
2
100
AcDbSymbolTableRecord
100
AcDbLayerTableRecord
  2
VOLL
 70
     0
 62
     1
  6
AUSGEZOGEN
370
    -3
390
B6C
1001
RAK
1000
{LAYER_STATE1
1070
     0
1070
     1
1000
AUSGEZOGEN
1000
LAYER_STATE1}
  0
LAYER
  5
25
330
2
100
AcDbSymbolTableRecord
100
AcDbLayerTableRecord
  2
HILF
 70
     0
 62
     2
  6
AUSGEZOGEN
370
    -3
390
B6C
1001
RAK
1000
{LAYER_STATE1
1070
     0
1070
     2
1000
AUSGEZOGEN
1000
LAYER_STATE1}
  0
LAYER
  5
29
330
2
100
AcDbSymbolTableRecord
100
AcDbLayerTableRecord
  2
BEM
 70
     0
 62
     7
  6
AUSGEZOGEN
370
    -3
390
B6C
1001
RAK
1000
{LAYER_STATE1
1070
     0
1070
     7
1000
AUSGEZOGEN
1000
LAYER_STATE1}
  0
LAYER
  5
2A
330
2
100
AcDbSymbolTableRecord
100
AcDbLayerTableRecord
  2
STEMPEL
 70
     0
 62
     3
  6
AUSGEZOGEN
370
    -3
390
B6C
1001
RAK
1000
{LAYER_STATE1
1070
     0
1070
     3
1000
AUSGEZOGEN
1070
     1
1000
LAYER_STATE1}
  0
LAYER
  5
A0
330
2
100
AcDbSymbolTableRecord
100
AcDbLayerTableRecord
  2
TEXT
 70
     0
 62
     7
  6
AUSGEZOGEN
370
    -3
390
B6C
1001
RAK
1000
{LAYER_STATE1
1070
     0
1070
     7
1000
AUSGEZOGEN
1000
LAYER_STATE1}
  0
LAYER
  5
A1
330
2
100
AcDbSymbolTableRecord
100
AcDbLayerTableRecord
  2
TEXT35
 70
     0
 62
     1
  6
AUSGEZOGEN
370
    -3
390
B6C
1001
RAK
1000
{LAYER_STATE1
1070
     0
1070
     1
1000
AUSGEZOGEN
1000
LAYER_STATE1}
  0
LAYER
  5
BA4
330
2
100
AcDbSymbolTableRecord
100
AcDbLayerTableRecord
  2
MITTEL
 70
     0
 62
     2
  6
STRICHPUNKT
370
    -3
390
B6C
  0
LAYER
  5
BDF
330
2
100
AcDbSymbolTableRecord
100
AcDbLayerTableRecord
  2
Defpoints
 70
     0
 62
     7
  6
AUSGEZOGEN
290
     0
370
    -3
390
B6C
  0
LAYER
  5
CED
330
2
100
AcDbSymbolTableRecord
100
AcDbLayerTableRecord
  2
SCHRAFF
 70
     0
 62
     7
  6
AUSGEZOGEN
370
    -3
390
B6C
  0
ENDTAB
  0
TABLE
  2
STYLE
  5
3
330
0
100
AcDbSymbolTable
 70
     2
  0
STYLE
  5
F
330
3
100
AcDbSymbolTableRecord
100
AcDbTextStyleTableRecord
  2
STANDARD
 70
     0
 40
0.0
 41
0.8
 50
0.0
 71
     0
 42
3.5
  3
SIMPLEX.shx
  4

  0
STYLE
  5
1E
330
3
100
AcDbSymbolTableRecord
100
AcDbTextStyleTableRecord
  2
GREEKS
 70
     0
 40
0.0
 41
0.8
 50
0.0
 71
     0
 42
2.5
  3
SIMPLEX.shx
  4

  0
ENDTAB
  0
TABLE
  2
VIEW
  5
6
330
0
100
AcDbSymbolTable
 70
     0
  0
ENDTAB
  0
TABLE
  2
UCS
  5
7
330
0
100
AcDbSymbolTable
 70
     0
  0
ENDTAB
  0
TABLE
  2
APPID
  5
9
330
0
100
AcDbSymbolTable
 70
     2
  0
APPID
  5
10
330
9
100
AcDbSymbolTableRecord
100
AcDbRegAppTableRecord
  2
ACAD
 70
     0
  0
APPID
  5
9F
330
9
100
AcDbSymbolTableRecord
100
AcDbRegAppTableRecord
  2
RAK
 70
     0
  0
ENDTAB
  0
TABLE
  2
DIMSTYLE
  5
A
330
0
100
AcDbSymbolTable
 70
     1
100
AcDbDimStyleTable
 71
     1
340
9C
  0
DIMSTYLE
105
9C
102
{ACAD_REACTORS
330
DD0
330
E25
330
E18
102
}
330
A
100
AcDbSymbolTableRecord
100
AcDbDimStyleTableRecord
  2
STANDARD
 70
     0
 41
3.5
 42
1.0
 43
8.0
 44
1.5
 73
     0
 74
     0
 77
     1
 78
     8
140
3.5
141
1.5
147
1.0
172
     1
178
     1
271
     2
272
     2
279
     2
284
     8
285
     8
286
     8
340
F
  0
ENDTAB
  0
TABLE
  2
BLOCK_RECORD
  5
1
330
0
100
AcDbSymbolTable
 70
    10
  0
BLOCK_RECORD
  5
17
330
1
100
AcDbSymbolTableRecord
100
AcDbBlockTableRecord
  2
*MODEL_SPACE
340
B71
  0
BLOCK_RECORD
  5
14
330
1
100
AcDbSymbolTableRecord
100
AcDbBlockTableRecord
  2
*PAPER_SPACE
340
B72
  0
BLOCK_RECORD
  5
1C
330
1
100
AcDbSymbolTableRecord
100
AcDbBlockTableRecord
  2
LOGO
340
0
102
{BLKREFS
331
90
102
}
  0
BLOCK_RECORD
  5
DD1
330
1
100
AcDbSymbolTableRecord
100
AcDbBlockTableRecord
  2
*D4
340
0
  0
BLOCK_RECORD
  5
E19
330
1
100
AcDbSymbolTableRecord
100
AcDbBlockTableRecord
  2
*D6
340
0
  0
BLOCK_RECORD
  5
E26
330
1
100
AcDbSymbolTableRecord
100
AcDbBlockTableRecord
  2
*D7
340
0
  0
ENDTAB
  0
ENDSEC
  0
SECTION
  2
BLOCKS
  0
BLOCK
  5
30
330
17
100
AcDbEntity
  8
0
100
AcDbBlockBegin
  2
*MODEL_SPACE
 70
     0
 10
0.0
 20
0.0
 30
0.0
  3
*MODEL_SPACE
  1

  0
ENDBLK
  5
31
330
17
100
AcDbEntity
  8
0
100
AcDbBlockEnd
  0
BLOCK
  5
2E
330
14
100
AcDbEntity
 67
     1
  8
0
100
AcDbBlockBegin
  2
*PAPER_SPACE
 70
     0
 10
0.0
 20
0.0
 30
0.0
  3
*PAPER_SPACE
  1

  0
ENDBLK
  5
2F
330
14
100
AcDbEntity
 67
     1
  8
0
100
AcDbBlockEnd
  0
BLOCK
  5
34
330
1C
100
AcDbEntity
  8
0
100
AcDbBlockBegin
  2
LOGO
 70
     0
 10
0.0
 20
0.0
 30
0.0
  3
LOGO
  1

  0
ARC
  5
35
330
1C
100
AcDbEntity
  8
0
100
AcDbCircle
 10
11.59973089678112
 20
-9.271599258481501
 30
0.0
 40
4.5
100
AcDbArc
 50
270.0
 51
231.0575587310159
  0
LINE
  5
36
330
1C
100
AcDbEntity
  8
0
100
AcDbLine
 10
3.599730896781125
 20
-4.771599258481529
 30
0.0
 11
3.599730896781153
 21
-11.77159925848133
 31
0.0
  0
LINE
  5
37
330
1C
100
AcDbEntity
  8
0
100
AcDbLine
 10
2.599730896781125
 20
-4.771599258481529
 30
0.0
 11
2.599730896781153
 21
-11.77159925848133
 31
0.0
  0
CIRCLE
  5
38
330
1C
100
AcDbEntity
  8
0
100
AcDbCircle
 10
11.59973089678112
 20
-9.271599258481501
 30
0.0
 40
3.5
  0
ARC
  5
39
330
1C
100
AcDbEntity
  8
0
100
AcDbCircle
 10
31.59973089678115
 20
-9.271599258481472
 30
0.0
 40
4.5
100
AcDbArc
 50
270.0
 51
231.0575587310182
  0
LINE
  5
3A
330
1C
100
AcDbEntity
  8
0
100
AcDbLine
 10
17.59973089678112
 20
-4.771599258481472
 30
0.0
 11
17.59973089678115
 21
-13.77159925848147
 31
0.0
  0
ARC
  5
3B
330
1C
100
AcDbEntity
  8
0
100
AcDbCircle
 10
22.59973089678116
 20
-7.271599258481472
 30
0.0
 40
2.5
100
AcDbArc
 50
293.1161887722295
 51
90.0
  0
CIRCLE
  5
3C
330
1C
100
AcDbEntity
  8
0
100
AcDbCircle
 10
31.59973089678115
 20
-9.271599258481472
 30
0.0
 40
3.5
  0
ARC
  5
3D
330
1C
100
AcDbEntity
  8
0
100
AcDbCircle
 10
4.599730896781153
 20
-11.77159925848133
 30
0.0
 40
1.0
100
AcDbArc
 50
180.0
 51
270.0
  0
ARC
  5
3E
330
1C
100
AcDbEntity
  8
0
100
AcDbCircle
 10
4.599730896781153
 20
-11.77159925848133
 30
0.0
 40
2.0
100
AcDbArc
 50
179.9999999999992
 51
270.0
  0
LINE
  5
3F
330
1C
100
AcDbEntity
  8
0
100
AcDbLine
 10
11.59973089678115
 20
-13.77159925848144
 30
0.0
 11
4.599730896781153
 21
-13.77159925848147
 31
0.0
  0
LINE
  5
40
330
1C
100
AcDbEntity
  8
0
100
AcDbLine
 10
8.771303772034769
 20
-12.77159925848136
 30
0.0
 11
4.599730896781153
 21
-12.77159925848133
 31
0.0
  0
LINE
  5
41
330
1C
100
AcDbEntity
  8
0
100
AcDbLine
 10
31.59973089678115
 20
-13.77159925848147
 30
0.0
 11
23.6715276665056
 21
-13.77159925848144
 31
0.0
  0
LINE
  5
42
330
1C
100
AcDbEntity
  8
0
100
AcDbLine
 10
23.56565672307022
 20
-9.51278021337896
 30
0.0
 11
24.4388546544846
 21
-12.77159925848144
 31
0.0
  0
LINE
  5
43
330
1C
100
AcDbEntity
  8
0
100
AcDbLine
 10
22.59973089678116
 20
-9.771599258481472
 30
0.0
 11
18.59973089678112
 21
-9.771599258481472
 31
0.0
  0
LINE
  5
44
330
1C
100
AcDbEntity
  8
0
100
AcDbLine
 10
18.59973089678115
 20
-13.77159925848144
 30
0.0
 11
17.59973089678115
 21
-13.77159925848144
 31
0.0
  0
LINE
  5
45
330
1C
100
AcDbEntity
  8
0
100
AcDbLine
 10
18.59973089678115
 20
-9.771599258481472
 30
0.0
 11
18.59973089678115
 21
-13.77159925848144
 31
0.0
  0
LINE
  5
46
330
1C
100
AcDbEntity
  8
0
100
AcDbLine
 10
22.59973089678116
 20
-9.771599258481472
 30
0.0
 11
23.67152766650562
 21
-13.77159925848147
 31
0.0
  0
ARC
  5
47
330
1C
100
AcDbEntity
  8
0
100
AcDbCircle
 10
22.59973089678116
 20
-7.271599258481472
 30
0.0
 40
2.5
100
AcDbArc
 50
270.0
 51
270.0000000000007
  0
LINE
  5
48
330
1C
100
AcDbEntity
  8
0
100
AcDbLine
 10
28.77130377203494
 20
-12.77159925848147
 30
0.0
 11
24.43885465448463
 21
-12.77159925848144
 31
0.0
  0
LINE
  5
49
330
1C
100
AcDbEntity
  8
0
100
AcDbLine
 10
3.599730896781125
 20
-4.771599258481472
 30
0.0
 11
2.599730896781125
 21
-4.771599258481472
 31
0.0
  0
LINE
  5
4A
330
1C
100
AcDbEntity
  8
0
100
AcDbLine
 10
22.59973089678116
 20
-8.771599258481472
 30
0.0
 11
18.59973089678115
 21
-8.771599258481472
 31
0.0
  0
LINE
  5
4B
330
1C
100
AcDbEntity
  8
0
100
AcDbLine
 10
22.59973089678116
 20
-5.771599258481472
 30
0.0
 11
18.59973089678115
 21
-5.771599258481472
 31
0.0
  0
LINE
  5
4C
330
1C
100
AcDbEntity
  8
0
100
AcDbLine
 10
22.59973089678116
 20
-4.771599258481472
 30
0.0
 11
17.59973089678115
 21
-4.771599258481472
 31
0.0
  0
LINE
  5
4D
330
1C
100
AcDbEntity
  8
0
100
AcDbLine
 10
18.59973089678115
 20
-5.771599258481472
 30
0.0
 11
18.59973089678115
 21
-8.771599258481472
 31
0.0
  0
ARC
  5
4E
330
1C
100
AcDbEntity
  8
0
100
AcDbCircle
 10
22.59973089678116
 20
-7.271599258481472
 30
0.0
 40
1.5
100
AcDbArc
 50
270.0
 51
90.0
  0
ENDBLK
  5
4F
330
1C
100
AcDbEntity
  8
0
100
AcDbBlockEnd
  0
BLOCK
  5
DDB
330
DD1
100
AcDbEntity
  8
0
100
AcDbBlockBegin
  2
*D4
 70
     1
 10
0.0
 20
0.0
 30
0.0
  3
*D4
  1

  0
LINE
  5
12B4
330
DD1
100
AcDbEntity
  8
BEM
 62
     0
370
    -2
100
AcDbLine
 10
74.49999999999999
 20
212.5172703439738
 30
0.0
 11
74.49999999999999
 21
235.3284512517924
 31
0.0
  0
LINE
  5
12B5
330
DD1
100
AcDbEntity
  8
BEM
 62
     0
370
    -2
100
AcDbLine
 10
150.4999999999999
 20
212.5172703439737
 30
0.0
 11
150.4999999999999
 21
235.3284512517924
 31
0.0
  0
LINE
  5
12B6
330
DD1
100
AcDbEntity
  8
BEM
 62
     0
370
    -2
100
AcDbLine
 10
77.99999999999998
 20
233.8284512517924
 30
0.0
 11
146.9999999999999
 21
233.8284512517924
 31
0.0
  0
SOLID
  5
12B7
330
DD1
100
AcDbEntity
  8
BEM
 62
     0
100
AcDbTrace
 10
77.99999999999998
 20
234.4117845851258
 30
0.0
 11
77.99999999999998
 21
233.2451179184591
 31
0.0
 12
74.49999999999999
 22
233.8284512517924
 32
0.0
 13
74.49999999999999
 23
233.8284512517924
 33
0.0
  0
SOLID
  5
12B8
330
DD1
100
AcDbEntity
  8
BEM
 62
     0
100
AcDbTrace
 10
146.9999999999999
 20
234.4117845851258
 30
0.0
 11
146.9999999999999
 21
233.2451179184591
 31
0.0
 12
150.4999999999999
 22
233.8284512517924
 32
0.0
 13
150.4999999999999
 23
233.8284512517924
 33
0.0
  0
MTEXT
  5
12B9
330
DD1
100
AcDbEntity
  8
BEM
 62
     1
100
AcDbMText
 10
112.5
 20
236.5784512517925
 30
0.0
 40
3.5
 41
0.0
 71
     5
 72
     1
  1
\A1;%%c76
 73
     1
 44
1.0
  0
POINT
  5
12BA
330
DD1
100
AcDbEntity
  8
Defpoints
 62
     0
100
AcDbPoint
 10
74.49999999999999
 20
211.5172703439738
 30
0.0
  0
POINT
  5
12BB
330
DD1
100
AcDbEntity
  8
Defpoints
 62
     0
100
AcDbPoint
 10
150.4999999999999
 20
211.5172703439737
 30
0.0
  0
POINT
  5
12BC
330
DD1
100
AcDbEntity
  8
Defpoints
 62
     0
100
AcDbPoint
 10
150.4999999999999
 20
233.8284512517924
 30
0.0
  0
ENDBLK
  5
DDC
330
DD1
100
AcDbEntity
  8
0
100
AcDbBlockEnd
  0
BLOCK
  5
E23
330
E19
100
AcDbEntity
  8
0
100
AcDbBlockBegin
  2
*D6
 70
     1
 10
0.0
 20
0.0
 30
0.0
  3
*D6
  1

  0
LINE
  5
12AB
330
E19
100
AcDbEntity
  8
BEM
 62
     0
370
    -2
100
AcDbLine
 10
73.49999999999998
 20
196.0172703439737
 30
0.0
 11
61.91190278098585
 21
196.0172703439737
 31
0.0
  0
LINE
  5
12AC
330
E19
100
AcDbEntity
  8
BEM
 62
     0
370
    -2
100
AcDbLine
 10
111.4999999999999
 20
225.0172703439737
 30
0.0
 11
61.91190278098586
 21
225.0172703439738
 31
0.0
  0
LINE
  5
12AD
330
E19
100
AcDbEntity
  8
BEM
 62
     0
370
    -2
100
AcDbLine
 10
62.91190278098586
 20
199.5172703439737
 30
0.0
 11
62.91190278098586
 21
221.5172703439737
 31
0.0
  0
SOLID
  5
12AE
330
E19
100
AcDbEntity
  8
BEM
 62
     0
100
AcDbTrace
 10
62.32856944765252
 20
199.5172703439737
 30
0.0
 11
63.49523611431919
 21
199.5172703439737
 31
0.0
 12
62.91190278098586
 22
196.0172703439737
 32
0.0
 13
62.91190278098586
 23
196.0172703439737
 33
0.0
  0
SOLID
  5
12AF
330
E19
100
AcDbEntity
  8
BEM
 62
     0
100
AcDbTrace
 10
62.32856944765252
 20
221.5172703439737
 30
0.0
 11
63.49523611431919
 21
221.5172703439737
 31
0.0
 12
62.91190278098586
 22
225.0172703439738
 32
0.0
 13
62.91190278098586
 23
225.0172703439738
 33
0.0
  0
MTEXT
  5
12B0
330
E19
100
AcDbEntity
  8
BEM
 62
     1
100
AcDbMText
 10
60.16190278098583
 20
210.5172703439737
 30
0.0
 40
3.5
 41
0.0
 71
     5
 72
     1
  1
\A1;29
 11
0.0000000000000001
 21
1.0
 31
0.0
 73
     1
 44
1.0
  0
POINT
  5
12B1
330
E19
100
AcDbEntity
  8
Defpoints
 62
     0
100
AcDbPoint
 10
74.49999999999999
 20
196.0172703439737
 30
0.0
  0
POINT
  5
12B2
330
E19
100
AcDbEntity
  8
Defpoints
 62
     0
100
AcDbPoint
 10
112.4999999999999
 20
225.0172703439737
 30
0.0
  0
POINT
  5
12B3
330
E19
100
AcDbEntity
  8
Defpoints
 62
     0
100
AcDbPoint
 10
62.91190278098586
 20
225.0172703439738
 30
0.0
  0
ENDBLK
  5
E24
330
E19
100
AcDbEntity
  8
0
100
AcDbBlockEnd
  0
BLOCK
  5
E30
330
E26
100
AcDbEntity
  8
0
100
AcDbBlockBegin
  2
*D7
 70
     1
 10
0.0
 20
0.0
 30
0.0
  3
*D7
  1

  0
LINE
  5
12A2
330
E26
100
AcDbEntity
  8
BEM
 62
     0
370
    -2
100
AcDbLine
 10
81.89364685006111
 20
135.0172703439789
 30
0.0
 11
54.86647323492636
 21
135.017270343979
 31
0.0
  0
LINE
  5
12A3
330
E26
100
AcDbEntity
  8
BEM
 62
     0
370
    -2
100
AcDbLine
 10
111.4999999999999
 20
225.0172703439737
 30
0.0
 11
54.86647323492639
 21
225.0172703439738
 31
0.0
  0
LINE
  5
12A4
330
E26
100
AcDbEntity
  8
BEM
 62
     0
370
    -2
100
AcDbLine
 10
55.86647323492637
 20
138.517270343979
 30
0.0
 11
55.86647323492639
 21
221.5172703439737
 31
0.0
  0
SOLID
  5
12A5
330
E26
100
AcDbEntity
  8
BEM
 62
     0
100
AcDbTrace
 10
55.28313990159303
 20
138.517270343979
 30
0.0
 11
56.4498065682597
 21
138.517270343979
 31
0.0
 12
55.86647323492637
 22
135.017270343979
 32
0.0
 13
55.86647323492637
 23
135.017270343979
 33
0.0
  0
SOLID
  5
12A6
330
E26
100
AcDbEntity
  8
BEM
 62
     0
100
AcDbTrace
 10
55.28313990159305
 20
221.5172703439737
 30
0.0
 11
56.44980656825972
 21
221.5172703439737
 31
0.0
 12
55.86647323492639
 22
225.0172703439738
 32
0.0
 13
55.86647323492639
 23
225.0172703439738
 33
0.0
  0
MTEXT
  5
12A7
330
E26
100
AcDbEntity
  8
BEM
 62
     1
100
AcDbMText
 10
53.11647323492636
 20
180.0172703439764
 30
0.0
 40
3.5
 41
0.0
 71
     5
 72
     1
  1
\A1;90
 11
0.0000000000000001
 21
1.0
 31
0.0
 73
     1
 44
1.0
  0
POINT
  5
12A8
330
E26
100
AcDbEntity
  8
Defpoints
 62
     0
100
AcDbPoint
 10
82.89364685006111
 20
135.0172703439789
 30
0.0
  0
POINT
  5
12A9
330
E26
100
AcDbEntity
  8
Defpoints
 62
     0
100
AcDbPoint
 10
112.4999999999999
 20
225.0172703439737
 30
0.0
  0
POINT
  5
12AA
330
E26
100
AcDbEntity
  8
Defpoints
 62
     0
100
AcDbPoint
 10
55.86647323492639
 20
225.0172703439738
 30
0.0
  0
ENDBLK
  5
E31
330
E26
100
AcDbEntity
  8
0
100
AcDbBlockEnd
  0
ENDSEC
  0
SECTION
  2
ENTITIES
  0
LINE
  5
54
330
17
100
AcDbEntity
  8
STEMPEL
100
AcDbLine
 10
205.0
 20
55.00000000000003
 30
0.0
 11
19.99999999999998
 21
55.0
 31
0.0
  0
LINE
  5
55
330
17
100
AcDbEntity
  8
STEMPEL
100
AcDbLine
 10
68.00000000000006
 20
54.99999999999997
 30
0.0
 11
68.0
 21
4.999999999999985
 31
0.0
  0
LINE
  5
56
330
17
100
AcDbEntity
  8
STEMPEL
100
AcDbLine
 10
110.0
 20
55.00000000000003
 30
0.0
 11
110.0
 21
4.999999999999985
 31
0.0
  0
LINE
  5
57
330
17
100
AcDbEntity
  8
STEMPEL
100
AcDbLine
 10
166.0
 20
54.99999999999989
 30
0.0
 11
166.0
 21
20.0
 31
0.0
  0
LINE
  5
58
330
17
100
AcDbEntity
  8
STEMPEL
100
AcDbLine
 10
67.99999999999994
 20
14.99999999999998
 30
0.0
 11
19.99999999999998
 21
14.99999999999998
 31
0.0
  0
LINE
  5
59
330
17
100
AcDbEntity
  8
STEMPEL
100
AcDbLine
 10
205.0
 20
20.0
 30
0.0
 11
68.00000000000006
 21
19.99999999999998
 31
0.0
  0
LINE
  5
5A
330
17
100
AcDbEntity
  8
STEMPEL
100
AcDbLine
 10
205.0
 20
40.0
 30
0.0
 11
68.00000000000006
 21
39.99999999999997
 31
0.0
  0
LINE
  5
5B
330
17
100
AcDbEntity
  8
VOLL
100
AcDbLine
 10
27.00000000000005
 20
55.00000000000003
 30
0.0
 11
26.99999999999999
 21
4.999999999999985
 31
0.0
  0
LINE
  5
5C
330
17
100
AcDbEntity
  8
VOLL
100
AcDbLine
 10
47.00000000000005
 20
54.99999999999997
 30
0.0
 11
47.0
 21
4.999999999999985
 31
0.0
  0
LINE
  5
5D
330
17
100
AcDbEntity
  8
VOLL
100
AcDbLine
 10
57.00000000000006
 20
54.99999999999997
 30
0.0
 11
57.0
 21
4.999999999999985
 31
0.0
  0
LINE
  5
5E
330
17
100
AcDbEntity
  8
VOLL
100
AcDbLine
 10
77.00000000000006
 20
39.99999999999997
 30
0.0
 11
77.00000000000006
 21
19.99999999999998
 31
0.0
  0
LINE
  5
5F
330
17
100
AcDbEntity
  8
VOLL
100
AcDbLine
 10
90.00000000000005
 20
54.99999999999992
 30
0.0
 11
90.0
 21
19.99999999999998
 31
0.0
  0
LINE
  5
60
330
17
100
AcDbEntity
  8
HILF
100
AcDbLine
 10
20.00000000000004
 20
50.00000000000003
 30
0.0
 11
68.00000000000006
 21
50.00000000000003
 31
0.0
  0
LINE
  5
61
330
17
100
AcDbEntity
  8
HILF
100
AcDbLine
 10
20.00000000000004
 20
45.00000000000002
 30
0.0
 11
68.00000000000006
 21
45.00000000000002
 31
0.0
  0
LINE
  5
62
330
17
100
AcDbEntity
  8
HILF
100
AcDbLine
 10
20.00000000000004
 20
39.99999999999997
 30
0.0
 11
68.00000000000006
 21
39.99999999999997
 31
0.0
  0
LINE
  5
63
330
17
100
AcDbEntity
  8
HILF
100
AcDbLine
 10
20.00000000000004
 20
34.99999999999997
 30
0.0
 11
68.00000000000006
 21
34.99999999999997
 31
0.0
  0
LINE
  5
64
330
17
100
AcDbEntity
  8
HILF
100
AcDbLine
 10
20.00000000000004
 20
29.99999999999999
 30
0.0
 11
68.00000000000006
 21
29.99999999999999
 31
0.0
  0
LINE
  5
65
330
17
100
AcDbEntity
  8
HILF
100
AcDbLine
 10
20.00000000000004
 20
24.99999999999999
 30
0.0
 11
68.00000000000006
 21
24.99999999999999
 31
0.0
  0
LINE
  5
66
330
17
100
AcDbEntity
  8
HILF
100
AcDbLine
 10
20.00000000000004
 20
19.99999999999998
 30
0.0
 11
68.00000000000006
 21
19.99999999999998
 31
0.0
  0
LINE
  5
67
330
17
100
AcDbEntity
  8
HILF
100
AcDbLine
 10
68.00000000000006
 20
34.99999999999997
 30
0.0
 11
110.0
 21
34.99999999999997
 31
0.0
  0
LINE
  5
68
330
17
100
AcDbEntity
  8
HILF
100
AcDbLine
 10
68.00000000000006
 20
29.99999999999999
 30
0.0
 11
110.0
 21
29.99999999999999
 31
0.0
  0
LINE
  5
69
330
17
100
AcDbEntity
  8
HILF
100
AcDbLine
 10
68.00000000000006
 20
24.99999999999999
 30
0.0
 11
110.0
 21
24.99999999999999
 31
0.0
  0
LINE
  5
6A
330
17
100
AcDbEntity
  8
HILF
100
AcDbLine
 10
112.3868400548474
 20
42.01879123782069
 30
0.0
 11
162.4176958278155
 21
42.01879123782069
 31
0.0
  0
LINE
  5
6B
330
17
100
AcDbEntity
  8
HILF
100
AcDbLine
 10
112.3868400548474
 20
34.99999999999997
 30
0.0
 11
162.4176958278155
 21
34.99999999999997
 31
0.0
  0
LINE
  5
6C
330
17
100
AcDbEntity
  8
HILF
100
AcDbLine
 10
112.3868400548474
 20
29.99999999999999
 30
0.0
 11
162.4176958278155
 21
29.99999999999999
 31
0.0
  0
LINE
  5
6D
330
17
100
AcDbEntity
  8
HILF
100
AcDbLine
 10
112.3868400548474
 20
24.99999999999999
 30
0.0
 11
162.4176958278155
 21
24.99999999999999
 31
0.0
  0
LINE
  5
6E
330
17
100
AcDbEntity
  8
VOLL
100
AcDbLine
 10
166.0
 20
30.0
 30
0.0
 11
205.0
 21
30.0
 31
0.0
  0
LINE
  5
6F
330
17
100
AcDbEntity
  8
HILF
100
AcDbLine
 10
168.3619308148496
 20
41.88991818477913
 30
0.0
 11
202.4294419663364
 21
41.88991818477913
 31
0.0
  0
LINE
  5
70
330
17
100
AcDbEntity
  8
HILF
100
AcDbLine
 10
111.7454849644942
 20
7.446991290141568
 30
0.0
 11
202.4294419663364
 21
7.446991290141568
 31
0.0
  0
TEXT
  5
71
330
17
100
AcDbEntity
  8
TEXT
100
AcDbText
 10
31.62857142857143
 20
9.142857142857135
 30
0.0
 40
2.0
  1
Änderung
 41
0.8
 72
     4
 11
37.0
 21
9.999999999999992
 31
0.0
100
AcDbText
  0
TEXT
  5
72
330
17
100
AcDbEntity
  8
TEXT
100
AcDbText
 10
112.4389701904505
 20
51.27446640058898
 30
0.0
 40
2.5
  1
Benennung
 41
0.8
100
AcDbText
  0
TEXT
  5
73
330
17
100
AcDbEntity
  8
TEXT
100
AcDbText
 10
168.089377478817
 20
51.15660172685682
 30
0.0
 40
2.5
  1
Zeichnungs Nr.
 41
0.8
100
AcDbText
  0
TEXT
  5
74
330
17
100
AcDbEntity
  8
TEXT
100
AcDbText
 10
112.371119195568
 20
15.42280285096528
 30
0.0
 40
2.5
  1
Bauvorhaben
 41
0.8
100
AcDbText
  0
TEXT
  5
75
330
17
100
AcDbEntity
  8
TEXT
100
AcDbText
 10
168.3619308148496
 20
36.59059118549985
 30
0.0
 40
2.5
  1
Ersatz für:
 41
0.8
100
AcDbText
  0
TEXT
  5
76
330
17
100
AcDbEntity
  8
TEXT
100
AcDbText
 10
24.13320553522878
 20
6.827329230135958
 30
0.0
 40
2.0
  1
Index
 50
90.0
 41
0.8
100
AcDbText
  0
TEXT
  5
77
330
17
100
AcDbEntity
  8
TEXT
100
AcDbText
 10
50.13333333333334
 20
9.333333333333326
 30
0.0
 40
2.0
  1
Tag
 41
0.8
 72
     4
 11
52.00000000000001
 21
9.999999999999992
 31
0.0
100
AcDbText
  0
TEXT
  5
78
330
17
100
AcDbEntity
  8
TEXT
100
AcDbText
 10
59.33809523809524
 20
8.999999999999992
 30
0.0
 40
2.0
  1
Name
 41
0.8
 72
     4
 11
62.5
 21
9.999999999999992
 31
0.0
100
AcDbText
  0
TEXT
  5
79
330
17
100
AcDbEntity
  8
TEXT
100
AcDbText
 10
68.79180635838077
 20
31.81495184808982
 30
0.0
 40
2.0
  1
Gez.
 41
0.8
100
AcDbText
  0
TEXT
  5
7A
330
17
100
AcDbEntity
  8
TEXT
100
AcDbText
 10
68.77575432858361
 20
26.84463145714189
 30
0.0
 40
2.0
  1
Gepr.
 41
0.8
100
AcDbText
  0
TEXT
  5
7B
330
17
100
AcDbEntity
  8
TEXT
100
AcDbText
 10
68.80033886936519
 20
21.76473194824904
 30
0.0
 40
2.0
  1
Norm.
 41
0.8
100
AcDbText
  0
LINE
  5
7C
330
17
100
AcDbEntity
  8
STEMPEL
100
AcDbLine
 10
24.99999999999995
 20
5.0
 30
0.0
 11
205.0
 21
5.0
 31
0.0
  0
LINE
  5
7D
330
17
100
AcDbEntity
  8
STEMPEL
100
AcDbLine
 10
205.0
 20
55.00000000000003
 30
0.0
 11
205.0
 21
5.0
 31
0.0
  0
TEXT
  5
7E
330
17
100
AcDbEntity
  8
TEXT
100
AcDbText
 10
168.6200430748503
 20
26.03708088939301
 30
0.0
 40
2.5
  1
ersetzt durch:
 41
0.8
100
AcDbText
  0
LINE
  5
7F
330
17
100
AcDbEntity
  8
STEMPEL
100
AcDbLine
 10
205.0
 20
5.0
 30
0.0
 11
19.99999999999994
 21
5.0
 31
0.0
  0
LINE
  5
80
330
17
100
AcDbEntity
  8
STEMPEL
100
AcDbLine
 10
205.0
 20
55.00000000000003
 30
0.0
 11
205.0
 21
292.0
 31
0.0
  0
LINE
  5
81
330
17
100
AcDbEntity
  8
STEMPEL
100
AcDbLine
 10
20.0
 20
5.0
 30
0.0
 11
19.99999999999994
 21
292.0
 31
0.0
  0
LINE
  5
82
330
17
100
AcDbEntity
  8
STEMPEL
100
AcDbLine
 10
205.0
 20
292.0
 30
0.0
 11
19.99999999999994
 21
292.0
 31
0.0
  0
LINE
  5
83
330
17
100
AcDbEntity
  8
HILF
100
AcDbLine
 10
0.0
 20
0.0
 30
0.0
 11
-0.0000000000000568
 21
297.0
 31
0.0
  0
LINE
  5
84
330
17
100
AcDbEntity
  8
HILF
100
AcDbLine
 10
210.0
 20
297.0000000000001
 30
0.0
 11
0.0
 21
297.0
 31
0.0
  0
LINE
  5
85
330
17
100
AcDbEntity
  8
HILF
100
AcDbLine
 10
210.0
 20
0.0
 30
0.0
 11
0.0
 21
0.0
 31
0.0
  0
LINE
  5
86
330
17
100
AcDbEntity
  8
HILF
100
AcDbLine
 10
15.54383567856928
 20
148.5
 30
0.0
 11
0.0000000000000568
 21
148.5
 31
0.0
  0
LINE
  5
87
330
17
100
AcDbEntity
  8
HILF
100
AcDbLine
 10
210.0
 20
-0.0000000000000568
 30
0.0
 11
210.0
 21
297.0
 31
0.0
  0
TEXT
  5
88
330
17
100
AcDbEntity
  8
VOLL
100
AcDbText
 10
78.07675471698113
 20
31.02594776470585
 30
0.0
 40
1.8
  1

  7
GREEKS
100
AcDbText
  0
TEXT
  5
89
330
17
100
AcDbEntity
  8
TEXT
100
AcDbText
 10
20.92754975488837
 20
55.83599999999997
 30
0.0
 40
2.5
  1
Erstellt mit AUTOCAD 2004
 41
0.8
100
AcDbText
  0
TEXT
  5
8A
330
17
100
AcDbEntity
  8
TEXT
 62
     1
100
AcDbText
 10
172.6082866941208
 20
43.82850740880733
 30
0.0
 40
3.5
  1
00803050W
 41
0.8
  7
GREEKS
 72
     1
 11
184.6082866941208
 21
43.82850740880733
 31
0.0
100
AcDbText
  0
TEXT
  5
8B
330
17
100
AcDbEntity
  8
TEXT
 62
     1
100
AcDbText
 10
112.3868400548474
 20
43.95738046184888
 30
0.0
 40
3.5
  1
Sicherheitsdunsthut DN50
 41
0.75
100
AcDbText
  0
TEXT
  5
8F
330
17
100
AcDbEntity
  8
TEXT
100
AcDbText
 10
112.4918750788913
 20
21.31487076511316
 30
0.0
 40
2.0
  1
00803050W.DWG
 41
0.8
100
AcDbText
  0
INSERT
  5
90
330
17
100
AcDbEntity
  8
STEMPEL
100
AcDbBlockReference
  2
LOGO
 10
70.4977742728897
 20
22.51052638224161
 30
0.0
  0
TEXT
  5
93
330
17
100
AcDbEntity
  8
TEXT
100
AcDbText
 10
93.28571428571441
 20
51.27446640058896
 30
0.0
 40
2.5
  1
Zul. Abw.
 41
0.8
 72
     1
 11
100.0000000000001
 21
51.27446640058896
 31
0.0
100
AcDbText
  0
TEXT
  5
94
330
17
100
AcDbEntity
  8
TEXT
100
AcDbText
 10
73.09523809523833
 20
51.27446640058899
 30
0.0
 40
2.5
  1
Maßstab
 41
0.8
 72
     1
 11
79.00000000000023
 21
51.27446640058899
 31
0.0
100
AcDbText
  0
TEXT
  5
95
330
17
100
AcDbEntity
  8
TEXT
 62
     1
100
AcDbText
 10
76.60000000000022
 20
43.38398716376325
 30
0.0
 40
3.5
  1
1:1
 41
0.8
 72
     1
 11
79.00000000000023
 21
43.38398716376325
 31
0.0
100
AcDbText
  0
TEXT
  5
97
330
17
100
AcDbEntity
  8
TEXT
100
AcDbText
 10
96.83809523809536
 20
36.50000000000002
 30
0.0
 40
2.0
  1
Name
 41
0.8
 72
     4
 11
100.0000000000001
 21
37.50000000000002
 31
0.0
100
AcDbText
  0
TEXT
  5
98
330
17
100
AcDbEntity
  8
TEXT
100
AcDbText
 10
97.37142857142869
 20
31.50000000000002
 30
0.0
 40
2.0
  1
Koeh
 41
0.8
 72
     4
 11
100.0000000000001
 21
32.50000000000002
 31
0.0
100
AcDbText
  0
TEXT
  5
99
330
17
100
AcDbEntity
  8
TEXT
100
AcDbText
 10
80.14761904761916
 20
31.50000000000002
 30
0.0
 40
2.0
  1
01.04.
 41
0.8
 72
     4
 11
83.50000000000012
 21
32.50000000000002
 31
0.0
100
AcDbText
  0
TEXT
  5
9A
330
17
100
AcDbEntity
  8
TEXT
100
AcDbText
 10
81.63333333333346
 20
36.83333333333335
 30
0.0
 40
2.0
  1
Tag
 41
0.8
 72
     4
 11
83.50000000000012
 21
37.50000000000002
 31
0.0
100
AcDbText
  0
TEXT
  5
9B
330
17
100
AcDbEntity
  8
TEXT
100
AcDbText
 10
70.17619047619058
 20
36.50000000000002
 30
0.0
 40
2.0
  1
2011
 41
0.8
 72
     4
 11
72.50000000000011
 21
37.50000000000002
 31
0.0
100
AcDbText
  0
TEXT
  5
9E
330
17
100
AcDbEntity
  8
TEXT
100
AcDbText
 10
208.2905770718719
 20
6.074024076691515
 30
0.0
 40
2.0
  1
Diese Zeichnung ist urheberrechtlich geschützt und bleibt unser Eigentum. Sie darf weder ganz noch teilweise vervielfältigt und nicht an Dritte weitergegeben werden.
 50
90.0
 41
0.8
100
AcDbText
  0
TEXT
  5
6BF
330
17
100
AcDbEntity
  8
TEXT35
100
AcDbText
 10
253.07001465536
 20
252.5107486555119
 30
0.0
 40
3.5
  1

 41
0.8
100
AcDbText
  0
TEXT
  5
B4B
330
17
100
AcDbEntity
  8
TEXT
100
AcDbText
 10
91.25397221028716
 20
44.00602005199404
 30
0.0
 40
2.0
  1
DIN EN1123-2
 41
0.8
 72
     1
 11
99.74921030552525
 21
44.00602005199404
 31
0.0
100
AcDbText
  0
TEXT
  5
C19
330
17
100
AcDbEntity
  8
TEXT
 62
     1
100
AcDbText
 10
138.7032887343123
 20
70.32265677993087
 30
0.0
 40
3.5
  1
Werkstoff:
 41
0.8
100
AcDbText
  0
TEXT
  5
C1A
330
17
100
AcDbEntity
  8
TEXT
 62
     1
100
AcDbText
 10
162.0075578574124
 20
70.32265677993087
 30
0.0
 40
3.5
  1
E195 EN10305
 41
0.8
100
AcDbText
  0
TEXT
  5
C1B
330
17
100
AcDbEntity
  8
TEXT
 62
     1
100
AcDbText
 10
162.0075578574124
 20
64.49946395561278
 30
0.0
 40
3.5
  1
feuerverzinkt
 41
0.8
100
AcDbText
  0
TEXT
  5
C28
330
17
100
AcDbEntity
  8
TEXT
100
AcDbText
 10
112.4918750788913
 20
26.31487076511316
 30
0.0
 40
2.5
  1
EDV-Art.Nr. 00803.050X
 41
0.8
100
AcDbText
  0
LINE
  5
C4A
330
17
100
AcDbEntity
  8
STEMPEL
100
AcDbLine
 10
74.49999999999997
 20
196.0172703439737
 30
0.0
 11
85.99999999999996
 21
196.0172703439737
 31
0.0
  0
LINE
  5
C54
330
17
100
AcDbEntity
  8
STEMPEL
100
AcDbLine
 10
138.9999999999999
 20
196.0172703439737
 30
0.0
 11
150.4999999999999
 21
196.0172703439737
 31
0.0
  0
LINE
  5
C55
102
{ACAD_REACTORS
330
10E0
102
}
330
17
100
AcDbEntity
  8
STEMPEL
100
AcDbLine
 10
87.49999999999991
 20
178.1445971836312
 30
0.0
 11
87.49999999999998
 21
204.0172703439736
 31
0.0
  0
LINE
  5
C56
102
{ACAD_REACTORS
330
10E0
102
}
330
17
100
AcDbEntity
  8
STEMPEL
100
AcDbLine
 10
137.5
 20
178.1445971836313
 30
0.0
 11
137.5
 21
204.0172703439736
 31
0.0
  0
LINE
  5
C81
330
17
100
AcDbEntity
  8
STEMPEL
100
AcDbLine
 10
92.99999999999997
 20
204.0172703439737
 30
0.0
 11
132.0
 21
204.0172703439737
 31
0.0
  0
LINE
  5
C82
102
{ACAD_REACTORS
330
10E0
102
}
330
17
100
AcDbEntity
  8
STEMPEL
100
AcDbLine
 10
85.99999999999994
 20
204.0172703439737
 30
0.0
 11
89.20147609516082
 21
204.0172703439736
 31
0.0
  0
LINE
  5
C83
102
{ACAD_REACTORS
330
10E0
102
}
330
17
100
AcDbEntity
  8
STEMPEL
100
AcDbLine
 10
138.9999999999999
 20
204.0172703439737
 30
0.0
 11
135.7985239048391
 21
204.0172703439736
 31
0.0
  0
LINE
  5
D95
330
17
100
AcDbEntity
  8
MITTEL
100
AcDbLine
 10
112.5
 20
130.0172703439745
 30
0.0
 11
112.5
 21
230.0220706446659
 31
0.0
  0
DIMENSION
  5
DD0
330
17
100
AcDbEntity
  8
BEM
100
AcDbDimension
  2
*D4
 10
150.4999999999999
 20
233.8284512517924
 30
0.0
 11
112.5
 21
236.5784512517925
 31
0.0
 70
    32
  1
%%c<>
 71
     5
 42
75.99999999999998
  3
STANDARD
100
AcDbAlignedDimension
 13
74.49999999999999
 23
211.5172703439738
 33
0.0
 14
150.4999999999999
 24
211.5172703439737
 34
0.0
100
AcDbRotatedDimension
1001
ACAD
1000
DSTYLE
1002
{
1070
    47
1040
2.0
1070
    48
1040
2.0
1002
}
  0
DIMENSION
  5
E18
330
17
100
AcDbEntity
  8
BEM
100
AcDbDimension
  2
*D6
 10
62.91190278098586
 20
225.0172703439738
 30
0.0
 11
60.16190278098583
 21
210.5172703439737
 31
0.0
 70
    32
 71
     5
 42
29.00000000000003
  3
STANDARD
100
AcDbAlignedDimension
 13
74.49999999999999
 23
196.0172703439737
 33
0.0
 14
112.4999999999999
 24
225.0172703439737
 34
0.0
 50
270.0
100
AcDbRotatedDimension
1001
ACAD
1000
DSTYLE
1002
{
1070
    44
1040
1.0
1070
    47
1040
2.0
1070
    48
1040
2.0
1070
    79
1070
     2
1070
   179
1070
     2
1070
   279
1070
     0
1002
}
  0
DIMENSION
  5
E25
330
17
100
AcDbEntity
  8
BEM
100
AcDbDimension
  2
*D7
 10
55.86647323492639
 20
225.0172703439738
 30
0.0
 11
53.11647323492636
 21
180.0172703439764
 31
0.0
 70
    32
 71
     5
 42
89.99999999999477
  3
STANDARD
100
AcDbAlignedDimension
 13
82.89364685006111
 23
135.0172703439789
 33
0.0
 14
112.4999999999999
 24
225.0172703439737
 34
0.0
 50
270.0
100
AcDbRotatedDimension
1001
ACAD
1000
DSTYLE
1002
{
1070
    44
1040
1.0
1070
    47
1040
2.0
1070
    48
1040
2.0
1070
    79
1070
     2
1070
   179
1070
     2
1070
   279
1070
     0
1002
}
  0
LINE
  5
F57
330
17
100
AcDbEntity
  8
STEMPEL
100
AcDbLine
 10
88.35239699968138
 20
135.0172703439737
 30
0.0
 11
136.6476030003185
 21
135.0172703439737
 31
0.0
  0
LINE
  5
F8B
330
17
100
AcDbEntity
  8
STEMPEL
100
AcDbLine
 10
136.6476030003187
 20
135.0172703439741
 30
0.0
 11
88.35239699968122
 21
135.0172703439741
 31
0.0
  0
TEXT
  5
FFE
330
17
100
AcDbEntity
  8
TEXT
 62
     1
100
AcDbText
 10
108.614660781613
 20
139.4344457724337
 30
0.0
 40
3.5
  1
DN50
 50
90.0
 41
0.8
100
AcDbText
  0
TEXT
  5
1041
330
17
100
AcDbEntity
  8
TEXT
100
AcDbText
 10
112.4918750788913
 20
36.31487076511315
 30
0.0
 40
2.5
  1
mit Muffe 
 41
0.8
100
AcDbText
  0
LINE
  5
1067
330
17
100
AcDbEntity
  8
HILF
100
AcDbLine
 10
139.1461534369174
 20
157.5734008697731
 30
0.0
 11
85.85384656308248
 21
157.5734008697731
 31
0.0
  0
LINE
  5
1068
330
17
100
AcDbEntity
  8
HILF
100
AcDbLine
 10
138.5282618393198
 20
170.4844868576807
 30
0.0
 11
86.4717381606801
 21
170.4844868576807
 31
0.0
  0
LINE
  5
1069
330
17
100
AcDbEntity
  8
HILF
100
AcDbLine
 10
136.3120979607782
 20
175.5429150354819
 30
0.0
 11
88.68790203922168
 21
175.5429150354819
 31
0.0
  0
LINE
  5
106A
102
{ACAD_REACTORS
330
10E0
102
}
330
17
100
AcDbEntity
  8
STEMPEL
100
AcDbLine
 10
82.89364685006319
 20
135.0172703439746
 30
0.0
 11
142.1063531499367
 21
135.0172703439745
 31
0.0
  0
ARC
  5
106B
102
{ACAD_REACTORS
330
10E0
102
}
330
17
100
AcDbEntity
  8
STEMPEL
100
AcDbCircle
 10
152.0
 20
159.5172703439745
 30
0.0
 40
10.0
100
AcDbArc
 50
180.0
 51
199.4630994446884
  0
ARC
  5
106C
102
{ACAD_REACTORS
330
10E0
102
}
330
17
100
AcDbEntity
  8
STEMPEL
100
AcDbCircle
 10
129.9999999999999
 20
167.6089434307786
 30
0.0
 40
12.0
100
AcDbArc
 50
0.0
 51
31.7883306170511
  0
ARC
  5
106D
102
{ACAD_REACTORS
330
10E0
102
}
330
17
100
AcDbEntity
  8
STEMPEL
100
AcDbCircle
 10
147.0
 20
178.1445971836313
 30
0.0
 40
8.0
100
AcDbArc
 50
180.0
 51
211.7883306170511
  0
LINE
  5
106E
102
{ACAD_REACTORS
330
10E0
102
}
330
17
100
AcDbEntity
  8
STEMPEL
100
AcDbLine
 10
141.9999999999999
 20
159.5172703439745
 30
0.0
 11
141.9999999999999
 21
167.6089434307786
 31
0.0
  0
ARC
  5
106F
102
{ACAD_REACTORS
330
10E0
102
}
330
17
100
AcDbEntity
  8
STEMPEL
100
AcDbCircle
 10
124.4999999999999
 20
143.3997716866354
 30
0.0
 40
19.5
100
AcDbArc
 50
334.54057143119
 51
0.0
  0
ARC
  5
1070
102
{ACAD_REACTORS
330
10E0
102
}
330
17
100
AcDbEntity
  8
STEMPEL
100
AcDbCircle
 10
118.9999999999999
 20
147.8552703439745
 30
0.0
 40
25.00003205712822
100
AcDbArc
 50
359.9082450082395
 51
19.46309944468847
  0
LINE
  5
1071
102
{ACAD_REACTORS
330
10E0
102
}
330
17
100
AcDbEntity
  8
STEMPEL
100
AcDbLine
 10
143.9999999999999
 20
143.3997716866354
 30
0.0
 11
143.9999999999999
 21
147.8152346419662
 31
0.0
  0
ARC
  5
1072
102
{ACAD_REACTORS
330
10E0
102
}
330
17
100
AcDbEntity
  8
STEMPEL
100
AcDbCircle
 10
72.99999999999994
 20
159.5172703439744
 30
0.0
 40
10.0
100
AcDbArc
 50
340.5369005553115
 51
0.0
  0
ARC
  5
1074
102
{ACAD_REACTORS
330
10E0
102
}
330
17
100
AcDbEntity
  8
STEMPEL
100
AcDbCircle
 10
94.99999999999998
 20
167.6089434307785
 30
0.0
 40
12.0
100
AcDbArc
 50
148.2116693829489
 51
180.0
  0
ARC
  5
1075
102
{ACAD_REACTORS
330
10E0
102
}
330
17
100
AcDbEntity
  8
STEMPEL
100
AcDbCircle
 10
77.99999999999991
 20
178.1445971836312
 30
0.0
 40
8.0
100
AcDbArc
 50
328.2116693829489
 51
0.0
  0
LINE
  5
1076
102
{ACAD_REACTORS
330
10E0
102
}
330
17
100
AcDbEntity
  8
STEMPEL
100
AcDbLine
 10
83.0
 20
159.5172703439744
 30
0.0
 11
82.99999999999998
 21
167.6089434307785
 31
0.0
  0
ARC
  5
1077
102
{ACAD_REACTORS
330
10E0
102
}
330
17
100
AcDbEntity
  8
STEMPEL
100
AcDbCircle
 10
100.5
 20
143.3997716866353
 30
0.0
 40
19.5
100
AcDbArc
 50
180.0
 51
205.4594285688049
  0
ARC
  5
1078
102
{ACAD_REACTORS
330
10E0
102
}
330
17
100
AcDbEntity
  8
STEMPEL
100
AcDbCircle
 10
106.0
 20
147.8552703439745
 30
0.0
 40
25.00003205712822
100
AcDbArc
 50
160.5369005553115
 51
180.0917549917588
  0
LINE
  5
1079
102
{ACAD_REACTORS
330
10E0
102
}
330
17
100
AcDbEntity
  8
STEMPEL
100
AcDbLine
 10
80.99999999999999
 20
143.3997716866353
 30
0.0
 11
80.99999999999997
 21
147.8152346419662
 31
0.0
  0
LINE
  5
107A
102
{ACAD_REACTORS
330
10E0
102
}
330
17
100
AcDbEntity
  8
STEMPEL
100
AcDbLine
 10
138.9999999999999
 20
178.1445971836313
 30
0.0
 11
138.9999999999999
 21
204.0172703439737
 31
0.0
  0
LINE
  5
107B
102
{ACAD_REACTORS
330
10E0
102
}
330
17
100
AcDbEntity
  8
STEMPEL
100
AcDbLine
 10
85.99999999999994
 20
178.1445971836312
 30
0.0
 11
85.99999999999994
 21
204.0172703439737
 31
0.0
  0
ARC
  5
1086
102
{ACAD_REACTORS
330
10E0
102
}
330
17
100
AcDbEntity
  8
STEMPEL
100
AcDbCircle
 10
100.5
 20
143.3997716866353
 30
0.0
 40
18.0
100
AcDbArc
 50
180.0
 51
207.7551793916146
  0
LINE
  5
1087
102
{ACAD_REACTORS
330
10E0
102
}
330
17
100
AcDbEntity
  8
STEMPEL
100
AcDbLine
 10
82.49999999999998
 20
143.3997716866353
 30
0.0
 11
82.49999999999998
 21
147.8152346419662
 31
0.0
  0
ARC
  5
1088
102
{ACAD_REACTORS
330
10E0
102
}
330
17
100
AcDbEntity
  8
STEMPEL
100
AcDbCircle
 10
106.0
 20
147.8552703439745
 30
0.0
 40
23.50003205712821
100
AcDbArc
 50
160.5369005553115
 51
180.0917549917588
  0
ARC
  5
1089
102
{ACAD_REACTORS
330
10E0
102
}
330
17
100
AcDbEntity
  8
STEMPEL
100
AcDbCircle
 10
72.99999999999994
 20
159.5172703439744
 30
0.0
 40
11.5
100
AcDbArc
 50
340.5369005553115
 51
0.0
  0
LINE
  5
108A
102
{ACAD_REACTORS
330
10E0
102
}
330
17
100
AcDbEntity
  8
STEMPEL
100
AcDbLine
 10
84.50000000000001
 20
159.5172703439744
 30
0.0
 11
84.49999999999999
 21
167.6089434307785
 31
0.0
  0
ARC
  5
108B
102
{ACAD_REACTORS
330
10E0
102
}
330
17
100
AcDbEntity
  8
STEMPEL
100
AcDbCircle
 10
94.99999999999998
 20
167.6089434307785
 30
0.0
 40
10.5
100
AcDbArc
 50
148.2116693829489
 51
180.0
  0
ARC
  5
108C
102
{ACAD_REACTORS
330
10E0
102
}
330
17
100
AcDbEntity
  8
STEMPEL
100
AcDbCircle
 10
77.99999999999991
 20
178.1445971836312
 30
0.0
 40
9.5
100
AcDbArc
 50
328.2116693829489
 51
0.0
  0
ARC
  5
108D
102
{ACAD_REACTORS
330
10E0
102
}
330
17
100
AcDbEntity
  8
STEMPEL
100
AcDbCircle
 10
147.0
 20
178.1445971836313
 30
0.0
 40
9.5
100
AcDbArc
 50
180.0
 51
211.7883306170511
  0
ARC
  5
108E
102
{ACAD_REACTORS
330
10E0
102
}
330
17
100
AcDbEntity
  8
STEMPEL
100
AcDbCircle
 10
129.9999999999999
 20
167.6089434307786
 30
0.0
 40
10.5
100
AcDbArc
 50
0.0
 51
31.7883306170511
  0
LINE
  5
108F
102
{ACAD_REACTORS
330
10E0
102
}
330
17
100
AcDbEntity
  8
STEMPEL
100
AcDbLine
 10
140.4999999999999
 20
159.5172703439745
 30
0.0
 11
140.4999999999999
 21
167.6089434307786
 31
0.0
  0
ARC
  5
1090
102
{ACAD_REACTORS
330
10E0
102
}
330
17
100
AcDbEntity
  8
STEMPEL
100
AcDbCircle
 10
152.0
 20
159.5172703439745
 30
0.0
 40
11.5
100
AcDbArc
 50
180.0
 51
199.4630994446884
  0
ARC
  5
1091
102
{ACAD_REACTORS
330
10E0
102
}
330
17
100
AcDbEntity
  8
STEMPEL
100
AcDbCircle
 10
118.9999999999999
 20
147.8552703439745
 30
0.0
 40
23.50003205712821
100
AcDbArc
 50
359.9082450082395
 51
19.46309944468847
  0
ARC
  5
1092
102
{ACAD_REACTORS
330
10E0
102
}
330
17
100
AcDbEntity
  8
STEMPEL
100
AcDbCircle
 10
124.4999999999999
 20
143.3997716866354
 30
0.0
 40
18.0
100
AcDbArc
 50
332.2448206083851
 51
0.0
  0
LINE
  5
1093
102
{ACAD_REACTORS
330
10E0
102
}
330
17
100
AcDbEntity
  8
STEMPEL
100
AcDbLine
 10
142.5
 20
143.3997716866354
 30
0.0
 11
142.5
 21
147.8152346419662
 31
0.0
  0
HATCH
  5
10E0
330
17
100
AcDbEntity
  8
SCHRAFF
100
AcDbHatch
 10
0.0
 20
0.0
 30
0.0
210
0.0
220
0.0
230
1.0
  2
_U
 70
     0
 71
     1
 91
        2
 92
        7
 72
     1
 73
     1
 93
       18
 10
87.49999999999996
 20
204.0172703439737
 42
0.0
 10
85.99999999999994
 20
204.0172703439737
 42
0.0
 10
85.99999999999994
 20
178.1445971836312
 42
-0.139599132416859
 10
84.79999999999995
 20
173.9303356824902
 42
0.1395991324168614
 10
82.99999999999998
 20
167.6089434307785
 42
0.0
 10
83.0
 20
159.5172703439744
 42
-0.0851285408962495
 10
82.4285627927815
 20
156.1852733958103
 42
0.084725296607897
 10
80.99999999999997
 20
147.8953060459896
 42
0.0
 10
80.99999999999999
 20
143.3997716866353
 42
0.1115469390821239
 10
82.89364685006319
 20
135.0172703439746
 42
0.0
 10
84.5709802172171
 20
135.0172703439746
 42
-0.121700366564057
 10
82.49999999999998
 20
143.3997716866353
 42
0.0
 10
82.49999999999998
 20
147.8164542899358
 42
-0.0855444844065332
 10
83.84284721169871
 20
155.6854738535856
 42
0.0851285408962514
 10
84.50000000000001
 20
159.5172703439744
 42
0.0
 10
84.49999999999999
 20
167.6089434307785
 42
-0.1395991324168595
 10
86.07499999999992
 20
173.1401616510261
 42
0.1395991324168598
 10
87.49999999999991
 20
178.1445971836312
 42
0.0
 97
       18
330
C82
330
107B
330
1075
330
1074
330
1076
330
1072
330
1078
330
1079
330
1077
330
106A
330
1086
330
1087
330
1088
330
1089
330
108A
330
108B
330
108C
330
C55
 92
        7
 72
     1
 73
     1
 93
       18
 10
138.9999999999999
 20
204.0172703439737
 42
0.0
 10
137.5
 20
204.0172703439737
 42
0.0
 10
137.5
 20
178.1445971836313
 42
0.1395991324168606
 10
138.925
 20
173.1401616510262
 42
-0.1395991324168602
 10
140.4999999999999
 20
167.6089434307786
 42
0.0
 10
140.4999999999999
 20
159.5172703439745
 42
0.0851285408962485
 10
141.1571527883012
 20
155.6854738535858
 42
-0.0855444844065187
 10
142.5
 20
147.8164542899374
 42
0.0
 10
142.5
 20
143.3997716866354
 42
-0.1217003665640589
 10
140.4290197827828
 20
135.0172703439745
 42
0.0
 10
142.1063531499367
 20
135.0172703439745
 42
0.1115469390821256
 10
143.9999999999999
 20
143.3997716866354
 42
0.0
 10
143.9999999999999
 20
147.8953060459996
 42
0.0847252966077969
 10
142.5714372072184
 20
156.1852733958103
 42
-0.0851285408962501
 10
141.9999999999999
 20
159.5172703439745
 42
0.0
 10
141.9999999999999
 20
167.6089434307786
 42
0.1395991324168602
 10
140.1999999999999
 20
173.9303356824902
 42
-0.1395991324168594
 10
138.9999999999999
 20
178.1445971836312
 42
0.0
 97
       18
330
C83
330
C56
330
108D
330
108E
330
108F
330
1090
330
1091
330
1093
330
1092
330
106A
330
106F
330
1071
330
1070
330
106B
330
106E
330
106C
330
106D
330
107A
 75
     0
 76
     0
 52
45.0
 41
2.0
 77
     0
 78
     1
 53
45.0
 43
3.097229529763552
 44
0.0
 45
-1.414213562373094
 46
1.414213562373095
 79
     0
 47
0.3049189408082225
 98
        2
 10
86.91661230806378
 20
189.4759931816095
 10
138.8065977111516
 20
192.830102025452
  0
HATCH
  5
1151
330
17
100
AcDbEntity
  8
SCHRAFF
100
AcDbHatch
 10
0.0
 20
0.0
 30
0.0
210
0.0
220
0.0
230
1.0
  2
ANSI31
 70
     0
 71
     0
 91
        3
 92
        7
 72
     1
 73
     1
 93
        4
 10
87.20972973207997
 20
219.8355216269161
 42
0.0
 10
87.20972973207997
 20
222.0319322316226
 42
0.0047162344336307
 10
84.93819354180036
 20
221.6376364349714
 42
0.0114699802689925
 10
84.40928896576258
 20
221.4850078663339
 42
0.0
 97
        0
 92
        7
 72
     1
 73
     1
 93
        5
 10
141.2463960806676
 20
221.2583723821713
 42
0.0259303870776784
 10
140.0618064581995
 20
221.6376364349714
 42
0.0020713482642226
 10
139.0650704048694
 20
221.8160873418966
 42
0.0
 10
137.7902702679199
 20
220.87170947708
 42
0.0
 10
137.7902702679199
 20
219.3371969434169
 42
0.0
 97
        0
 92
        7
 72
     1
 73
     1
 93
        3
 10
137.7902702679199
 20
222.0319322316226
 42
0.0
 10
137.7902702679199
 20
220.87170947708
 42
0.0
 10
139.0650704048694
 20
221.8160873418966
 42
0.0026448603318625
 97
        0
 75
     0
 76
     1
 52
0.0
 41
0.25
 77
     0
 78
     1
 53
45.0
 43
3.097229529763552
 44
0.0
 45
-0.0220970869120796
 46
0.0220970869120796
 79
     0
 47
0.0781766181616768
 98
        3
 10
86.12361639764978
 20
220.9144208840608
 10
139.3262525065556
 20
220.5235377404563
 10
138.3091440796356
 20
221.774363119082
  0
LINE
  5
1152
330
17
100
AcDbEntity
  8
SCHRAFF
100
AcDbLine
 10
87.20972973207997
 20
219.8355216269161
 30
0.0
 11
84.40928896576259
 21
221.4850078663339
 31
0.0
  0
LINE
  5
1153
330
17
100
AcDbEntity
  8
SCHRAFF
100
AcDbLine
 10
137.7902702679199
 20
219.337196943417
 30
0.0
 11
141.2463960806676
 21
221.2583723821713
 31
0.0
  0
ARC
  5
1154
330
17
100
AcDbEntity
  8
STEMPEL
100
AcDbCircle
 10
93.74966560802228
 20
220.9110759797478
 30
0.0
 40
2.0
100
AcDbArc
 50
96.3159414438752
 51
124.0578017884484
  0
ARC
  5
1155
330
17
100
AcDbEntity
  8
STEMPEL
100
AcDbCircle
 10
93.18283512629349
 20
222.3568219635494
 30
0.0
 40
2.0
100
AcDbArc
 50
96.50628271761654
 51
129.1774904507583
  0
ARC
  5
1156
330
17
100
AcDbEntity
  8
STEMPEL
100
AcDbCircle
 10
106.9744825891321
 20
101.4269835354757
 30
0.0
 40
122.2137435213428
100
AcDbArc
 50
87.44010511146658
 51
96.315941443876
  0
ARC
  5
1157
330
17
100
AcDbEntity
  8
STEMPEL
100
AcDbCircle
 10
106.9744825891321
 20
101.4269835354757
 30
0.0
 40
123.7137435213428
100
AcDbArc
 50
87.44010511146658
 51
96.50628271761732
  0
ARC
  5
1158
330
17
100
AcDbEntity
  8
STEMPEL
100
AcDbCircle
 10
89.0326269525401
 20
220.2942790701639
 30
0.0
 40
2.0
100
AcDbArc
 50
70.84158315686666
 51
98.58344350143783
  0
ARC
  5
1159
330
17
100
AcDbEntity
  8
STEMPEL
100
AcDbCircle
 10
89.20866623054903
 20
221.8371622210517
 30
0.0
 40
2.0
100
AcDbArc
 50
65.72189449455615
 51
98.39310222769734
  0
ARC
  5
115A
330
17
100
AcDbEntity
  8
STEMPEL
100
AcDbCircle
 10
90.77550644870582
 20
225.3108672682453
 30
0.0
 40
1.810723687717566
100
AcDbArc
 50
245.7218944945561
 51
309.1774904507583
  0
ARC
  5
115B
330
17
100
AcDbEntity
  8
STEMPEL
100
AcDbCircle
 10
90.77550644870582
 20
225.3108672682453
 30
0.0
 40
3.310723687717566
100
AcDbArc
 50
250.8415831568666
 51
304.0578017884485
  0
ARC
  5
115C
330
17
100
AcDbEntity
  8
STEMPEL
100
AcDbCircle
 10
118.0255174108679
 20
101.4269835354757
 30
0.0
 40
123.7137435213428
100
AcDbArc
 50
79.58626599591493
 51
92.55989488853343
  0
ARC
  5
115D
330
17
100
AcDbEntity
  8
STEMPEL
100
AcDbCircle
 10
118.0255174108679
 20
101.4269835354757
 30
0.0
 40
122.2137435213428
100
AcDbArc
 50
79.58626599591493
 51
92.55989488853343
  0
ARC
  5
115E
330
17
100
AcDbEntity
  8
STEMPEL
100
AcDbCircle
 10
136.9999999999999
 20
210.0348203452229
 30
0.0
 40
13.5
100
AcDbArc
 50
0.0
 51
75.46820052732063
  0
ARC
  5
115F
330
17
100
AcDbEntity
  8
STEMPEL
100
AcDbCircle
 10
136.9999999999999
 20
210.0348203452229
 30
0.0
 40
12.0
100
AcDbArc
 50
0.0
 51
75.21749457454513
  0
ARC
  5
1160
330
17
100
AcDbEntity
  8
STEMPEL
100
AcDbCircle
 10
106.974482589132
 20
101.4269835354757
 30
0.0
 40
122.2137435213428
100
AcDbArc
 50
98.58344350143864
 51
100.413734004085
  0
ARC
  5
1161
330
17
100
AcDbEntity
  8
STEMPEL
100
AcDbCircle
 10
106.974482589132
 20
101.4269835354757
 30
0.0
 40
123.7137435213428
100
AcDbArc
 50
98.39310222769734
 51
100.413734004085
  0
LINE
  5
1162
330
17
100
AcDbEntity
  8
STEMPEL
100
AcDbLine
 10
132.0
 20
221.7741528246146
 30
0.0
 11
137.7902702679199
 21
221.7741528246145
 31
0.0
  0
LINE
  5
1163
330
17
100
AcDbEntity
  8
STEMPEL
100
AcDbLine
 10
92.99999999999997
 20
221.7741528246146
 30
0.0
 11
87.20972973207997
 21
221.7741528246146
 31
0.0
  0
ARC
  5
1165
330
17
100
AcDbEntity
  8
STEMPEL
100
AcDbCircle
 10
88.0
 20
210.0348203452229
 30
0.0
 40
13.5
100
AcDbArc
 50
104.5317994726793
 51
180.0
  0
ARC
  5
1166
330
17
100
AcDbEntity
  8
STEMPEL
100
AcDbCircle
 10
88.0
 20
210.0348203452229
 30
0.0
 40
12.0
100
AcDbArc
 50
104.7825054254548
 51
180.0
  0
HATCH
  5
1167
330
17
100
AcDbEntity
  8
SCHRAFF
100
AcDbHatch
 10
0.0
 20
0.0
 30
0.0
210
0.0
220
0.0
230
1.0
  2
_U
 70
     0
 71
     0
 91
        4
 92
        7
 72
     1
 73
     1
 93
       16
 10
84.93819354179965
 20
221.6376364349712
 42
-0.0078730792871758
 10
88.73412771092201
 20
222.271878170779
 42
-0.1216413909304971
 10
89.68898928605655
 20
222.1835086716525
 42
0.2364647058598241
 10
92.62960765200586
 20
222.568022018448
 42
-0.1216413909304847
 10
93.52964389347077
 20
222.8989367508094
 42
-0.0388849072093262
 10
112.5
 20
223.5157535466556
 42
0.0
 10
112.5
 20
225.0172703439737
 42
0.0395793103299699
 10
92.95621080164739
 20
224.343940836561
 42
0.1435286160528454
 10
91.91938551678925
 20
223.9072074266661
 42
-0.2841764068002484
 10
90.03099833676126
 20
223.6602831460297
 42
0.1435286160528442
 10
88.91673837023361
 20
223.8157420461716
 42
0.0088168978248542
 10
84.61261654816722
 20
223.102935486675
 42
0.3417341561705656
 10
74.49999999999995
 20
210.0348203452229
 42
0.0
 10
74.49999999999997
 20
196.0172703439737
 42
0.0
 10
75.99999999999997
 20
196.0172703439737
 42
0.0
 10
75.99999999999997
 20
210.0348203452229
 42
-0.3405129517403205
 97
        0
 92
        7
 72
     1
 73
     1
 93
        4
 10
120.8566272823984
 20
225.1083287454949
 42
0.0168928447199805
 10
112.5
 20
225.0172703439737
 42
0.0
 10
112.5
 20
223.5157535466556
 42
-0.0161282061922485
 10
120.3816401281864
 20
223.618013448647
 42
0.0
 97
        0
 92
        7
 72
     1
 73
     1
 93
        5
 10
120.8566272823984
 20
225.1083287454949
 42
0.0
 10
120.3816401281864
 20
223.618013448647
 42
-0.0384528696506476
 10
139.0650704048693
 20
221.8160873418966
 42
0.0
 10
140.6908675222309
 20
223.0204854007115
 42
0.0058239874267727
 10
140.3873834518327
 20
223.1029354866749
 42
0.0397377936776598
 97
        0
 92
        7
 72
     1
 73
     1
 93
        7
 10
140.6908675222309
 20
223.0204854007116
 42
0.0
 10
139.0650704048693
 20
221.8160873418966
 42
-0.0020713482642235
 10
140.0618064581999
 20
221.6376364349713
 42
-0.3405129517403295
 10
149.0
 20
210.0348203452229
 42
0.0
 10
149.0
 20
196.0172703439737
 42
0.0
 10
150.5
 20
196.0172703439737
 42
0.0
 10
150.4999999999999
 20
210.0348203452229
 42
0.3352429496432853
 97
        0
 75
     0
 76
     0
 52
135.0
 41
2.0
 77
     0
 78
     1
 53
135.0
 43
3.097229529763552
 44
0.0
 45
-1.414213562373095
 46
-1.414213562373094
 79
     0
 47
0.2239562665206388
 98
        4
 10
79.71022952401378
 20
219.7672527489134
 10
116.9167162796172
 20
224.246378188118
 10
125.8821338827312
 20
224.4703349282028
 10
144.2612421907231
 20
220.2151653779474
  0
LINE
  5
1168
330
17
100
AcDbEntity
  8
STEMPEL
100
AcDbLine
 10
75.99999999999997
 20
196.0172703439737
 30
0.0
 11
75.99999999999997
 21
210.0348203452229
 31
0.0
  0
LINE
  5
1169
330
17
100
AcDbEntity
  8
STEMPEL
100
AcDbLine
 10
74.49999999999997
 20
196.0172703439737
 30
0.0
 11
74.49999999999995
 21
210.0348203452229
 31
0.0
  0
LINE
  5
116A
330
17
100
AcDbEntity
  8
STEMPEL
100
AcDbLine
 10
149.0
 20
196.0172703439737
 30
0.0
 11
149.0
 21
210.0348203452229
 31
0.0
  0
LINE
  5
116B
330
17
100
AcDbEntity
  8
STEMPEL
100
AcDbLine
 10
150.4999999999999
 20
196.0172703439737
 30
0.0
 11
150.4999999999999
 21
210.0348203452229
 31
0.0
  0
LINE
  5
116E
330
17
100
AcDbEntity
  8
STEMPEL
100
AcDbLine
 10
135.7985239048391
 20
221.7741528246145
 30
0.0
 11
135.7985239048391
 21
204.0172703439736
 31
0.0
  0
LINE
  5
116F
330
17
100
AcDbEntity
  8
STEMPEL
100
AcDbLine
 10
137.7902702679199
 20
222.0319322316226
 30
0.0
 11
137.7902702679199
 21
204.0172703439736
 31
0.0
  0
LINE
  5
1170
330
17
100
AcDbEntity
  8
STEMPEL
100
AcDbLine
 10
132.0
 20
221.7741528246146
 30
0.0
 11
132.0
 21
204.0172703439737
 31
0.0
  0
LINE
  5
1171
330
17
100
AcDbEntity
  8
STEMPEL
100
AcDbLine
 10
87.20972973207997
 20
222.0319322316226
 30
0.0
 11
87.20972973207997
 21
204.0172703439736
 31
0.0
  0
LINE
  5
1172
330
17
100
AcDbEntity
  8
STEMPEL
100
AcDbLine
 10
89.20147609516082
 20
222.341496087385
 30
0.0
 11
89.20147609516082
 21
204.0172703439736
 31
0.0
  0
LINE
  5
1173
330
17
100
AcDbEntity
  8
STEMPEL
100
AcDbLine
 10
92.99999999999997
 20
221.7741528246146
 30
0.0
 11
92.99999999999995
 21
204.0172703439737
 31
0.0
  0
ENDSEC
  0
SECTION
  2
OBJECTS
  0
DICTIONARY
  5
C
330
0
100
AcDbDictionary
281
     1
  3
ACAD_COLOR
350
B6E
  3
ACAD_GROUP
350
D
  3
ACAD_LAYOUT
350
B6F
  3
ACAD_MATERIAL
350
B6D
  3
ACAD_MLINESTYLE
350
1A
  3
ACAD_PLOTSETTINGS
350
B70
  3
ACAD_PLOTSTYLENAME
350
B6B
  3
ACDBVARIABLEDICTIONARY
350
32
  0
DICTIONARY
  5
B6E
102
{ACAD_REACTORS
330
C
102
}
330
C
100
AcDbDictionary
281
     1
  0
DICTIONARY
  5
D
102
{ACAD_REACTORS
330
C
102
}
330
C
100
AcDbDictionary
281
     1
  0
DICTIONARY
  5
B6F
102
{ACAD_REACTORS
330
C
102
}
330
C
100
AcDbDictionary
281
     1
  3
Layout1
350
B72
  3
Model
350
B71
  0
DICTIONARY
  5
B6D
102
{ACAD_REACTORS
330
C
102
}
330
C
100
AcDbDictionary
281
     1
  0
DICTIONARY
  5
1A
102
{ACAD_REACTORS
330
C
102
}
330
C
100
AcDbDictionary
281
     1
  3
STANDARD
350
1B
  0
DICTIONARY
  5
B70
102
{ACAD_REACTORS
330
C
102
}
330
C
100
AcDbDictionary
281
     1
  0
ACDBDICTIONARYWDFLT
  5
B6B
102
{ACAD_REACTORS
330
C
102
}
330
C
100
AcDbDictionary
281
     1
  3
Normal
350
B6C
100
AcDbDictionaryWithDefault
340
B6C
  0
DICTIONARY
  5
32
102
{ACAD_REACTORS
330
C
102
}
330
C
100
AcDbDictionary
281
     1
  3
DIMADEC
350
33
  3
DIMASSOC
350
B91
  3
PROJECTNAME
350
B92
  0
LAYOUT
  5
B72
102
{ACAD_REACTORS
330
B6F
102
}
330
B6F
100
AcDbPlotSettings
  1

  2
RICOH Aficio 2027 PCL 6
  4

  6

 40
0.0
 41
0.0
 42
0.0
 43
0.0
 44
0.0
 45
0.0
 46
0.0
 47
0.0
 48
0.0
 49
0.0
140
0.0
141
0.0
142
1.0
143
1.0
 70
   688
 72
     0
 73
     0
 74
     5
  7

 75
    16
147
1.0
 76
     0
 77
     2
 78
   300
148
0.0
149
0.0
100
AcDbLayout
  1
Layout1
 70
     0
 71
     1
 10
0.0
 20
0.0
 11
12.0
 21
9.0
 12
0.0
 22
0.0
 32
0.0
 14
1.000000000000000E+20
 24
1.000000000000000E+20
 34
1.000000000000000E+20
 15
-1.000000000000000E+20
 25
-1.000000000000000E+20
 35
-1.000000000000000E+20
146
0.0
 13
0.0
 23
0.0
 33
0.0
 16
1.0
 26
0.0
 36
0.0
 17
0.0
 27
1.0
 37
0.0
 76
     0
330
14
  0
LAYOUT
  5
B71
102
{ACAD_REACTORS
330
B6F
102
}
330
B6F
100
AcDbPlotSettings
  1

  2
RICOH Aficio 2027 PCL 6
  4
A4
  6

 40
5.027083396911621
 41
5.027085304260253
 42
5.027084350585937
 43
5.027069091796875
 44
209.9733276367187
 45
296.9259948730469
 46
0.0
 47
0.0
 48
0.0
 49
0.0
140
0.0
141
0.0
142
1.0
143
1.0
 70
 11952
 72
     0
 73
     1
 74
     0
  7

 75
     0
147
1.0
 76
     0
 77
     2
 78
   300
148
-1794.893408829056
149
457.8399767561887
100
AcDbLayout
  1
Model
 70
     1
 71
     0
 10
0.0
 20
0.0
 11
12.0
 21
9.0
 12
0.0
 22
0.0
 32
0.0
 14
0.0
 24
0.0
 34
0.0
 15
0.0
 25
0.0
 35
0.0
146
0.0
 13
0.0
 23
0.0
 33
0.0
 16
1.0
 26
0.0
 36
0.0
 17
0.0
 27
1.0
 37
0.0
 76
     0
330
17
  0
MLINESTYLE
  5
1B
102
{ACAD_REACTORS
330
1A
102
}
330
1A
100
AcDbMlineStyle
  2
STANDARD
 70
     0
  3

 62
   256
 51
90.0
 52
90.0
 71
     2
 49
0.5
 62
   256
  6
BYLAYER
 49
-0.5
 62
   256
  6
BYLAYER
  0
ACDBPLACEHOLDER
  5
B6C
102
{ACAD_REACTORS
330
B6B
102
}
330
B6B
  0
DICTIONARYVAR
  5
33
102
{ACAD_REACTORS
330
32
102
}
330
32
100
DictionaryVariables
280
     0
  1
0
  0
DICTIONARYVAR
  5
B91
102
{ACAD_REACTORS
330
32
102
}
330
32
100
DictionaryVariables
280
     0
  1
1
  0
DICTIONARYVAR
  5
B92
102
{ACAD_REACTORS
330
32
102
}
330
32
100
DictionaryVariables
280
     0
  1

  0
ENDSEC
  0
EOF
