  0
SECTION
  2
HEADER
  9
$ACADVER
  1
AC1018
  9
$ACADMAINTVER
 70
     2
  9
$DWGCODEPAGE
  3
ANSI_1252
  9
$INSBASE
 10
0.0
 20
0.0
 30
0.0
  9
$EXTMIN
 10
-0.0128100481844058
 20
-0.0181170681471485
 30
-0.0000000000000053
  9
$EXTMAX
 10
420.0128212946063
 20
594.0181329738
 30
0.0000000000000099
  9
$LIMMIN
 10
0.0
 20
0.0
  9
$LIMMAX
 10
419.9999999999999
 20
594.0
  9
$ORTHOMODE
 70
     1
  9
$REGENMODE
 70
     1
  9
$FILLMODE
 70
     1
  9
$QTEXTMODE
 70
     0
  9
$MIRRTEXT
 70
     1
  9
$LTSCALE
 40
50.0
  9
$ATTMODE
 70
     1
  9
$TEXTSIZE
 40
2.5
  9
$TRACEWID
 40
0.5
  9
$TEXTSTYLE
  7
GREEKS
  9
$CLAYER
  8
BEM
  9
$CELTYPE
  6
ByLayer
  9
$CECOLOR
 62
   256
  9
$CELTSCALE
 40
1.0
  9
$DISPSILH
 70
     0
  9
$DIMSCALE
 40
2.0
  9
$DIMASZ
 40
3.5
  9
$DIMEXO
 40
1.0
  9
$DIMDLI
 40
7.0
  9
$DIMRND
 40
0.0
  9
$DIMDLE
 40
0.0
  9
$DIMEXE
 40
1.0
  9
$DIMTP
 40
0.8
  9
$DIMTM
 40
0.8
  9
$DIMTXT
 40
3.5
  9
$DIMCEN
 40
1.5
  9
$DIMTSZ
 40
0.0
  9
$DIMTOL
 70
     0
  9
$DIMLIM
 70
     0
  9
$DIMTIH
 70
     0
  9
$DIMTOH
 70
     0
  9
$DIMSE1
 70
     0
  9
$DIMSE2
 70
     0
  9
$DIMTAD
 70
     1
  9
$DIMZIN
 70
     8
  9
$DIMBLK
  1

  9
$DIMASO
 70
     1
  9
$DIMSHO
 70
     0
  9
$DIMPOST
  1

  9
$DIMAPOST
  1

  9
$DIMALT
 70
     0
  9
$DIMALTD
 70
     2
  9
$DIMALTF
 40
25.4
  9
$DIMLFAC
 40
1.0
  9
$DIMTOFL
 70
     1
  9
$DIMTVP
 40
0.0
  9
$DIMTIX
 70
     0
  9
$DIMSOXD
 70
     0
  9
$DIMSAH
 70
     0
  9
$DIMBLK1
  1

  9
$DIMBLK2
  1

  9
$DIMSTYLE
  2
Standard
  9
$DIMCLRD
 70
     0
  9
$DIMCLRE
 70
     0
  9
$DIMCLRT
 70
     1
  9
$DIMTFAC
 40
0.5
  9
$DIMGAP
 40
1.5
  9
$DIMJUST
 70
     0
  9
$DIMSD1
 70
     0
  9
$DIMSD2
 70
     0
  9
$DIMTOLJ
 70
     1
  9
$DIMTZIN
 70
     8
  9
$DIMALTZ
 70
     8
  9
$DIMALTTZ
 70
     8
  9
$DIMUPT
 70
     0
  9
$DIMDEC
 70
     2
  9
$DIMTDEC
 70
     2
  9
$DIMALTU
 70
     2
  9
$DIMALTTD
 70
     2
  9
$DIMTXSTY
  7
GREEKS
  9
$DIMAUNIT
 70
     0
  9
$DIMADEC
 70
     2
  9
$DIMALTRND
 40
0.0
  9
$DIMAZIN
 70
     2
  9
$DIMDSEP
 70
    46
  9
$DIMATFIT
 70
     3
  9
$DIMFRAC
 70
     0
  9
$DIMLDRBLK
  1

  9
$DIMLUNIT
 70
     2
  9
$DIMLWD
 70
    -2
  9
$DIMLWE
 70
    -2
  9
$DIMTMOVE
 70
     0
  9
$LUNITS
 70
     2
  9
$LUPREC
 70
     2
  9
$SKETCHINC
 40
1.0
  9
$FILLETRAD
 40
0.0
  9
$AUNITS
 70
     0
  9
$AUPREC
 70
     0
  9
$MENU
  1
ACAD
  9
$ELEVATION
 40
0.0
  9
$PELEVATION
 40
0.0
  9
$THICKNESS
 40
0.0
  9
$LIMCHECK
 70
     0
  9
$CHAMFERA
 40
0.0
  9
$CHAMFERB
 40
0.0
  9
$CHAMFERC
 40
0.0
  9
$CHAMFERD
 40
0.0
  9
$SKPOLY
 70
     0
  9
$TDCREATE
 40
2452219.851280208
  9
$TDUCREATE
 40
2452219.767946875
  9
$TDUPDATE
 40
2455658.399602303
  9
$TDUUPDATE
 40
2455658.316268970
  9
$TDINDWG
 40
0.0328886574
  9
$TDUSRTIMER
 40
0.0328886574
  9
$USRTIMER
 70
     1
  9
$ANGBASE
 50
0.0
  9
$ANGDIR
 70
     0
  9
$PDMODE
 70
     0
  9
$PDSIZE
 40
0.0
  9
$PLINEWID
 40
0.0
  9
$SPLFRAME
 70
     0
  9
$SPLINETYPE
 70
     6
  9
$SPLINESEGS
 70
     8
  9
$HANDSEED
  5
2F9
  9
$SURFTAB1
 70
     6
  9
$SURFTAB2
 70
     6
  9
$SURFTYPE
 70
     6
  9
$SURFU
 70
     6
  9
$SURFV
 70
     6
  9
$UCSBASE
  2

  9
$UCSNAME
  2

  9
$UCSORG
 10
0.0
 20
0.0
 30
0.0
  9
$UCSXDIR
 10
1.0
 20
0.0
 30
0.0
  9
$UCSYDIR
 10
0.0
 20
1.0
 30
0.0
  9
$UCSORTHOREF
  2

  9
$UCSORTHOVIEW
 70
     0
  9
$UCSORGTOP
 10
0.0
 20
0.0
 30
0.0
  9
$UCSORGBOTTOM
 10
0.0
 20
0.0
 30
0.0
  9
$UCSORGLEFT
 10
0.0
 20
0.0
 30
0.0
  9
$UCSORGRIGHT
 10
0.0
 20
0.0
 30
0.0
  9
$UCSORGFRONT
 10
0.0
 20
0.0
 30
0.0
  9
$UCSORGBACK
 10
0.0
 20
0.0
 30
0.0
  9
$PUCSBASE
  2

  9
$PUCSNAME
  2

  9
$PUCSORG
 10
0.0
 20
0.0
 30
0.0
  9
$PUCSXDIR
 10
1.0
 20
0.0
 30
0.0
  9
$PUCSYDIR
 10
0.0
 20
1.0
 30
0.0
  9
$PUCSORTHOREF
  2

  9
$PUCSORTHOVIEW
 70
     0
  9
$PUCSORGTOP
 10
0.0
 20
0.0
 30
0.0
  9
$PUCSORGBOTTOM
 10
0.0
 20
0.0
 30
0.0
  9
$PUCSORGLEFT
 10
0.0
 20
0.0
 30
0.0
  9
$PUCSORGRIGHT
 10
0.0
 20
0.0
 30
0.0
  9
$PUCSORGFRONT
 10
0.0
 20
0.0
 30
0.0
  9
$PUCSORGBACK
 10
0.0
 20
0.0
 30
0.0
  9
$USERI1
 70
     0
  9
$USERI2
 70
     0
  9
$USERI3
 70
     0
  9
$USERI4
 70
     0
  9
$USERI5
 70
     0
  9
$USERR1
 40
0.0
  9
$USERR2
 40
0.0
  9
$USERR3
 40
0.0
  9
$USERR4
 40
0.0
  9
$USERR5
 40
0.0
  9
$WORLDVIEW
 70
     1
  9
$SHADEDGE
 70
     3
  9
$SHADEDIF
 70
    70
  9
$TILEMODE
 70
     1
  9
$MAXACTVP
 70
    16
  9
$PINSBASE
 10
2.245139065676091
 20
50.00000000000001
 30
-1.032423782695658
  9
$PLIMCHECK
 70
     0
  9
$PEXTMIN
 10
1.000000000000000E+20
 20
1.000000000000000E+20
 30
1.000000000000000E+20
  9
$PEXTMAX
 10
-1.000000000000000E+20
 20
-1.000000000000000E+20
 30
-1.000000000000000E+20
  9
$PLIMMIN
 10
0.0
 20
0.0
  9
$PLIMMAX
 10
12.0
 20
9.0
  9
$UNITMODE
 70
     0
  9
$VISRETAIN
 70
     0
  9
$PLINEGEN
 70
     0
  9
$PSLTSCALE
 70
     0
  9
$TREEDEPTH
 70
  3020
  9
$CMLSTYLE
  2
Standard
  9
$CMLJUST
 70
     0
  9
$CMLSCALE
 40
1.0
  9
$PROXYGRAPHICS
 70
     1
  9
$MEASUREMENT
 70
     0
  9
$CELWEIGHT
370
    -1
  9
$ENDCAPS
280
     0
  9
$JOINSTYLE
280
     0
  9
$LWDISPLAY
290
     0
  9
$INSUNITS
 70
     0
  9
$HYPERLINKBASE
  1

  9
$STYLESHEET
  1
monochrome 1.ctb
  9
$XEDIT
290
     1
  9
$CEPSNTYPE
380
     0
  9
$PSTYLEMODE
290
     1
  9
$FINGERPRINTGUID
  2
{4A74E63A-85C2-4E94-B197-8B5D1207179F}
  9
$VERSIONGUID
  2
{C237D22D-05F6-4A44-BD10-5CDD69F8D251}
  9
$EXTNAMES
290
     1
  9
$PSVPSCALE
 40
0.0
  9
$OLESTARTUP
290
     0
  9
$SORTENTS
280
   127
  9
$INDEXCTL
280
     0
  9
$HIDETEXT
280
     1
  9
$XCLIPFRAME
290
     0
  9
$HALOGAP
280
     0
  9
$OBSCOLOR
 70
   257
  9
$OBSLTYPE
280
     0
  9
$INTERSECTIONDISPLAY
280
     0
  9
$INTERSECTIONCOLOR
 70
   257
  9
$DIMASSOC
280
     2
  9
$PROJECTNAME
  1

  0
ENDSEC
  0
SECTION
  2
CLASSES
  0
CLASS
  1
ACDBDICTIONARYWDFLT
  2
AcDbDictionaryWithDefault
  3
ObjectDBX Classes
 90
        0
 91
        1
280
     0
281
     0
  0
CLASS
  1
DICTIONARYVAR
  2
AcDbDictionaryVar
  3
ObjectDBX Classes
 90
        0
 91
        3
280
     0
281
     0
  0
ENDSEC
  0
SECTION
  2
TABLES
  0
TABLE
  2
VPORT
  5
8
330
0
100
AcDbSymbolTable
 70
     4
  0
VPORT
  5
2F8
330
8
100
AcDbSymbolTableRecord
100
AcDbViewportTableRecord
  2
*Active
 70
     0
 10
0.0
 20
0.0
 11
1.0
 21
1.0
 12
210.0
 22
297.0
 13
0.0
 23
0.0
 14
1.0
 24
1.0
 15
10.0
 25
10.0
 16
0.0
 26
0.0
 36
1.0
 17
0.0
 27
0.0
 37
0.0
 40
594.0
 41
1.334231805929919
 42
50.0
 43
0.0
 44
0.0
 50
0.0
 51
0.0
 71
     0
 72
  1500
 73
     1
 74
     0
 75
     0
 76
     0
 77
     0
 78
     0
281
     0
 65
     1
110
0.0
120
0.0
130
0.0
111
1.0
121
0.0
131
0.0
112
0.0
122
1.0
132
0.0
 79
     0
146
0.0
  0
ENDTAB
  0
TABLE
  2
LTYPE
  5
5
330
0
100
AcDbSymbolTable
 70
     2
  0
LTYPE
  5
13
330
5
100
AcDbSymbolTableRecord
100
AcDbLinetypeTableRecord
  2
ByBlock
 70
     0
  3

 72
    65
 73
     0
 40
0.0
  0
LTYPE
  5
14
330
5
100
AcDbSymbolTableRecord
100
AcDbLinetypeTableRecord
  2
ByLayer
 70
     0
  3

 72
    65
 73
     0
 40
0.0
  0
LTYPE
  5
15
330
5
100
AcDbSymbolTableRecord
100
AcDbLinetypeTableRecord
  2
Continuous
 70
     0
  3
Solid line
 72
    65
 73
     0
 40
0.0
  0
LTYPE
  5
31
330
5
100
AcDbSymbolTableRecord
100
AcDbLinetypeTableRecord
  2
STRICHPUNKT
 70
     0
  3
__ . __ . __ . __ . __ . __ . __ . __ . __ . __
 72
    65
 73
     4
 40
1.0
 49
0.5
 74
     0
 49
-0.25
 74
     0
 49
0.0
 74
     0
 49
-0.25
 74
     0
  0
ENDTAB
  0
TABLE
  2
LAYER
  5
2
330
0
100
AcDbSymbolTable
 70
     9
  0
LAYER
  5
10
330
2
100
AcDbSymbolTableRecord
100
AcDbLayerTableRecord
  2
0
 70
     0
 62
     7
  6
Continuous
370
    -3
390
F
  0
LAYER
  5
34
330
2
100
AcDbSymbolTableRecord
100
AcDbLayerTableRecord
  2
VOLL
 70
     0
 62
     1
  6
Continuous
370
    -3
390
F
  0
LAYER
  5
35
330
2
100
AcDbSymbolTableRecord
100
AcDbLayerTableRecord
  2
HILF
 70
     0
 62
     2
  6
Continuous
370
    -3
390
F
  0
LAYER
  5
36
330
2
100
AcDbSymbolTableRecord
100
AcDbLayerTableRecord
  2
MITTEL
 70
     0
 62
     2
  6
STRICHPUNKT
370
    -3
390
F
  0
LAYER
  5
37
330
2
100
AcDbSymbolTableRecord
100
AcDbLayerTableRecord
  2
BEM
 70
     0
 62
     7
  6
Continuous
370
    -3
390
F
  0
LAYER
  5
38
330
2
100
AcDbSymbolTableRecord
100
AcDbLayerTableRecord
  2
STEMPEL
 70
     0
 62
     3
  6
Continuous
370
    -3
390
F
  0
LAYER
  5
39
330
2
100
AcDbSymbolTableRecord
100
AcDbLayerTableRecord
  2
TEXT
 70
     0
 62
     7
  6
Continuous
370
    -3
390
F
  0
LAYER
  5
3A
330
2
100
AcDbSymbolTableRecord
100
AcDbLayerTableRecord
  2
DEFPOINTS
 70
     0
 62
     7
  6
Continuous
290
     0
370
    -3
390
F
  0
LAYER
  5
3B
330
2
100
AcDbSymbolTableRecord
100
AcDbLayerTableRecord
  2
SCHRAFF
 70
     0
 62
     7
  6
Continuous
370
    -3
390
F
  0
ENDTAB
  0
TABLE
  2
STYLE
  5
3
330
0
100
AcDbSymbolTable
 70
     2
  0
STYLE
  5
11
330
3
100
AcDbSymbolTableRecord
100
AcDbTextStyleTableRecord
  2
STANDARD
 70
     0
 40
0.0
 41
1.0
 50
0.0
 71
     0
 42
3.5
  3
txt
  4

  0
STYLE
  5
30
330
3
100
AcDbSymbolTableRecord
100
AcDbTextStyleTableRecord
  2
GREEKS
 70
     0
 40
0.0
 41
0.8
 50
0.0
 71
     0
 42
2.5
  3
SIMPLEX.shx
  4

  0
ENDTAB
  0
TABLE
  2
VIEW
  5
6
330
0
100
AcDbSymbolTable
 70
     0
  0
ENDTAB
  0
TABLE
  2
UCS
  5
7
330
0
100
AcDbSymbolTable
 70
     0
  0
ENDTAB
  0
TABLE
  2
APPID
  5
9
330
0
100
AcDbSymbolTable
 70
     1
  0
APPID
  5
12
330
9
100
AcDbSymbolTableRecord
100
AcDbRegAppTableRecord
  2
ACAD
 70
     0
  0
ENDTAB
  0
TABLE
  2
DIMSTYLE
  5
A
330
0
100
AcDbSymbolTable
 70
     1
100
AcDbDimStyleTable
 71
     1
340
1E5
  0
DIMSTYLE
105
1E5
102
{ACAD_REACTORS
330
1BE
330
1C0
330
160
102
}
330
A
100
AcDbSymbolTableRecord
100
AcDbDimStyleTableRecord
  2
Standard
 70
     0
340
11
  0
ENDTAB
  0
TABLE
  2
BLOCK_RECORD
  5
1
330
0
100
AcDbSymbolTable
 70
    12
  0
BLOCK_RECORD
  5
20
330
1
100
AcDbSymbolTableRecord
100
AcDbBlockTableRecord
  2
*Model_Space
340
23
  0
BLOCK_RECORD
  5
1C
330
1
100
AcDbSymbolTableRecord
100
AcDbBlockTableRecord
  2
*Paper_Space
340
1F
  0
BLOCK_RECORD
  5
24
330
1
100
AcDbSymbolTableRecord
100
AcDbBlockTableRecord
  2
LOGO
340
0
102
{BLKREFS
331
183
102
}
  0
BLOCK_RECORD
  5
26
330
1
100
AcDbSymbolTableRecord
100
AcDbBlockTableRecord
  2
*X1
340
0
102
{BLKREFS
331
1CB
102
}
  0
BLOCK_RECORD
  5
2C
330
1
100
AcDbSymbolTableRecord
100
AcDbBlockTableRecord
  2
*D6
340
0
  0
BLOCK_RECORD
  5
1E8
330
1
100
AcDbSymbolTableRecord
100
AcDbBlockTableRecord
  2
*D7
340
0
  0
BLOCK_RECORD
  5
206
330
1
100
AcDbSymbolTableRecord
100
AcDbBlockTableRecord
  2
*D8
340
0
  0
BLOCK_RECORD
  5
2D2
330
1
100
AcDbSymbolTableRecord
100
AcDbBlockTableRecord
  2
*D11
340
0
  0
ENDTAB
  0
ENDSEC
  0
SECTION
  2
BLOCKS
  0
BLOCK
  5
3F
330
20
100
AcDbEntity
  8
0
100
AcDbBlockBegin
  2
*Model_Space
 70
     0
 10
0.0
 20
0.0
 30
0.0
  3
*Model_Space
  1

  0
ENDBLK
  5
40
330
20
100
AcDbEntity
  8
0
100
AcDbBlockEnd
  0
BLOCK
  5
3D
330
1C
100
AcDbEntity
 67
     1
  8
0
100
AcDbBlockBegin
  2
*Paper_Space
 70
     0
 10
0.0
 20
0.0
 30
0.0
  3
*Paper_Space
  1

  0
ENDBLK
  5
3E
330
1C
100
AcDbEntity
 67
     1
  8
0
100
AcDbBlockEnd
  0
BLOCK
  5
41
330
24
100
AcDbEntity
  8
0
100
AcDbBlockBegin
  2
LOGO
 70
     0
 10
0.0
 20
0.0
 30
0.0
  3
LOGO
  1

  0
ARC
  5
42
330
24
100
AcDbEntity
  8
0
100
AcDbCircle
 10
11.59973089678112
 20
-9.271599258481501
 30
0.0
 40
4.5
100
AcDbArc
 50
270.0
 51
231.0575587310159
  0
LINE
  5
43
330
24
100
AcDbEntity
  8
0
100
AcDbLine
 10
3.599730896781125
 20
-4.771599258481529
 30
0.0
 11
3.599730896781153
 21
-11.77159925848133
 31
0.0
  0
LINE
  5
44
330
24
100
AcDbEntity
  8
0
100
AcDbLine
 10
2.599730896781125
 20
-4.771599258481529
 30
0.0
 11
2.599730896781153
 21
-11.77159925848133
 31
0.0
  0
CIRCLE
  5
45
330
24
100
AcDbEntity
  8
0
100
AcDbCircle
 10
11.59973089678112
 20
-9.271599258481501
 30
0.0
 40
3.5
  0
ARC
  5
46
330
24
100
AcDbEntity
  8
0
100
AcDbCircle
 10
31.59973089678115
 20
-9.271599258481472
 30
0.0
 40
4.5
100
AcDbArc
 50
270.0
 51
231.0575587310182
  0
LINE
  5
47
330
24
100
AcDbEntity
  8
0
100
AcDbLine
 10
17.59973089678112
 20
-4.771599258481472
 30
0.0
 11
17.59973089678115
 21
-13.77159925848147
 31
0.0
  0
ARC
  5
48
330
24
100
AcDbEntity
  8
0
100
AcDbCircle
 10
22.59973089678116
 20
-7.271599258481472
 30
0.0
 40
2.5
100
AcDbArc
 50
293.1161887722295
 51
90.0
  0
CIRCLE
  5
49
330
24
100
AcDbEntity
  8
0
100
AcDbCircle
 10
31.59973089678115
 20
-9.271599258481472
 30
0.0
 40
3.5
  0
ARC
  5
4A
330
24
100
AcDbEntity
  8
0
100
AcDbCircle
 10
4.599730896781153
 20
-11.77159925848133
 30
0.0
 40
1.0
100
AcDbArc
 50
180.0
 51
270.0
  0
ARC
  5
4B
330
24
100
AcDbEntity
  8
0
100
AcDbCircle
 10
4.599730896781153
 20
-11.77159925848133
 30
0.0
 40
2.0
100
AcDbArc
 50
179.9999999999992
 51
270.0
  0
LINE
  5
4C
330
24
100
AcDbEntity
  8
0
100
AcDbLine
 10
11.59973089678115
 20
-13.77159925848144
 30
0.0
 11
4.599730896781153
 21
-13.77159925848147
 31
0.0
  0
LINE
  5
4D
330
24
100
AcDbEntity
  8
0
100
AcDbLine
 10
8.771303772034769
 20
-12.77159925848136
 30
0.0
 11
4.599730896781153
 21
-12.77159925848133
 31
0.0
  0
LINE
  5
4E
330
24
100
AcDbEntity
  8
0
100
AcDbLine
 10
31.59973089678115
 20
-13.77159925848147
 30
0.0
 11
23.6715276665056
 21
-13.77159925848144
 31
0.0
  0
LINE
  5
4F
330
24
100
AcDbEntity
  8
0
100
AcDbLine
 10
23.56565672307022
 20
-9.51278021337896
 30
0.0
 11
24.4388546544846
 21
-12.77159925848144
 31
0.0
  0
LINE
  5
50
330
24
100
AcDbEntity
  8
0
100
AcDbLine
 10
22.59973089678116
 20
-9.771599258481472
 30
0.0
 11
18.59973089678112
 21
-9.771599258481472
 31
0.0
  0
LINE
  5
51
330
24
100
AcDbEntity
  8
0
100
AcDbLine
 10
18.59973089678115
 20
-13.77159925848144
 30
0.0
 11
17.59973089678115
 21
-13.77159925848144
 31
0.0
  0
LINE
  5
52
330
24
100
AcDbEntity
  8
0
100
AcDbLine
 10
18.59973089678115
 20
-9.771599258481472
 30
0.0
 11
18.59973089678115
 21
-13.77159925848144
 31
0.0
  0
LINE
  5
53
330
24
100
AcDbEntity
  8
0
100
AcDbLine
 10
22.59973089678116
 20
-9.771599258481472
 30
0.0
 11
23.67152766650562
 21
-13.77159925848147
 31
0.0
  0
ARC
  5
54
330
24
100
AcDbEntity
  8
0
100
AcDbCircle
 10
22.59973089678116
 20
-7.271599258481472
 30
0.0
 40
2.5
100
AcDbArc
 50
270.0
 51
270.0000000000007
  0
LINE
  5
55
330
24
100
AcDbEntity
  8
0
100
AcDbLine
 10
28.77130377203494
 20
-12.77159925848147
 30
0.0
 11
24.43885465448463
 21
-12.77159925848144
 31
0.0
  0
LINE
  5
56
330
24
100
AcDbEntity
  8
0
100
AcDbLine
 10
3.599730896781125
 20
-4.771599258481472
 30
0.0
 11
2.599730896781125
 21
-4.771599258481472
 31
0.0
  0
LINE
  5
57
330
24
100
AcDbEntity
  8
0
100
AcDbLine
 10
22.59973089678116
 20
-8.771599258481472
 30
0.0
 11
18.59973089678115
 21
-8.771599258481472
 31
0.0
  0
LINE
  5
58
330
24
100
AcDbEntity
  8
0
100
AcDbLine
 10
22.59973089678116
 20
-5.771599258481472
 30
0.0
 11
18.59973089678115
 21
-5.771599258481472
 31
0.0
  0
LINE
  5
59
330
24
100
AcDbEntity
  8
0
100
AcDbLine
 10
22.59973089678116
 20
-4.771599258481472
 30
0.0
 11
17.59973089678115
 21
-4.771599258481472
 31
0.0
  0
LINE
  5
5A
330
24
100
AcDbEntity
  8
0
100
AcDbLine
 10
18.59973089678115
 20
-5.771599258481472
 30
0.0
 11
18.59973089678115
 21
-8.771599258481472
 31
0.0
  0
ARC
  5
5B
330
24
100
AcDbEntity
  8
0
100
AcDbCircle
 10
22.59973089678116
 20
-7.271599258481472
 30
0.0
 40
1.5
100
AcDbArc
 50
270.0
 51
90.0
  0
ENDBLK
  5
5C
330
24
100
AcDbEntity
  8
0
100
AcDbBlockEnd
  0
BLOCK
  5
61
330
26
100
AcDbEntity
  8
0
100
AcDbBlockBegin
  2
*X1
 70
     1
 10
0.0
 20
0.0
 30
0.0
  3
*X1
  1

  0
LINE
  5
62
330
26
100
AcDbEntity
  8
0
 62
     0
100
AcDbLine
 10
116.1881222758066
 20
384.4
 30
0.0
 11
118.7061284930751
 21
384.4
 31
0.0
  0
LINE
  5
63
330
26
100
AcDbEntity
  8
0
 62
     0
100
AcDbLine
 10
368.7061284930753
 20
384.4
 30
0.0
 11
371.2234949441495
 21
384.4
 31
0.0
  0
LINE
  5
64
330
26
100
AcDbEntity
  8
0
 62
     0
100
AcDbLine
 10
116.1806184673028
 20
384.5
 30
0.0
 11
118.7029569167113
 21
384.5
 31
0.0
  0
LINE
  5
65
330
26
100
AcDbEntity
  8
0
 62
     0
100
AcDbLine
 10
368.7093000694389
 20
384.5
 30
0.0
 11
371.2312024016753
 21
384.5
 31
0.0
  0
LINE
  5
66
330
26
100
AcDbEntity
  8
0
 62
     0
100
AcDbLine
 10
116.1761622360317
 20
384.6
 30
0.0
 11
118.6646217355404
 21
384.6
 31
0.0
  0
LINE
  5
67
330
26
100
AcDbEntity
  8
0
 62
     0
100
AcDbLine
 10
368.7476352506098
 20
384.6
 30
0.0
 11
371.235851442786
 21
384.6
 31
0.0
  0
LINE
  5
68
330
26
100
AcDbEntity
  8
0
 62
     0
100
AcDbLine
 10
116.1747412346302
 20
384.7
 30
0.0
 11
118.6262865543695
 21
384.7
 31
0.0
  0
LINE
  5
69
330
26
100
AcDbEntity
  8
0
 62
     0
100
AcDbLine
 10
368.7859704317807
 20
384.7
 30
0.0
 11
371.2374550361868
 21
384.7
 31
0.0
  0
LINE
  5
6A
330
26
100
AcDbEntity
  8
0
 62
     0
100
AcDbLine
 10
116.176351539818
 20
384.8
 30
0.0
 11
118.5879513731985
 21
384.8
 31
0.0
  0
LINE
  5
6B
330
26
100
AcDbEntity
  8
0
 62
     0
100
AcDbLine
 10
368.8243056129516
 20
384.8
 30
0.0
 11
371.2360176381457
 21
384.8
 31
0.0
  0
LINE
  5
6C
330
26
100
AcDbEntity
  8
0
 62
     0
100
AcDbLine
 10
116.1809975980406
 20
384.9000000000001
 30
0.0
 11
118.5496161920276
 21
384.9000000000001
 31
0.0
  0
LINE
  5
6D
330
26
100
AcDbEntity
  8
0
 62
     0
100
AcDbLine
 10
368.8626407941226
 20
384.9000000000001
 30
0.0
 11
371.231535254644
 21
384.9000000000001
 31
0.0
  0
LINE
  5
6E
330
26
100
AcDbEntity
  8
0
 62
     0
100
AcDbLine
 10
116.1886922870869
 20
385.0
 30
0.0
 11
118.5112810108567
 21
385.0
 31
0.0
  0
LINE
  5
6F
330
26
100
AcDbEntity
  8
0
 62
     0
100
AcDbLine
 10
368.9009759752935
 20
385.0
 30
0.0
 11
371.2239953856823
 21
385.0
 31
0.0
  0
LINE
  5
70
330
26
100
AcDbEntity
  8
0
 62
     0
100
AcDbLine
 10
116.1994570956869
 20
385.1
 30
0.0
 11
118.4729458296858
 21
385.1
 31
0.0
  0
LINE
  5
71
330
26
100
AcDbEntity
  8
0
 62
     0
100
AcDbLine
 10
368.9393111564644
 20
385.1
 30
0.0
 11
371.2133768499183
 21
385.1
 31
0.0
  0
LINE
  5
72
330
26
100
AcDbEntity
  8
0
 62
     0
100
AcDbLine
 10
116.2133224269803
 20
385.2000000000001
 30
0.0
 11
118.4346106485149
 21
385.2000000000001
 31
0.0
  0
LINE
  5
73
330
26
100
AcDbEntity
  8
0
 62
     0
100
AcDbLine
 10
368.9776463376353
 20
385.2000000000001
 30
0.0
 11
371.199649483851
 21
385.2000000000001
 31
0.0
  0
LINE
  5
74
330
26
100
AcDbEntity
  8
0
 62
     0
100
AcDbLine
 10
116.23032803599
 20
385.3
 30
0.0
 11
118.3962754673439
 21
385.3
 31
0.0
  0
LINE
  5
75
330
26
100
AcDbEntity
  8
0
 62
     0
100
AcDbLine
 10
369.0159815188063
 20
385.3
 30
0.0
 11
371.1827737054534
 21
385.3
 31
0.0
  0
LINE
  5
76
330
26
100
AcDbEntity
  8
0
 62
     0
100
AcDbLine
 10
116.2505236160908
 20
385.4
 30
0.0
 11
118.357940286173
 21
385.4
 31
0.0
  0
LINE
  5
77
330
26
100
AcDbEntity
  8
0
 62
     0
100
AcDbLine
 10
369.0543166999772
 20
385.4
 30
0.0
 11
371.1626999272226
 21
385.4
 31
0.0
  0
LINE
  5
78
330
26
100
AcDbEntity
  8
0
 62
     0
100
AcDbLine
 10
116.2739695552701
 20
385.5
 30
0.0
 11
118.3196051050021
 21
385.5
 31
0.0
  0
LINE
  5
79
330
26
100
AcDbEntity
  8
0
 62
     0
100
AcDbLine
 10
369.0926518811481
 20
385.5
 30
0.0
 11
371.1393677977391
 21
385.5
 31
0.0
  0
LINE
  5
7A
330
26
100
AcDbEntity
  8
0
 62
     0
100
AcDbLine
 10
116.3007378901457
 20
385.6
 30
0.0
 11
118.2812699238312
 21
385.6
 31
0.0
  0
LINE
  5
7B
330
26
100
AcDbEntity
  8
0
 62
     0
100
AcDbLine
 10
369.130987062319
 20
385.6
 30
0.0
 11
371.1127052435557
 21
385.6
 31
0.0
  0
LINE
  5
7C
330
26
100
AcDbEntity
  8
0
 62
     0
100
AcDbLine
 10
116.3309134948194
 20
385.7000000000001
 30
0.0
 11
118.2429347426602
 21
385.7000000000001
 31
0.0
  0
LINE
  5
7D
330
26
100
AcDbEntity
  8
0
 62
     0
100
AcDbLine
 10
369.16932224349
 20
385.7000000000001
 30
0.0
 11
371.082627274015
 21
385.7000000000001
 31
0.0
  0
LINE
  5
7E
330
26
100
AcDbEntity
  8
0
 62
     0
100
AcDbLine
 10
116.3645955534756
 20
385.8
 30
0.0
 11
118.2045995614893
 21
385.8
 31
0.0
  0
LINE
  5
7F
330
26
100
AcDbEntity
  8
0
 62
     0
100
AcDbLine
 10
369.2076574246609
 20
385.8
 30
0.0
 11
371.0490344996107
 21
385.8
 31
0.0
  0
LINE
  5
80
330
26
100
AcDbEntity
  8
0
 62
     0
100
AcDbLine
 10
116.4018993813138
 20
385.9
 30
0.0
 11
118.1662643803184
 21
385.9
 31
0.0
  0
LINE
  5
81
330
26
100
AcDbEntity
  8
0
 62
     0
100
AcDbLine
 10
369.2459926058317
 20
385.9
 30
0.0
 11
371.0118112986214
 21
385.9
 31
0.0
  0
LINE
  5
82
330
26
100
AcDbEntity
  8
0
 62
     0
100
AcDbLine
 10
116.4429586795376
 20
386.0
 30
0.0
 11
118.1279291991475
 21
386.0
 31
0.0
  0
LINE
  5
83
330
26
100
AcDbEntity
  8
0
 62
     0
100
AcDbLine
 10
369.2843277870027
 20
386.0
 30
0.0
 11
370.9708235453322
 21
386.0
 31
0.0
  0
LINE
  5
84
330
26
100
AcDbEntity
  8
0
 62
     0
100
AcDbLine
 10
116.4879283391091
 20
386.1
 30
0.0
 11
118.0895940179766
 21
386.1
 31
0.0
  0
LINE
  5
85
330
26
100
AcDbEntity
  8
0
 62
     0
100
AcDbLine
 10
369.3226629681736
 20
386.1
 30
0.0
 11
370.9259157837611
 21
386.1
 31
0.0
  0
LINE
  5
86
330
26
100
AcDbEntity
  8
0
 62
     0
100
AcDbLine
 10
116.5369879483916
 20
386.2
 30
0.0
 11
118.0512588368056
 21
386.2
 31
0.0
  0
LINE
  5
87
330
26
100
AcDbEntity
  8
0
 62
     0
100
AcDbLine
 10
369.3609981493445
 20
386.2
 30
0.0
 11
370.8769076898028
 21
386.2
 31
0.0
  0
LINE
  5
88
330
26
100
AcDbEntity
  8
0
 62
     0
100
AcDbLine
 10
116.5903462171687
 20
386.3
 30
0.0
 11
118.0129236556347
 21
386.3
 31
0.0
  0
LINE
  5
89
330
26
100
AcDbEntity
  8
0
 62
     0
100
AcDbLine
 10
369.3993333305154
 20
386.3
 30
0.0
 11
370.8235896064479
 21
386.3
 31
0.0
  0
LINE
  5
8A
330
26
100
AcDbEntity
  8
0
 62
     0
100
AcDbLine
 10
116.6482466124575
 20
386.4
 30
0.0
 11
117.9745884744638
 21
386.4
 31
0.0
  0
LINE
  5
8B
330
26
100
AcDbEntity
  8
0
 62
     0
100
AcDbLine
 10
369.4376685116864
 20
386.4
 30
0.0
 11
370.7657168524539
 21
386.4
 31
0.0
  0
LINE
  5
8C
330
26
100
AcDbEntity
  8
0
 62
     0
100
AcDbLine
 10
116.7109746238908
 20
386.5
 30
0.0
 11
117.9362532932929
 21
386.5
 31
0.0
  0
LINE
  5
8D
330
26
100
AcDbEntity
  8
0
 62
     0
100
AcDbLine
 10
369.4760036928573
 20
386.5
 30
0.0
 11
370.7030023803685
 21
386.5
 31
0.0
  0
LINE
  5
8E
330
26
100
AcDbEntity
  8
0
 62
     0
100
AcDbLine
 10
116.7788672610247
 20
386.6
 30
0.0
 11
117.897918112122
 21
386.6
 31
0.0
  0
LINE
  5
8F
330
26
100
AcDbEntity
  8
0
 62
     0
100
AcDbLine
 10
369.5143388740282
 20
386.6
 30
0.0
 11
370.6351071718312
 21
386.6
 31
0.0
  0
LINE
  5
90
330
26
100
AcDbEntity
  8
0
 62
     0
100
AcDbLine
 10
116.8523256703458
 20
386.7
 30
0.0
 11
117.859582930951
 21
386.7
 31
0.0
  0
LINE
  5
91
330
26
100
AcDbEntity
  8
0
 62
     0
100
AcDbLine
 10
369.5526740551991
 20
386.7
 30
0.0
 11
370.5616274670648
 21
386.7
 31
0.0
  0
LINE
  5
92
330
26
100
AcDbEntity
  8
0
 62
     0
100
AcDbLine
 10
116.9318322135832
 20
386.8
 30
0.0
 11
117.8212477497801
 21
386.8
 31
0.0
  0
LINE
  5
93
330
26
100
AcDbEntity
  8
0
 62
     0
100
AcDbLine
 10
369.59100923637
 20
386.8
 30
0.0
 11
370.4820774620924
 21
386.8
 31
0.0
  0
LINE
  5
94
330
26
100
AcDbEntity
  8
0
 62
     0
100
AcDbLine
 10
117.0179740937441
 20
386.9
 30
0.0
 11
117.7829125686092
 21
386.9
 31
0.0
  0
LINE
  5
95
330
26
100
AcDbEntity
  8
0
 62
     0
100
AcDbLine
 10
369.629344417541
 20
386.9
 30
0.0
 11
370.3958653455616
 21
386.9
 31
0.0
  0
LINE
  5
96
330
26
100
AcDbEntity
  8
0
 62
     0
100
AcDbLine
 10
117.1114768829212
 20
387.0
 30
0.0
 11
117.7445773874383
 21
387.0
 31
0.0
  0
LINE
  5
97
330
26
100
AcDbEntity
  8
0
 62
     0
100
AcDbLine
 10
369.6676795987119
 20
387.0
 30
0.0
 11
370.3022592483789
 21
387.0
 31
0.0
  0
LINE
  5
98
330
26
100
AcDbEntity
  8
0
 62
     0
100
AcDbLine
 10
117.2132535565393
 20
387.1
 30
0.0
 11
117.7062422062673
 21
387.1
 31
0.0
  0
LINE
  5
99
330
26
100
AcDbEntity
  8
0
 62
     0
100
AcDbLine
 10
369.7060147798828
 20
387.1
 30
0.0
 11
370.2003373687338
 21
387.1
 31
0.0
  0
LINE
  5
9A
330
26
100
AcDbEntity
  8
0
 62
     0
100
AcDbLine
 10
117.3244788386777
 20
387.2
 30
0.0
 11
117.6679070250964
 21
387.2
 31
0.0
  0
LINE
  5
9B
330
26
100
AcDbEntity
  8
0
 62
     0
100
AcDbLine
 10
369.7443499610538
 20
387.2
 30
0.0
 11
370.0889122121773
 21
387.2
 31
0.0
  0
LINE
  5
9C
330
26
100
AcDbEntity
  8
0
 62
     0
100
AcDbLine
 10
117.446706983258
 20
387.3
 30
0.0
 11
117.6295718439255
 21
387.3
 31
0.0
  0
LINE
  5
9D
330
26
100
AcDbEntity
  8
0
 62
     0
100
AcDbLine
 10
369.7826851422247
 20
387.3
 30
0.0
 11
369.9664102964645
 21
387.3
 31
0.0
  0
LINE
  5
9E
330
26
100
AcDbEntity
  8
0
 62
     0
100
AcDbLine
 10
117.5820688476904
 20
387.4
 30
0.0
 11
117.5912366627546
 21
387.4
 31
0.0
  0
LINE
  5
9F
330
26
100
AcDbEntity
  8
0
 62
     0
100
AcDbLine
 10
369.8210203233956
 20
387.4
 30
0.0
 11
369.8306702943778
 21
387.4
 31
0.0
  0
LINE
  5
A0
330
26
100
AcDbEntity
  8
0
 62
     0
100
AcDbLine
 10
116.1986946050902
 20
384.3
 30
0.0
 11
118.7061284930751
 21
384.3
 31
0.0
  0
LINE
  5
A1
330
26
100
AcDbEntity
  8
0
 62
     0
100
AcDbLine
 10
368.7061284930753
 20
384.3
 30
0.0
 11
371.2127074070362
 21
384.3
 31
0.0
  0
LINE
  5
A2
330
26
100
AcDbEntity
  8
0
 62
     0
100
AcDbLine
 10
116.2123652903688
 20
384.2
 30
0.0
 11
118.7061284930751
 21
384.2
 31
0.0
  0
LINE
  5
A3
330
26
100
AcDbEntity
  8
0
 62
     0
100
AcDbLine
 10
368.7061284930753
 20
384.2
 30
0.0
 11
371.1988091247759
 21
384.2
 31
0.0
  0
LINE
  5
A4
330
26
100
AcDbEntity
  8
0
 62
     0
100
AcDbLine
 10
116.2291734872483
 20
384.1
 30
0.0
 11
118.7061284930751
 21
384.1
 31
0.0
  0
LINE
  5
A5
330
26
100
AcDbEntity
  8
0
 62
     0
100
AcDbLine
 10
368.7061284930753
 20
384.1
 30
0.0
 11
371.1817599852631
 21
384.1
 31
0.0
  0
LINE
  5
A6
330
26
100
AcDbEntity
  8
0
 62
     0
100
AcDbLine
 10
116.2491682483492
 20
384.0
 30
0.0
 11
118.7061284930751
 21
384.0
 31
0.0
  0
LINE
  5
A7
330
26
100
AcDbEntity
  8
0
 62
     0
100
AcDbLine
 10
368.7061284930753
 20
384.0
 30
0.0
 11
371.1615098341259
 21
384.0
 31
0.0
  0
LINE
  5
A8
330
26
100
AcDbEntity
  8
0
 62
     0
100
AcDbLine
 10
116.2724092682295
 20
383.9
 30
0.0
 11
118.7061284930751
 21
383.9
 31
0.0
  0
LINE
  5
A9
330
26
100
AcDbEntity
  8
0
 62
     0
100
AcDbLine
 10
368.7061284930753
 20
383.9
 30
0.0
 11
371.1379977061774
 21
383.9
 31
0.0
  0
LINE
  5
AA
330
26
100
AcDbEntity
  8
0
 62
     0
100
AcDbLine
 10
116.2989678240776
 20
383.8
 30
0.0
 11
118.7061284930751
 21
383.8
 31
0.0
  0
LINE
  5
AB
330
26
100
AcDbEntity
  8
0
 62
     0
100
AcDbLine
 10
368.7061284930753
 20
383.8
 30
0.0
 11
371.1111508554109
 21
383.8
 31
0.0
  0
LINE
  5
AC
330
26
100
AcDbEntity
  8
0
 62
     0
100
AcDbLine
 10
116.3289279486106
 20
383.7000000000001
 30
0.0
 11
118.7061284930751
 21
383.7000000000001
 31
0.0
  0
LINE
  5
AD
330
26
100
AcDbEntity
  8
0
 62
     0
100
AcDbLine
 10
368.7061284930753
 20
383.7000000000001
 30
0.0
 11
371.0808835455673
 21
383.7000000000001
 31
0.0
  0
LINE
  5
AE
330
26
100
AcDbEntity
  8
0
 62
     0
100
AcDbLine
 10
116.3623878832537
 20
383.6
 30
0.0
 11
118.7061284930751
 21
383.6
 31
0.0
  0
LINE
  5
AF
330
26
100
AcDbEntity
  8
0
 62
     0
100
AcDbLine
 10
368.7061284930753
 20
383.6
 30
0.0
 11
371.0470955511289
 21
383.6
 31
0.0
  0
LINE
  5
B0
330
26
100
AcDbEntity
  8
0
 62
     0
100
AcDbLine
 10
116.3994618750668
 20
383.5
 30
0.0
 11
118.7061284930751
 21
383.5
 31
0.0
  0
LINE
  5
B1
330
26
100
AcDbEntity
  8
0
 62
     0
100
AcDbLine
 10
368.7061284930753
 20
383.5
 30
0.0
 11
371.0096703024652
 21
383.5
 31
0.0
  0
LINE
  5
B2
330
26
100
AcDbEntity
  8
0
 62
     0
100
AcDbLine
 10
116.4402824016257
 20
383.4000000000001
 30
0.0
 11
118.7061284930751
 21
383.4000000000001
 31
0.0
  0
LINE
  5
B3
330
26
100
AcDbEntity
  8
0
 62
     0
100
AcDbLine
 10
368.7061284930753
 20
383.4000000000001
 30
0.0
 11
370.9684725870677
 21
383.4000000000001
 31
0.0
  0
LINE
  5
B4
330
26
100
AcDbEntity
  8
0
 62
     0
100
AcDbLine
 10
116.4850029364631
 20
383.3
 30
0.0
 11
118.7061284930751
 21
383.3
 31
0.0
  0
LINE
  5
B5
330
26
100
AcDbEntity
  8
0
 62
     0
100
AcDbLine
 10
368.7061284930753
 20
383.3
 30
0.0
 11
370.9233456888934
 21
383.3
 31
0.0
  0
LINE
  5
B6
330
26
100
AcDbEntity
  8
0
 62
     0
100
AcDbLine
 10
116.5338014072462
 20
383.2000000000001
 30
0.0
 11
118.7061284930751
 21
383.2000000000001
 31
0.0
  0
LINE
  5
B7
330
26
100
AcDbEntity
  8
0
 62
     0
100
AcDbLine
 10
368.7061284930753
 20
383.2000000000001
 30
0.0
 11
370.8741078060547
 21
383.2000000000001
 31
0.0
  0
LINE
  5
B8
330
26
100
AcDbEntity
  8
0
 62
     0
100
AcDbLine
 10
116.5868845549571
 20
383.1
 30
0.0
 11
118.7061284930751
 21
383.1
 31
0.0
  0
LINE
  5
B9
330
26
100
AcDbEntity
  8
0
 62
     0
100
AcDbLine
 10
368.7061284930753
 20
383.1
 30
0.0
 11
370.8205475276793
 21
383.1
 31
0.0
  0
LINE
  5
BA
330
26
100
AcDbEntity
  8
0
 62
     0
100
AcDbLine
 10
116.6444934833406
 20
383.0
 30
0.0
 11
118.7061284930751
 21
383.0
 31
0.0
  0
LINE
  5
BB
330
26
100
AcDbEntity
  8
0
 62
     0
100
AcDbLine
 10
368.7061284930753
 20
383.0
 30
0.0
 11
370.7624180647178
 21
383.0
 31
0.0
  0
LINE
  5
BC
330
26
100
AcDbEntity
  8
0
 62
     0
100
AcDbLine
 10
116.7069108072318
 20
382.9
 30
0.0
 11
118.7061284930751
 21
382.9
 31
0.0
  0
LINE
  5
BD
330
26
100
AcDbEntity
  8
0
 62
     0
100
AcDbLine
 10
368.7061284930753
 20
382.9
 30
0.0
 11
370.6994298022362
 21
382.9
 31
0.0
  0
LINE
  5
BE
330
26
100
AcDbEntity
  8
0
 62
     0
100
AcDbLine
 10
116.7744699881534
 20
382.8
 30
0.0
 11
118.7061284930751
 21
382.8
 31
0.0
  0
LINE
  5
BF
330
26
100
AcDbEntity
  8
0
 62
     0
100
AcDbLine
 10
368.7061284930753
 20
382.8
 30
0.0
 11
370.6312405483473
 21
382.8
 31
0.0
  0
LINE
  5
C0
330
26
100
AcDbEntity
  8
0
 62
     0
100
AcDbLine
 10
116.8475677231093
 20
382.7
 30
0.0
 11
118.7061284930751
 21
382.7
 31
0.0
  0
LINE
  5
C1
330
26
100
AcDbEntity
  8
0
 62
     0
100
AcDbLine
 10
368.7061284930753
 20
382.7
 30
0.0
 11
370.5574425566492
 21
382.7
 31
0.0
  0
LINE
  5
C2
330
26
100
AcDbEntity
  8
0
 62
     0
100
AcDbLine
 10
116.9266806929956
 20
382.6
 30
0.0
 11
118.7061284930751
 21
382.6
 31
0.0
  0
LINE
  5
C3
330
26
100
AcDbEntity
  8
0
 62
     0
100
AcDbLine
 10
368.7061284930753
 20
382.6
 30
0.0
 11
370.4775449233244
 21
382.6
 31
0.0
  0
LINE
  5
C4
330
26
100
AcDbEntity
  8
0
 62
     0
100
AcDbLine
 10
117.0123886984432
 20
382.5
 30
0.0
 11
118.7061284930751
 21
382.5
 31
0.0
  0
LINE
  5
C5
330
26
100
AcDbEntity
  8
0
 62
     0
100
AcDbLine
 10
368.7061284930753
 20
382.5
 30
0.0
 11
370.3909491766375
 21
382.5
 31
0.0
  0
LINE
  5
C6
330
26
100
AcDbEntity
  8
0
 62
     0
100
AcDbLine
 10
117.1054074357126
 20
382.4
 30
0.0
 11
118.7061284930751
 21
382.4
 31
0.0
  0
LINE
  5
C7
330
26
100
AcDbEntity
  8
0
 62
     0
100
AcDbLine
 10
368.7061284930753
 20
382.4
 30
0.0
 11
370.2969145379188
 21
382.4
 31
0.0
  0
LINE
  5
C8
330
26
100
AcDbEntity
  8
0
 62
     0
100
AcDbLine
 10
117.2066363336662
 20
382.3
 30
0.0
 11
118.7061284930751
 21
382.3
 31
0.0
  0
LINE
  5
C9
330
26
100
AcDbEntity
  8
0
 62
     0
100
AcDbLine
 10
368.7061284930753
 20
382.3
 30
0.0
 11
370.194506945325
 21
382.3
 31
0.0
  0
LINE
  5
CA
330
26
100
AcDbEntity
  8
0
 62
     0
100
AcDbLine
 10
117.3172309057844
 20
382.2
 30
0.0
 11
118.7061284930751
 21
382.2
 31
0.0
  0
LINE
  5
CB
330
26
100
AcDbEntity
  8
0
 62
     0
100
AcDbLine
 10
368.7061284930753
 20
382.2
 30
0.0
 11
370.0825214509357
 21
382.2
 31
0.0
  0
LINE
  5
CC
330
26
100
AcDbEntity
  8
0
 62
     0
100
AcDbLine
 10
117.4387170279401
 20
382.1
 30
0.0
 11
118.7061284930751
 21
382.1
 31
0.0
  0
LINE
  5
CD
330
26
100
AcDbEntity
  8
0
 62
     0
100
AcDbLine
 10
368.7061284930753
 20
382.1
 30
0.0
 11
369.9593586656827
 21
382.1
 31
0.0
  0
LINE
  5
CE
330
26
100
AcDbEntity
  8
0
 62
     0
100
AcDbLine
 10
117.5731814246936
 20
382.0
 30
0.0
 11
118.7061284930751
 21
382.0
 31
0.0
  0
LINE
  5
CF
330
26
100
AcDbEntity
  8
0
 62
     0
100
AcDbLine
 10
368.7061284930753
 20
382.0
 30
0.0
 11
369.8228167230904
 21
382.0
 31
0.0
  0
LINE
  5
D0
330
26
100
AcDbEntity
  8
0
 62
     0
100
AcDbLine
 10
117.7236118109579
 20
381.9
 30
0.0
 11
118.7061284930751
 21
381.9
 31
0.0
  0
LINE
  5
D1
330
26
100
AcDbEntity
  8
0
 62
     0
100
AcDbLine
 10
368.7061284930753
 20
381.9
 30
0.0
 11
369.6697148895741
 21
381.9
 31
0.0
  0
LINE
  5
D2
330
26
100
AcDbEntity
  8
0
 62
     0
100
AcDbLine
 10
117.8945623866084
 20
381.8
 30
0.0
 11
118.7061284930751
 21
381.8
 31
0.0
  0
LINE
  5
D3
330
26
100
AcDbEntity
  8
0
 62
     0
100
AcDbLine
 10
368.7061284930753
 20
381.8
 30
0.0
 11
369.4951438424973
 21
381.8
 31
0.0
  0
LINE
  5
D4
330
26
100
AcDbEntity
  8
0
 62
     0
100
AcDbLine
 10
118.093633900713
 20
381.7000000000001
 30
0.0
 11
118.7061284930751
 21
381.7000000000001
 31
0.0
  0
LINE
  5
D5
330
26
100
AcDbEntity
  8
0
 62
     0
100
AcDbLine
 10
368.7061284930753
 20
381.7000000000001
 30
0.0
 11
369.290754112332
 21
381.7000000000001
 31
0.0
  0
LINE
  5
D6
330
26
100
AcDbEntity
  8
0
 62
     0
100
AcDbLine
 10
118.3354777155103
 20
381.6
 30
0.0
 11
118.7061284930751
 21
381.6
 31
0.0
  0
LINE
  5
D7
330
26
100
AcDbEntity
  8
0
 62
     0
100
AcDbLine
 10
368.7061284930753
 20
381.6
 30
0.0
 11
369.0399231142881
 21
381.6
 31
0.0
  0
LINE
  5
D8
330
26
100
AcDbEntity
  8
0
 62
     0
100
AcDbLine
 10
118.6572253320774
 20
381.5
 30
0.0
 11
118.7061284930751
 21
381.5
 31
0.0
  0
ENDBLK
  5
D9
330
26
100
AcDbEntity
  8
0
100
AcDbBlockEnd
  0
BLOCK
  5
131
330
2C
100
AcDbEntity
  8
0
100
AcDbBlockBegin
  2
*D6
 70
     1
 10
0.0
 20
0.0
 30
0.0
  3
*D6
  1

  0
LINE
  5
132
330
2C
100
AcDbEntity
  8
0
  6
ByBlock
 62
     0
100
AcDbLine
 10
105.2061284930754
 20
484.4902806572808
 30
0.0
 11
89.87444122063395
 21
484.4902806572808
 31
0.0
  0
LINE
  5
133
330
2C
100
AcDbEntity
  8
0
  6
ByBlock
 62
     0
100
AcDbLine
 10
105.4455606111177
 20
414.4902806572808
 30
0.0
 11
89.87444122063395
 21
414.4902806572808
 31
0.0
  0
LINE
  5
134
330
2C
100
AcDbEntity
  8
0
  6
ByBlock
 62
     0
100
AcDbLine
 10
91.87444122063395
 20
477.4902806572809
 30
0.0
 11
91.87444122063395
 21
421.4902806572808
 31
0.0
  0
SOLID
  5
135
330
2C
100
AcDbEntity
  8
0
  6
ByBlock
 62
     0
100
AcDbTrace
 10
90.70777455396727
 20
477.4902806572809
 30
0.0
 11
93.04110788730062
 21
477.4902806572809
 31
0.0
 12
91.87444122063395
 22
484.4902806572808
 32
0.0
 13
91.87444122063395
 23
484.4902806572808
 33
0.0
  0
SOLID
  5
136
330
2C
100
AcDbEntity
  8
0
  6
ByBlock
 62
     0
100
AcDbTrace
 10
90.70777455396727
 20
421.4902806572808
 30
0.0
 11
93.04110788730062
 21
421.4902806572808
 31
0.0
 12
91.87444122063395
 22
414.4902806572808
 32
0.0
 13
91.87444122063395
 23
414.4902806572808
 33
0.0
  0
TEXT
  5
137
330
2C
100
AcDbEntity
  8
0
  6
ByBlock
 62
     1
100
AcDbText
 10
88.37444122063395
 20
436.0236139906142
 30
0.0
 40
7.0
  1
min.70
 50
90.0
 41
0.8
  7
GREEKS
 72
     1
 11
84.87444122063395
 21
449.4902806572809
 31
0.0
100
AcDbText
 73
     2
  0
POINT
  5
138
330
2C
100
AcDbEntity
  8
DEFPOINTS
  6
ByBlock
 62
     0
100
AcDbPoint
 10
107.2061284930754
 20
484.4902806572808
 30
0.0
  0
POINT
  5
139
330
2C
100
AcDbEntity
  8
DEFPOINTS
  6
ByBlock
 62
     0
100
AcDbPoint
 10
107.4455606111177
 20
414.4902806572808
 30
0.0
  0
POINT
  5
13A
330
2C
100
AcDbEntity
  8
DEFPOINTS
  6
ByBlock
 62
     0
100
AcDbPoint
 10
91.87444122063395
 20
414.4902806572808
 30
0.0
  0
ENDBLK
  5
13B
330
2C
100
AcDbEntity
  8
0
100
AcDbBlockEnd
  0
BLOCK
  5
1F2
330
1E8
100
AcDbEntity
  8
0
100
AcDbBlockBegin
  2
*D7
 70
     1
 10
0.0
 20
0.0
 30
0.0
  3
*D7
  1

  0
LINE
  5
2E0
330
1E8
100
AcDbEntity
  8
BEM
 62
     0
370
    -2
100
AcDbLine
 10
118.7061284930752
 20
232.4917267213361
 30
0.0
 11
118.7061284930752
 21
197.8270820393564
 31
0.0
  0
LINE
  5
2E1
330
1E8
100
AcDbEntity
  8
BEM
 62
     0
370
    -2
100
AcDbLine
 10
368.7061284930754
 20
232.4917267213387
 30
0.0
 11
368.7061284930754
 21
197.8270820393564
 31
0.0
  0
LINE
  5
2E2
330
1E8
100
AcDbEntity
  8
BEM
 62
     0
370
    -2
100
AcDbLine
 10
125.7061284930752
 20
199.8270820393564
 30
0.0
 11
361.7061284930754
 21
199.8270820393564
 31
0.0
  0
SOLID
  5
2E3
330
1E8
100
AcDbEntity
  8
BEM
 62
     0
100
AcDbTrace
 10
125.7061284930752
 20
200.993748706023
 30
0.0
 11
125.7061284930752
 21
198.6604153726897
 31
0.0
 12
118.7061284930752
 22
199.8270820393564
 32
0.0
 13
118.7061284930752
 23
199.8270820393564
 33
0.0
  0
SOLID
  5
2E4
330
1E8
100
AcDbEntity
  8
BEM
 62
     0
100
AcDbTrace
 10
361.7061284930754
 20
200.993748706023
 30
0.0
 11
361.7061284930754
 21
198.6604153726897
 31
0.0
 12
368.7061284930754
 22
199.8270820393564
 32
0.0
 13
368.7061284930754
 23
199.8270820393564
 33
0.0
  0
MTEXT
  5
2E5
330
1E8
100
AcDbEntity
  8
BEM
 62
     1
100
AcDbMText
 10
243.7061284930753
 20
206.3270820393564
 30
0.0
 40
7.0
 41
0.0
 71
     5
 72
     1
  1
\A1;%%c250
  7
GREEKS
 73
     1
 44
1.0
  0
POINT
  5
2E6
330
1E8
100
AcDbEntity
  8
DEFPOINTS
 62
     0
100
AcDbPoint
 10
118.7061284930752
 20
234.4917267213361
 30
0.0
  0
POINT
  5
2E7
330
1E8
100
AcDbEntity
  8
DEFPOINTS
 62
     0
100
AcDbPoint
 10
368.7061284930754
 20
234.4917267213387
 30
0.0
  0
POINT
  5
2E8
330
1E8
100
AcDbEntity
  8
DEFPOINTS
 62
     0
100
AcDbPoint
 10
368.7061284930754
 20
199.8270820393564
 30
0.0
  0
ENDBLK
  5
1F3
330
1E8
100
AcDbEntity
  8
0
100
AcDbBlockEnd
  0
BLOCK
  5
210
330
206
100
AcDbEntity
  8
0
100
AcDbBlockBegin
  2
*D8
 70
     1
 10
0.0
 20
0.0
 30
0.0
  3
*D8
  1

  0
LINE
  5
2C9
330
206
100
AcDbEntity
  8
BEM
 62
     0
370
    -2
100
AcDbLine
 10
105.2061284930754
 20
484.4902806572808
 30
0.0
 11
74.38203101441195
 21
484.4902806572808
 31
0.0
  0
LINE
  5
2CA
330
206
100
AcDbEntity
  8
BEM
 62
     0
370
    -2
100
AcDbLine
 10
118.4693983001595
 20
224.4917267213385
 30
0.0
 11
74.38203101441189
 21
224.4917267213385
 31
0.0
  0
LINE
  5
2CB
330
206
100
AcDbEntity
  8
BEM
 62
     0
370
    -2
100
AcDbLine
 10
76.38203101441193
 20
477.4902806572809
 30
0.0
 11
76.38203101441189
 21
231.4917267213385
 31
0.0
  0
SOLID
  5
2CC
330
206
100
AcDbEntity
  8
BEM
 62
     0
100
AcDbTrace
 10
75.21536434774526
 20
477.4902806572809
 30
0.0
 11
77.54869768107861
 21
477.4902806572809
 31
0.0
 12
76.38203101441195
 22
484.4902806572808
 32
0.0
 13
76.38203101441195
 23
484.4902806572808
 33
0.0
  0
SOLID
  5
2CD
330
206
100
AcDbEntity
  8
BEM
 62
     0
100
AcDbTrace
 10
75.21536434774522
 20
231.4917267213385
 30
0.0
 11
77.54869768107856
 21
231.4917267213385
 31
0.0
 12
76.38203101441189
 22
224.4917267213385
 32
0.0
 13
76.38203101441189
 23
224.4917267213385
 33
0.0
  0
MTEXT
  5
2CE
330
206
100
AcDbEntity
  8
BEM
 62
     1
100
AcDbMText
 10
69.88203101441186
 20
354.4910036893097
 30
0.0
 40
7.0
 41
0.0
 71
     5
 72
     1
  1
\A1;260
  7
GREEKS
 11
0.0000000000000001
 21
1.0
 31
0.0
 73
     1
 44
1.0
  0
POINT
  5
2CF
330
206
100
AcDbEntity
  8
DEFPOINTS
 62
     0
100
AcDbPoint
 10
107.2061284930754
 20
484.4902806572808
 30
0.0
  0
POINT
  5
2D0
330
206
100
AcDbEntity
  8
DEFPOINTS
 62
     0
100
AcDbPoint
 10
120.4693983001595
 20
224.4917267213385
 30
0.0
  0
POINT
  5
2D1
330
206
100
AcDbEntity
  8
DEFPOINTS
 62
     0
100
AcDbPoint
 10
76.38203101441189
 20
224.4917267213385
 30
0.0
  0
ENDBLK
  5
211
330
206
100
AcDbEntity
  8
0
100
AcDbBlockEnd
  0
BLOCK
  5
2DC
330
2D2
100
AcDbEntity
  8
0
100
AcDbBlockBegin
  2
*D11
 70
     1
 10
0.0
 20
0.0
 30
0.0
  3
*D11
  1

  0
LINE
  5
2D3
330
2D2
100
AcDbEntity
  8
BEM
 62
     0
370
    -2
100
AcDbLine
 10
380.2061284930753
 20
486.4902806572807
 30
0.0
 11
380.2061284930753
 21
504.1495349734048
 31
0.0
  0
LINE
  5
2D4
330
2D2
100
AcDbEntity
  8
BEM
 62
     0
370
    -2
100
AcDbLine
 10
107.2061284930754
 20
486.4902806572809
 30
0.0
 11
107.2061284930754
 21
504.1495349734048
 31
0.0
  0
LINE
  5
2D5
330
2D2
100
AcDbEntity
  8
BEM
 62
     0
370
    -2
100
AcDbLine
 10
373.2061284930753
 20
502.1495349734047
 30
0.0
 11
114.2061284930753
 21
502.1495349734047
 31
0.0
  0
SOLID
  5
2D6
330
2D2
100
AcDbEntity
  8
BEM
 62
     0
100
AcDbTrace
 10
373.2061284930753
 20
503.3162016400715
 30
0.0
 11
373.2061284930753
 21
500.9828683067381
 31
0.0
 12
380.2061284930753
 22
502.1495349734047
 32
0.0
 13
380.2061284930753
 23
502.1495349734047
 33
0.0
  0
SOLID
  5
2D7
330
2D2
100
AcDbEntity
  8
BEM
 62
     0
100
AcDbTrace
 10
114.2061284930753
 20
503.3162016400715
 30
0.0
 11
114.2061284930753
 21
500.9828683067381
 31
0.0
 12
107.2061284930754
 22
502.1495349734047
 32
0.0
 13
107.2061284930754
 23
502.1495349734047
 33
0.0
  0
MTEXT
  5
2D8
330
2D2
100
AcDbEntity
  8
BEM
 62
     1
100
AcDbMText
 10
243.7061284930754
 20
508.6495349734048
 30
0.0
 40
7.0
 41
0.0
 71
     5
 72
     1
  1
\A1;%%c273
  7
GREEKS
 73
     1
 44
1.0
  0
POINT
  5
2D9
330
2D2
100
AcDbEntity
  8
DEFPOINTS
 62
     0
100
AcDbPoint
 10
380.2061284930753
 20
484.4902806572807
 30
0.0
  0
POINT
  5
2DA
330
2D2
100
AcDbEntity
  8
DEFPOINTS
 62
     0
100
AcDbPoint
 10
107.2061284930754
 20
484.4902806572808
 30
0.0
  0
POINT
  5
2DB
330
2D2
100
AcDbEntity
  8
DEFPOINTS
 62
     0
100
AcDbPoint
 10
107.2061284930754
 20
502.1495349734047
 30
0.0
  0
ENDBLK
  5
2DD
330
2D2
100
AcDbEntity
  8
0
100
AcDbBlockEnd
  0
ENDSEC
  0
SECTION
  2
ENTITIES
  0
LINE
  5
15E
330
20
100
AcDbEntity
  8
STEMPEL
  6
Continuous
100
AcDbLine
 10
118.7061284930751
 20
384.4917267213385
 30
0.0
 11
368.7061284930752
 21
384.4917267213387
 31
0.0
  0
LINE
  5
15F
330
20
100
AcDbEntity
  8
STEMPEL
100
AcDbLine
 10
380.2061284930753
 20
484.4902806572807
 30
0.0
 11
107.2061284930754
 21
484.4902806572808
 31
0.0
  0
DIMENSION
  5
160
330
20
100
AcDbEntity
  8
BEM
100
AcDbDimension
  2
*D11
 10
107.2061284930754
 20
502.1495349734047
 30
0.0
 11
243.7061284930754
 21
508.6495349734048
 31
0.0
 70
    32
  1
%%c<>
 71
     5
 42
272.9999999999999
  3
Standard
100
AcDbAlignedDimension
 13
380.2061284930753
 23
484.4902806572807
 33
0.0
 14
107.2061284930754
 24
484.4902806572808
 34
0.0
 50
180.0
100
AcDbRotatedDimension
  0
LINE
  5
161
330
20
100
AcDbEntity
  8
HILF
100
AcDbLine
 10
419.9999999999999
 20
594.0000000000002
 30
0.0
 11
0.0
 21
594.0
 31
0.0
  0
LINE
  5
162
330
20
100
AcDbEntity
  8
STEMPEL
100
AcDbLine
 10
410.0
 20
584.0
 30
0.0
 11
39.99999999999989
 21
584.0
 31
0.0
  0
TEXT
  5
163
330
20
100
AcDbEntity
  8
TEXT
 62
     1
100
AcDbText
 10
190.7787075758031
 20
116.0179198267417
 30
0.0
 40
7.0
  1

 41
0.8
  7
GREEKS
100
AcDbText
  0
TEXT
  5
164
330
20
100
AcDbEntity
  8
TEXT
 62
     1
100
AcDbText
 10
238.7787075758031
 20
128.0179198267417
 30
0.0
 40
7.0
  1
feuerverzinkt und innen beschichtet
 41
0.8
  7
GREEKS
100
AcDbText
  0
LINE
  5
165
330
20
100
AcDbEntity
  8
HILF
100
AcDbLine
 10
233.4909699289885
 20
14.89398258028314
 30
0.0
 11
404.8588839326728
 21
14.89398258028314
 31
0.0
  0
LINE
  5
166
330
20
100
AcDbEntity
  8
STEMPEL
100
AcDbLine
 10
410.0
 20
80.0
 30
0.0
 11
146.0000000000001
 21
79.99999999999994
 31
0.0
  0
LINE
  5
167
330
20
100
AcDbEntity
  8
STEMPEL
100
AcDbLine
 10
410.0
 20
40.0
 30
0.0
 11
146.0000000000001
 21
39.99999999999997
 31
0.0
  0
LINE
  5
168
330
20
100
AcDbEntity
  8
HILF
100
AcDbLine
 10
420.0
 20
0.0
 30
0.0
 11
0.0
 21
0.0
 31
0.0
  0
LINE
  5
169
330
20
100
AcDbEntity
  8
STEMPEL
100
AcDbLine
 10
410.0
 20
10.0
 30
0.0
 11
39.99999999999989
 21
10.0
 31
0.0
  0
LINE
  5
16A
330
20
100
AcDbEntity
  8
STEMPEL
100
AcDbLine
 10
49.99999999999989
 20
10.0
 30
0.0
 11
410.0
 21
10.0
 31
0.0
  0
LINE
  5
16B
330
20
100
AcDbEntity
  8
STEMPEL
100
AcDbLine
 10
410.0
 20
110.0
 30
0.0
 11
39.99999999999997
 21
110.0
 31
0.0
  0
LINE
  5
16D
330
20
100
AcDbEntity
  8
STEMPEL
100
AcDbLine
 10
107.2061284930748
 20
417.8719095439141
 30
0.0
 11
107.2061284930749
 21
484.4902806572808
 31
0.0
  0
LINE
  5
16E
330
20
100
AcDbEntity
  8
HILF
100
AcDbLine
 10
0.0
 20
0.0
 30
0.0
 11
-0.0000000000001137
 21
594.0
 31
0.0
  0
LINE
  5
16F
330
20
100
AcDbEntity
  8
STEMPEL
100
AcDbLine
 10
40.0
 20
10.0
 30
0.0
 11
39.99999999999989
 21
584.0
 31
0.0
  0
TEXT
  5
170
330
20
100
AcDbEntity
  8
TEXT
100
AcDbText
 10
41.85509950977674
 20
111.6719999999999
 30
0.0
 40
5.0
  1
Erstellt mit AUTOCAD 2004
 41
0.8
  7
GREEKS
100
AcDbText
  0
LINE
  5
171
330
20
100
AcDbEntity
  8
HILF
100
AcDbLine
 10
40.00000000000008
 20
39.99999999999997
 30
0.0
 11
146.0000000000001
 21
39.99999999999997
 31
0.0
  0
LINE
  5
172
330
20
100
AcDbEntity
  8
HILF
100
AcDbLine
 10
40.00000000000008
 20
49.99999999999997
 30
0.0
 11
146.0000000000001
 21
49.99999999999997
 31
0.0
  0
LINE
  5
173
330
20
100
AcDbEntity
  8
HILF
100
AcDbLine
 10
40.00000000000008
 20
59.99999999999998
 30
0.0
 11
146.0000000000001
 21
59.99999999999998
 31
0.0
  0
LINE
  5
174
330
20
100
AcDbEntity
  8
HILF
100
AcDbLine
 10
40.00000000000008
 20
69.99999999999994
 30
0.0
 11
146.0000000000001
 21
69.99999999999994
 31
0.0
  0
LINE
  5
175
330
20
100
AcDbEntity
  8
HILF
100
AcDbLine
 10
40.00000000000008
 20
79.99999999999994
 30
0.0
 11
146.0000000000001
 21
79.99999999999994
 31
0.0
  0
LINE
  5
176
330
20
100
AcDbEntity
  8
HILF
100
AcDbLine
 10
40.00000000000008
 20
90.00000000000005
 30
0.0
 11
146.0000000000001
 21
90.00000000000005
 31
0.0
  0
LINE
  5
177
330
20
100
AcDbEntity
  8
HILF
100
AcDbLine
 10
40.00000000000008
 20
100.0
 30
0.0
 11
146.0000000000001
 21
100.0
 31
0.0
  0
LINE
  5
178
330
20
100
AcDbEntity
  8
STEMPEL
100
AcDbLine
 10
145.9999999999999
 20
29.99999999999997
 30
0.0
 11
39.99999999999997
 21
29.99999999999997
 31
0.0
  0
LINE
  5
179
330
20
100
AcDbEntity
  8
VOLL
100
AcDbLine
 10
54.00000000000009
 20
110.0
 30
0.0
 11
53.99999999999998
 21
9.999999999999971
 31
0.0
  0
TEXT
  5
17A
330
20
100
AcDbEntity
  8
TEXT
100
AcDbText
 10
48.26641107045756
 20
13.65465846027192
 30
0.0
 40
4.0
  1
Index
 50
90.0
 41
0.8
  7
GREEKS
100
AcDbText
  0
TEXT
  5
17B
330
20
100
AcDbEntity
  8
TEXT
100
AcDbText
 10
234.9837501577827
 20
42.62974153022633
 30
0.0
 40
4.0
  1
00770250W.DWG
 41
0.8
  7
GREEKS
100
AcDbText
  0
LINE
  5
17C
330
20
100
AcDbEntity
  8
VOLL
100
AcDbLine
 10
164.0000000000001
 20
79.99999999999994
 30
0.0
 11
164.0000000000001
 21
39.99999999999997
 31
0.0
  0
TEXT
  5
17D
330
20
100
AcDbEntity
  8
TEXT
100
AcDbText
 10
147.6006777387303
 20
43.52946389649807
 30
0.0
 40
4.0
  1
Norm.
 41
0.8
  7
GREEKS
100
AcDbText
  0
LINE
  5
17E
330
20
100
AcDbEntity
  8
VOLL
100
AcDbLine
 10
124.0000000000001
 20
109.9999999999999
 30
0.0
 11
124.0
 21
9.999999999999971
 31
0.0
  0
LINE
  5
17F
330
20
100
AcDbEntity
  8
VOLL
100
AcDbLine
 10
104.0000000000001
 20
109.9999999999999
 30
0.0
 11
104.0
 21
9.999999999999971
 31
0.0
  0
LINE
  5
180
330
20
100
AcDbEntity
  8
STEMPEL
100
AcDbLine
 10
146.0000000000001
 20
109.9999999999999
 30
0.0
 11
146.0
 21
9.999999999999971
 31
0.0
  0
LINE
  5
181
330
20
100
AcDbEntity
  8
VOLL
100
AcDbLine
 10
190.0000000000001
 20
109.9999999999998
 30
0.0
 11
190.0
 21
39.99999999999997
 31
0.0
  0
LINE
  5
182
330
20
100
AcDbEntity
  8
STEMPEL
100
AcDbLine
 10
230.0
 20
110.0
 30
0.0
 11
230.0
 21
9.999999999999971
 31
0.0
  0
INSERT
  5
183
330
20
100
AcDbEntity
  8
STEMPEL
100
AcDbBlockReference
  2
LOGO
 10
150.9955485457794
 20
45.02105276448322
 30
0.0
 41
2.0
 42
2.0
 43
2.0
  0
TEXT
  5
184
330
20
100
AcDbEntity
  8
TEXT
100
AcDbText
 10
68.52009677381494
 20
18.67381894984132
 30
0.0
 40
4.0
  1
Änderung
 41
0.8
  7
GREEKS
 72
     1
 11
79.26295391667209
 21
18.67381894984132
 31
0.0
100
AcDbText
  0
TEXT
  5
185
330
20
100
AcDbEntity
  8
TEXT
100
AcDbText
 10
109.718347417259
 20
18.6715626933981
 30
0.0
 40
4.0
  1
Tag
 41
0.8
  7
GREEKS
 72
     1
 11
113.4516807505923
 21
18.6715626933981
 31
0.0
100
AcDbText
  0
TEXT
  5
186
330
20
100
AcDbEntity
  8
TEXT
100
AcDbText
 10
128.5285533302749
 20
18.59324216966408
 30
0.0
 40
4.0
  1
Name
 41
0.8
  7
GREEKS
 72
     1
 11
134.8523628540844
 21
18.59324216966408
 31
0.0
100
AcDbText
  0
TEXT
  5
187
330
20
100
AcDbEntity
  8
TEXT
100
AcDbText
 10
234.742238391136
 20
30.84560570193057
 30
0.0
 40
5.0
  1
Bauvorhaben
 41
0.8
  7
GREEKS
100
AcDbText
  0
TEXT
  5
188
330
20
100
AcDbEntity
  8
TEXT
 62
     1
100
AcDbText
 10
190.7787075758031
 20
140.0179198267417
 30
0.0
 40
7.0
  1
Werkstoff: EN 10219 S235
 41
0.8
  7
GREEKS
100
AcDbText
  0
LINE
  5
189
330
20
100
AcDbEntity
  8
HILF
100
AcDbLine
 10
146.0000000000001
 20
49.99999999999997
 30
0.0
 11
230.0
 21
49.99999999999997
 31
0.0
  0
LINE
  5
18A
330
20
100
AcDbEntity
  8
HILF
100
AcDbLine
 10
146.0000000000001
 20
59.99999999999998
 30
0.0
 11
230.0
 21
59.99999999999998
 31
0.0
  0
LINE
  5
18B
330
20
100
AcDbEntity
  8
HILF
100
AcDbLine
 10
146.0000000000001
 20
69.99999999999994
 30
0.0
 11
230.0
 21
69.99999999999994
 31
0.0
  0
TEXT
  5
18C
330
20
100
AcDbEntity
  8
TEXT
100
AcDbText
 10
153.5163572150377
 20
102.4620895087088
 30
0.0
 40
5.0
  1
Maßstab
 41
0.8
  7
GREEKS
100
AcDbText
  0
TEXT
  5
18D
330
20
100
AcDbEntity
  8
TEXT
100
AcDbText
 10
147.5515086571672
 20
53.68926291428377
 30
0.0
 40
4.0
  1
Gepr.
 41
0.8
  7
GREEKS
100
AcDbText
  0
TEXT
  5
18E
330
20
100
AcDbEntity
  8
TEXT
100
AcDbText
 10
148.622109822104
 20
73.14025471151666
 30
0.0
 40
4.0
  1
2011
 41
0.8
  7
GREEKS
100
AcDbText
  0
TEXT
  5
18F
330
20
100
AcDbEntity
  8
TEXT
100
AcDbText
 10
147.5836127167615
 20
63.62990369617964
 30
0.0
 40
4.0
  1
Gez.
 41
0.8
  7
GREEKS
100
AcDbText
  0
TEXT
  5
190
330
20
100
AcDbEntity
  8
TEXT
100
AcDbText
 10
172.331167315365
 20
73.31880501229926
 30
0.0
 40
4.0
  1
Tag
 41
0.8
  7
GREEKS
100
AcDbText
  0
TEXT
  5
191
330
20
100
AcDbEntity
  8
TEXT
100
AcDbText
 10
170.398997108236
 20
63.10765040825732
 30
0.0
 40
4.0
  1
06.04.
 41
0.8
  7
GREEKS
 72
     1
 11
177.4085209177599
 21
63.10765040825732
 31
0.0
100
AcDbText
  0
TEXT
  5
192
330
20
100
AcDbEntity
  8
TEXT
 62
     1
100
AcDbText
 10
160.5006306481887
 20
88.14901428913959
 30
0.0
 40
7.0
  1
1:2
 41
0.8
  7
GREEKS
100
AcDbText
  0
TEXT
  5
193
330
20
100
AcDbEntity
  8
TEXT
100
AcDbText
 10
235.1296391125315
 20
71.50334417585288
 30
0.0
 40
5.0
  1
von LX-Rohr DN250
 41
0.8
  7
GREEKS
100
AcDbText
  0
TEXT
  5
194
330
20
100
AcDbEntity
  8
TEXT
 62
     1
100
AcDbText
 10
234.8532061785107
 20
87.41748789253779
 30
0.0
 40
7.0
  1
Anschlußstück DN250
 41
0.8
  7
GREEKS
100
AcDbText
  0
TEXT
  5
195
330
20
100
AcDbEntity
  8
TEXT
100
AcDbText
 10
234.877940380901
 20
102.5489328011779
 30
0.0
 40
5.0
  1
Benennung
 41
0.8
  7
GREEKS
100
AcDbText
  0
TEXT
  5
196
330
20
100
AcDbEntity
  8
TEXT
100
AcDbText
 10
235.1296391125315
 20
51.64011943042159
 30
0.0
 40
5.0
  1
EDV-Art.Nr. 00770.250X
 41
0.8
  7
GREEKS
100
AcDbText
  0
LINE
  5
197
330
20
100
AcDbEntity
  8
HILF
100
AcDbLine
 10
234.7736801096948
 20
49.99999999999997
 30
0.0
 11
324.835391655631
 21
49.99999999999997
 31
0.0
  0
LINE
  5
198
330
20
100
AcDbEntity
  8
HILF
100
AcDbLine
 10
234.7736801096948
 20
59.99999999999998
 30
0.0
 11
324.835391655631
 21
59.99999999999998
 31
0.0
  0
LINE
  5
199
330
20
100
AcDbEntity
  8
HILF
100
AcDbLine
 10
234.7736801096948
 20
69.99999999999994
 30
0.0
 11
324.835391655631
 21
69.99999999999994
 31
0.0
  0
LINE
  5
19A
330
20
100
AcDbEntity
  8
HILF
100
AcDbLine
 10
234.7736801096948
 20
84.03758247564139
 30
0.0
 11
324.8353916556311
 21
84.03758247564139
 31
0.0
  0
TEXT
  5
19B
330
20
100
AcDbEntity
  8
TEXT
100
AcDbText
 10
194.2858954734051
 20
102.4184168434819
 30
0.0
 40
5.0
  1
Zul. Abw.
 41
0.8
  7
GREEKS
100
AcDbText
  0
TEXT
  5
19C
330
20
100
AcDbEntity
  8
TEXT
100
AcDbText
 10
202.4626584226295
 20
73.30961091915225
 30
0.0
 40
4.0
  1
Name
 41
0.8
  7
GREEKS
100
AcDbText
  0
TEXT
  5
19D
330
20
100
AcDbEntity
  8
TEXT
100
AcDbText
 10
204.4216048581257
 20
63.0896391972351
 30
0.0
 40
4.0
  1
Koeh
 41
0.8
  7
GREEKS
 72
     1
 11
209.6787477152686
 21
63.0896391972351
 31
0.0
100
AcDbText
  0
LINE
  5
19E
330
20
100
AcDbEntity
  8
HILF
100
AcDbLine
 10
31.08767135713856
 20
297.0
 30
0.0
 11
0.0000000000001137
 21
297.0
 31
0.0
  0
LINE
  5
19F
330
20
100
AcDbEntity
  8
MITTEL
100
AcDbLine
 10
243.7061284930751
 20
219.4917267213386
 30
0.0
 11
243.706128493075
 21
489.4902806572808
 31
0.0
  0
ARC
  5
1A0
330
20
100
AcDbEntity
  8
SCHRAFF
100
AcDbCircle
 10
119.4744095028049
 20
384.6968782361112
 30
0.0
 40
3.2996697448994
100
AcDbArc
 50
124.84107541422
 51
256.5359193461766
  0
ARC
  5
1A1
330
20
100
AcDbEntity
  8
SCHRAFF
100
AcDbCircle
 10
132.9837846597522
 20
384.4917267213385
 30
0.0
 40
3.98983484850948
100
AcDbArc
 50
311.2438286196605
 51
48.75617138033981
  0
ARC
  5
1A2
330
20
100
AcDbEntity
  8
SCHRAFF
100
AcDbCircle
 10
122.9837846597522
 20
384.4917267213385
 30
0.0
 40
3.98983484850948
100
AcDbArc
 50
311.2438286196605
 51
48.75617138033981
  0
ARC
  5
1A3
330
20
100
AcDbEntity
  8
SCHRAFF
100
AcDbCircle
 10
142.9837846597522
 20
384.4917267213385
 30
0.0
 40
3.98983484850948
100
AcDbArc
 50
311.2438286196605
 51
48.75617138033981
  0
ARC
  5
1A4
330
20
100
AcDbEntity
  8
SCHRAFF
100
AcDbCircle
 10
162.9837846597522
 20
384.4917267213385
 30
0.0
 40
3.98983484850948
100
AcDbArc
 50
311.2438286196605
 51
48.75617138033981
  0
ARC
  5
1A5
330
20
100
AcDbEntity
  8
SCHRAFF
100
AcDbCircle
 10
152.9837846597522
 20
384.4917267213385
 30
0.0
 40
3.98983484850948
100
AcDbArc
 50
311.2438286196605
 51
48.75617138033981
  0
ARC
  5
1A6
330
20
100
AcDbEntity
  8
SCHRAFF
100
AcDbCircle
 10
182.9837846597522
 20
384.4917267213385
 30
0.0
 40
3.98983484850948
100
AcDbArc
 50
311.2438286196605
 51
48.75617138033981
  0
ARC
  5
1A7
330
20
100
AcDbEntity
  8
SCHRAFF
100
AcDbCircle
 10
172.9837846597522
 20
384.4917267213385
 30
0.0
 40
3.98983484850948
100
AcDbArc
 50
311.2438286196605
 51
48.75617138033981
  0
ARC
  5
1A8
330
20
100
AcDbEntity
  8
SCHRAFF
100
AcDbCircle
 10
192.9837846597522
 20
384.4917267213385
 30
0.0
 40
3.98983484850948
100
AcDbArc
 50
311.2438286196605
 51
48.75617138033981
  0
ARC
  5
1A9
330
20
100
AcDbEntity
  8
SCHRAFF
100
AcDbCircle
 10
212.9837846597523
 20
384.4917267213385
 30
0.0
 40
3.98983484850948
100
AcDbArc
 50
311.2438286196605
 51
48.75617138033981
  0
ARC
  5
1AA
330
20
100
AcDbEntity
  8
SCHRAFF
100
AcDbCircle
 10
202.9837846597523
 20
384.4917267213385
 30
0.0
 40
3.98983484850948
100
AcDbArc
 50
311.2438286196605
 51
48.75617138033981
  0
ARC
  5
1AC
330
20
100
AcDbEntity
  8
SCHRAFF
100
AcDbCircle
 10
222.9837846597523
 20
384.4917267213385
 30
0.0
 40
3.98983484850948
100
AcDbArc
 50
311.2438286196605
 51
48.75617138033981
  0
ARC
  5
1AD
330
20
100
AcDbEntity
  8
SCHRAFF
100
AcDbCircle
 10
232.9837846597523
 20
384.4917267213385
 30
0.0
 40
3.98983484850948
100
AcDbArc
 50
311.2438286196605
 51
48.75617138033981
  0
LINE
  5
1AE
330
20
100
AcDbEntity
  8
STEMPEL
100
AcDbLine
 10
380.2061284930754
 20
417.8719095439141
 30
0.0
 11
380.2061284930753
 21
484.4902806572807
 31
0.0
  0
LINE
  5
1B0
330
20
100
AcDbEntity
  8
HILF
100
AcDbLine
 10
420.0
 20
-0.0000000000001137
 30
0.0
 11
419.9999999999999
 21
594.0
 31
0.0
  0
LINE
  5
1B1
330
20
100
AcDbEntity
  8
STEMPEL
100
AcDbLine
 10
410.0
 20
10.0
 30
0.0
 11
410.0
 21
584.0
 31
0.0
  0
LINE
  5
1B2
330
20
100
AcDbEntity
  8
STEMPEL
100
AcDbLine
 10
332.0
 20
109.9999999999997
 30
0.0
 11
332.0
 21
40.0
 31
0.0
  0
LINE
  5
1B3
330
20
100
AcDbEntity
  8
HILF
100
AcDbLine
 10
336.7238616296993
 20
83.77983636955827
 30
0.0
 11
404.8588839326728
 21
83.77983636955827
 31
0.0
  0
LINE
  5
1B4
330
20
100
AcDbEntity
  8
VOLL
100
AcDbLine
 10
332.0
 20
60.0
 30
0.0
 11
410.0
 21
60.0
 31
0.0
  0
TEXT
  5
1B5
330
20
100
AcDbEntity
  8
TEXT
100
AcDbText
 10
336.178754957634
 20
102.3132034537136
 30
0.0
 40
5.0
  1
Zeichnungs Nr.
 41
0.8
  7
GREEKS
100
AcDbText
  0
TEXT
  5
1B6
330
20
100
AcDbEntity
  8
TEXT
 62
     1
100
AcDbText
 10
343.247717454267
 20
88.14901428913959
 30
0.0
 40
7.0
  1
00770250W
 41
0.8
  7
GREEKS
 72
     1
 11
367.247717454267
 21
88.14901428913959
 31
0.0
100
AcDbText
  0
TEXT
  5
1B7
330
20
100
AcDbEntity
  8
TEXT
100
AcDbText
 10
336.7238616296993
 20
73.1811823709997
 30
0.0
 40
5.0
  1
Ersatz für:
 41
0.8
  7
GREEKS
100
AcDbText
  0
TEXT
  5
1B8
330
20
100
AcDbEntity
  8
TEXT
100
AcDbText
 10
337.2400861497006
 20
52.07416177878602
 30
0.0
 40
5.0
  1
ersetzt durch:
 41
0.8
  7
GREEKS
100
AcDbText
  0
ARC
  5
1B9
330
20
100
AcDbEntity
  8
SCHRAFF
100
AcDbCircle
 10
367.9482912869933
 20
384.7027319552655
 30
0.0
 40
3.289164883767873
100
AcDbArc
 50
283.320866313062
 51
55.25110956330568
  0
LINE
  5
1BA
330
20
100
AcDbEntity
  8
STEMPEL
  6
Continuous
100
AcDbLine
 10
120.4693983001595
 20
224.4917267213385
 30
0.0
 11
366.9428586859907
 21
224.4917267213387
 31
0.0
  0
LINE
  5
1BB
330
20
100
AcDbEntity
  8
STEMPEL
100
AcDbLine
 10
368.7061284930752
 20
384.4917267213387
 30
0.0
 11
368.7061284930754
 21
234.4917267213387
 31
0.0
  0
LINE
  5
1BC
330
20
100
AcDbEntity
  8
STEMPEL
100
AcDbLine
 10
118.7061284930751
 20
384.4917267213385
 30
0.0
 11
118.7061284930752
 21
234.4917267213361
 31
0.0
  0
DIMENSION
  5
1BE
330
20
100
AcDbEntity
  8
BEM
100
AcDbDimension
  2
*D7
 10
368.7061284930754
 20
199.8270820393564
 30
0.0
 11
243.7061284930753
 21
206.3270820393564
 31
0.0
 70
    32
  1
%%c<>
 71
     5
 42
250.0000000000001
  3
Standard
100
AcDbAlignedDimension
 13
118.7061284930752
 23
234.4917267213361
 33
0.0
 14
368.7061284930754
 24
234.4917267213387
 34
0.0
 50
180.0
100
AcDbRotatedDimension
1001
ACAD
1000
DSTYLE
1002
{
1070
    40
1040
2.0
1070
    41
1040
3.5
1070
    42
1040
1.0
1070
    43
1040
7.0
1070
    44
1040
1.0
1070
    47
1040
0.8
1070
    48
1040
0.8
1070
    73
1070
     0
1070
    74
1070
     0
1070
    77
1070
     1
1070
    78
1070
     8
1070
    79
1070
     2
1070
   140
1040
3.5
1070
   141
1040
1.5
1070
   146
1040
0.5
1070
   147
1040
1.5
1070
   172
1070
     1
1070
   178
1070
     1
1070
   179
1070
     2
1070
   271
1070
     2
1070
   272
1070
     2
1070
   284
1070
     8
1070
   285
1070
     8
1070
   286
1070
     8
1070
   340
1005
30
1002
}
  0
DIMENSION
  5
1C0
330
20
100
AcDbEntity
  8
BEM
100
AcDbDimension
  2
*D8
 10
76.38203101441189
 20
224.4917267213385
 30
0.0
 11
69.88203101441186
 21
354.4910036893097
 31
0.0
 70
    32
 71
     5
 42
259.9985539359424
  3
Standard
100
AcDbAlignedDimension
 13
107.2061284930754
 23
484.4902806572808
 33
0.0
 14
120.4693983001595
 24
224.4917267213385
 34
0.0
 50
90.0
100
AcDbRotatedDimension
1001
ACAD
1000
DSTYLE
1002
{
1070
    40
1040
2.0
1070
    41
1040
3.5
1070
    42
1040
1.0
1070
    43
1040
7.0
1070
    44
1040
1.0
1070
    47
1040
0.8
1070
    48
1040
0.8
1070
    73
1070
     0
1070
    74
1070
     0
1070
    77
1070
     1
1070
    78
1070
     8
1070
    79
1070
     2
1070
   140
1040
3.5
1070
   141
1040
1.5
1070
   146
1040
0.5
1070
   147
1040
1.5
1070
   172
1070
     1
1070
   178
1070
     1
1070
   179
1070
     2
1070
   271
1070
     2
1070
   272
1070
     2
1070
   284
1070
     8
1070
   285
1070
     8
1070
   286
1070
     8
1070
   340
1005
30
1002
}
  0
INSERT
  5
1CB
330
20
100
AcDbEntity
  8
SCHRAFF
100
AcDbBlockReference
  2
*X1
 10
0.0
 20
0.0
 30
0.0
1001
ACAD
1000
HATCH
1002
{
1070
    16
1000
_U,I
1040
0.1
1040
0.0
1070
     0
1002
}
  0
LINE
  5
1D1
330
20
100
AcDbEntity
  8
STEMPEL
  6
Continuous
100
AcDbLine
 10
118.7061284930752
 20
234.4917267213385
 30
0.0
 11
368.7061284930754
 21
234.4917267213387
 31
0.0
  0
LINE
  5
1D2
330
20
100
AcDbEntity
  8
STEMPEL
100
AcDbLine
 10
368.7061284930754
 20
234.4917267213387
 30
0.0
 11
366.9428586859907
 21
224.4917267213387
 31
0.0
  0
LINE
  5
1D3
330
20
100
AcDbEntity
  8
STEMPEL
100
AcDbLine
 10
118.7061284930752
 20
234.4917267213361
 30
0.0
 11
120.4693983001595
 21
224.4917267213385
 31
0.0
  0
LINE
  5
1D5
330
20
100
AcDbEntity
  8
HILF
100
AcDbLine
 10
375.9181701446418
 20
414.4902806572806
 30
0.0
 11
111.4940868415084
 21
414.4902806572808
 31
0.0
  0
LINE
  5
1D6
330
20
100
AcDbEntity
  8
STEMPEL
100
AcDbLine
 10
368.7061284930752
 20
384.4917267213387
 30
0.0
 11
379.2717281224499
 21
411.2403099075217
 31
0.0
  0
ARC
  5
1D8
330
20
100
AcDbEntity
  8
STEMPEL
100
AcDbCircle
 10
356.2061284930754
 20
417.871909543914
 30
0.0
 40
24.0
100
AcDbArc
 50
343.9595066315789
 51
0.0000000000000891
  0
LINE
  5
1DA
330
20
100
AcDbEntity
  8
STEMPEL
100
AcDbLine
 10
118.7061284930749
 20
384.4917267213388
 30
0.0
 11
108.1405288637002
 21
411.2403099075218
 31
0.0
  0
ARC
  5
1DB
330
20
100
AcDbEntity
  8
STEMPEL
100
AcDbCircle
 10
131.2061284930747
 20
417.8719095439141
 30
0.0
 40
24.0
100
AcDbArc
 50
179.9999999999998
 51
196.040493368421
  0
DIMENSION
  5
1DC
330
20
100
AcDbEntity
  8
BEM
100
AcDbDimension
  2
*D6
 10
91.87444122063395
 20
414.4902806572808
 30
0.0
 11
84.87444122063395
 21
449.4902806572809
 31
0.0
  1
min.70
 71
     5
 42
-1.0
100
AcDbAlignedDimension
 13
107.2061284930754
 23
484.4902806572808
 33
0.0
 14
107.4455606111177
 24
414.4902806572808
 34
0.0
 50
90.0
100
AcDbRotatedDimension
  0
TEXT
  5
1E2
330
20
100
AcDbEntity
  8
TEXT
100
AcDbText
 10
235.1296391125315
 20
61.50334417585292
 30
0.0
 40
5.0
  1
an KA-Muffe DN250
 41
0.8
  7
GREEKS
100
AcDbText
  0
TEXT
  5
1E3
330
20
100
AcDbEntity
  8
TEXT
 62
     1
100
AcDbText
 10
232.6318693660433
 20
252.8121419397431
 30
0.0
 40
7.0
  1
KA-DN250
 50
90.0
 41
0.8
  7
GREEKS
100
AcDbText
  0
TEXT
  5
1E4
330
20
100
AcDbEntity
  8
TEXT
 62
     1
100
AcDbText
 10
232.6318693660433
 20
437.0598360852588
 30
0.0
 40
7.0
  1
DN250
 50
90.0
 41
0.8
  7
GREEKS
100
AcDbText
  0
TEXT
  5
239
330
20
100
AcDbEntity
  8
BEM
100
AcDbText
 10
416.5811541437437
 20
12.14804815338303
 30
0.0
 40
4.0
  1
Diese Zeichnung ist urheberrechtlich geschützt und bleibt unser Eigentum. Sie darf weder ganz noch teilweise vervielfältigt und nicht an Dritte weitergegeben werden.
 50
90.0
 41
0.8
  7
GREEKS
100
AcDbText
  0
TEXT
  5
246
330
20
100
AcDbEntity
  8
TEXT
100
AcDbText
 10
192.6882715247924
 20
89.06378771468553
 30
0.0
 40
4.0
  1
DIN EN1123-2
 41
0.8
  7
GREEKS
 72
     1
 11
209.6787477152686
 21
89.06378771468553
 31
0.0
100
AcDbText
  0
ARC
  5
2EA
330
20
100
AcDbEntity
  8
SCHRAFF
100
AcDbCircle
 10
351.2512756749389
 20
384.4917267213386
 30
0.0
 40
3.98983484850948
100
AcDbArc
 50
311.2438286196605
 51
48.75617138033981
  0
ARC
  5
2EB
330
20
100
AcDbEntity
  8
SCHRAFF
100
AcDbCircle
 10
341.2512756749389
 20
384.4917267213386
 30
0.0
 40
3.98983484850948
100
AcDbArc
 50
311.2438286196605
 51
48.75617138033981
  0
ARC
  5
2EC
330
20
100
AcDbEntity
  8
SCHRAFF
100
AcDbCircle
 10
321.251275674939
 20
384.4917267213386
 30
0.0
 40
3.98983484850948
100
AcDbArc
 50
311.2438286196605
 51
48.75617138033981
  0
ARC
  5
2ED
330
20
100
AcDbEntity
  8
SCHRAFF
100
AcDbCircle
 10
331.2512756749389
 20
384.4917267213386
 30
0.0
 40
3.98983484850948
100
AcDbArc
 50
311.2438286196605
 51
48.75617138033981
  0
ARC
  5
2EE
330
20
100
AcDbEntity
  8
SCHRAFF
100
AcDbCircle
 10
311.2512756749389
 20
384.4917267213386
 30
0.0
 40
3.98983484850948
100
AcDbArc
 50
311.2438286196605
 51
48.75617138033981
  0
ARC
  5
2EF
330
20
100
AcDbEntity
  8
SCHRAFF
100
AcDbCircle
 10
291.2512756749389
 20
384.4917267213386
 30
0.0
 40
3.98983484850948
100
AcDbArc
 50
311.2438286196605
 51
48.75617138033981
  0
ARC
  5
2F0
330
20
100
AcDbEntity
  8
SCHRAFF
100
AcDbCircle
 10
301.2512756749389
 20
384.4917267213386
 30
0.0
 40
3.98983484850948
100
AcDbArc
 50
311.2438286196605
 51
48.75617138033981
  0
ARC
  5
2F1
330
20
100
AcDbEntity
  8
SCHRAFF
100
AcDbCircle
 10
271.251275674939
 20
384.4917267213386
 30
0.0
 40
3.98983484850948
100
AcDbArc
 50
311.2438286196605
 51
48.75617138033981
  0
ARC
  5
2F2
330
20
100
AcDbEntity
  8
SCHRAFF
100
AcDbCircle
 10
281.2512756749389
 20
384.4917267213386
 30
0.0
 40
3.98983484850948
100
AcDbArc
 50
311.2438286196605
 51
48.75617138033981
  0
ARC
  5
2F3
330
20
100
AcDbEntity
  8
SCHRAFF
100
AcDbCircle
 10
261.2512756749389
 20
384.4917267213386
 30
0.0
 40
3.98983484850948
100
AcDbArc
 50
311.2438286196605
 51
48.75617138033981
  0
ARC
  5
2F4
330
20
100
AcDbEntity
  8
SCHRAFF
100
AcDbCircle
 10
241.2512756749389
 20
384.4917267213386
 30
0.0
 40
3.98983484850948
100
AcDbArc
 50
311.2438286196605
 51
48.75617138033981
  0
ARC
  5
2F5
330
20
100
AcDbEntity
  8
SCHRAFF
100
AcDbCircle
 10
251.2512756749389
 20
384.4917267213386
 30
0.0
 40
3.98983484850948
100
AcDbArc
 50
311.2438286196605
 51
48.75617138033981
  0
ARC
  5
2F6
330
20
100
AcDbEntity
  8
SCHRAFF
100
AcDbCircle
 10
361.2512756749389
 20
384.4917267213386
 30
0.0
 40
3.98983484850948
100
AcDbArc
 50
311.2438286196605
 51
48.75617138033981
  0
ENDSEC
  0
SECTION
  2
OBJECTS
  0
DICTIONARY
  5
C
330
0
100
AcDbDictionary
281
     1
  3
ACAD_COLOR
350
1B
  3
ACAD_GROUP
350
D
  3
ACAD_LAYOUT
350
19
  3
ACAD_MATERIAL
350
1A
  3
ACAD_MLINESTYLE
350
16
  3
ACAD_PLOTSETTINGS
350
18
  3
ACAD_PLOTSTYLENAME
350
E
  3
AcDbVariableDictionary
350
25B
  0
DICTIONARY
  5
1B
102
{ACAD_REACTORS
330
C
102
}
330
C
100
AcDbDictionary
281
     1
  0
DICTIONARY
  5
D
102
{ACAD_REACTORS
330
C
102
}
330
C
100
AcDbDictionary
281
     1
  0
DICTIONARY
  5
19
102
{ACAD_REACTORS
330
C
102
}
330
C
100
AcDbDictionary
281
     1
  3
Layout1
350
1F
  3
Model
350
23
  0
DICTIONARY
  5
1A
102
{ACAD_REACTORS
330
C
102
}
330
C
100
AcDbDictionary
281
     1
  0
DICTIONARY
  5
16
102
{ACAD_REACTORS
330
C
102
}
330
C
100
AcDbDictionary
281
     1
  3
Standard
350
17
  0
DICTIONARY
  5
18
102
{ACAD_REACTORS
330
C
102
}
330
C
100
AcDbDictionary
281
     1
  0
ACDBDICTIONARYWDFLT
  5
E
102
{ACAD_REACTORS
330
C
102
}
330
C
100
AcDbDictionary
281
     1
  3
Normal
350
F
100
AcDbDictionaryWithDefault
340
F
  0
DICTIONARY
  5
25B
102
{ACAD_REACTORS
330
C
102
}
330
C
100
AcDbDictionary
281
     1
  3
DIMASSOC
350
25D
  3
HIDETEXT
350
25C
  3
PROJECTNAME
350
25E
  0
LAYOUT
  5
1F
102
{ACAD_REACTORS
330
19
102
}
330
19
100
AcDbPlotSettings
  1

  2
RICOH Aficio 2027 PCL 6
  4

  6

 40
0.0
 41
0.0
 42
0.0
 43
0.0
 44
0.0
 45
0.0
 46
0.0
 47
0.0
 48
0.0
 49
0.0
140
0.0
141
0.0
142
1.0
143
1.0
 70
   688
 72
     0
 73
     0
 74
     5
  7
monochrome1.ctb
 75
    16
147
1.0
 76
     0
 77
     2
 78
   300
148
0.0
149
0.0
100
AcDbLayout
  1
Layout1
 70
     0
 71
     1
 10
0.0
 20
0.0
 11
12.0
 21
9.0
 12
2.245139065676091
 22
50.00000000000001
 32
-1.032423782695658
 14
1.000000000000000E+20
 24
1.000000000000000E+20
 34
1.000000000000000E+20
 15
-1.000000000000000E+20
 25
-1.000000000000000E+20
 35
-1.000000000000000E+20
146
0.0
 13
0.0
 23
0.0
 33
0.0
 16
1.0
 26
0.0
 36
0.0
 17
0.0
 27
1.0
 37
0.0
 76
     0
330
1C
  0
LAYOUT
  5
23
102
{ACAD_REACTORS
330
19
102
}
330
19
100
AcDbPlotSettings
  1

  2
RICOH Aficio 2027 PCL 6
  4
A4
  6

 40
5.027083396911621
 41
5.027085304260253
 42
5.027084350585937
 43
5.027069091796875
 44
209.9733276367187
 45
296.9259948730469
 46
0.0
 47
0.0
 48
0.0
 49
0.0
140
0.0
141
0.0
142
1.0
143
1.0
 70
 11952
 72
     0
 73
     1
 74
     0
  7
monochrome1.ctb
 75
     0
147
1.0
 76
     0
 77
     2
 78
   300
148
2299.89518964334
149
90.09517935315257
100
AcDbLayout
  1
Model
 70
     1
 71
     0
 10
0.0
 20
0.0
 11
12.0
 21
9.0
 12
0.0
 22
0.0
 32
0.0
 14
0.0
 24
0.0
 34
0.0
 15
0.0
 25
0.0
 35
0.0
146
0.0
 13
0.0
 23
0.0
 33
0.0
 16
1.0
 26
0.0
 36
0.0
 17
0.0
 27
1.0
 37
0.0
 76
     0
330
20
  0
MLINESTYLE
  5
17
102
{ACAD_REACTORS
330
16
102
}
330
16
100
AcDbMlineStyle
  2
STANDARD
 70
     0
  3

 62
   256
 51
90.0
 52
90.0
 71
     2
 49
0.5
 62
   256
  6
BYLAYER
 49
-0.5
 62
   256
  6
BYLAYER
  0
ACDBPLACEHOLDER
  5
F
102
{ACAD_REACTORS
330
E
102
}
330
E
  0
DICTIONARYVAR
  5
25D
102
{ACAD_REACTORS
330
25B
102
}
330
25B
100
DictionaryVariables
280
     0
  1
2
  0
DICTIONARYVAR
  5
25C
102
{ACAD_REACTORS
330
25B
102
}
330
25B
100
DictionaryVariables
280
     0
  1
1
  0
DICTIONARYVAR
  5
25E
102
{ACAD_REACTORS
330
25B
102
}
330
25B
100
DictionaryVariables
280
     0
  1

  0
ENDSEC
  0
EOF
