  0
SECTION
  2
HEADER
  9
$ACADVER
  1
AC1018
  9
$ACADMAINTVER
 70
     2
  9
$DWGCODEPAGE
  3
ANSI_1252
  9
$INSBASE
 10
0.0
 20
0.0
 30
0.0
  9
$EXTMIN
 10
-0.0032020964374624
 20
-0.0045286792473007
 30
-0.0000000000112498
  9
$EXTMAX
 10
210.0032050302827
 20
297.0045328285429
 30
0.0000000000002956
  9
$LIMMIN
 10
0.0
 20
0.0
  9
$LIMMAX
 10
210.0
 20
297.0
  9
$ORTHOMODE
 70
     1
  9
$REGENMODE
 70
     1
  9
$FILLMODE
 70
     1
  9
$QTEXTMODE
 70
     0
  9
$MIRRTEXT
 70
     1
  9
$LTSCALE
 40
10.0
  9
$ATTMODE
 70
     1
  9
$TEXTSIZE
 40
3.5
  9
$TRACEWID
 40
0.5
  9
$TEXTSTYLE
  7
STANDARD
  9
$CLAYER
  8
SCHRAFF
  9
$CELTYPE
  6
ByLayer
  9
$CECOLOR
 62
   256
  9
$CELTSCALE
 40
1.0
  9
$DISPSILH
 70
     0
  9
$DIMSCALE
 40
1.0
  9
$DIMASZ
 40
3.5
  9
$DIMEXO
 40
1.0
  9
$DIMDLI
 40
7.0
  9
$DIMRND
 40
0.0
  9
$DIMDLE
 40
0.0
  9
$DIMEXE
 40
1.0
  9
$DIMTP
 40
0.0
  9
$DIMTM
 40
0.0
  9
$DIMTXT
 40
3.5
  9
$DIMCEN
 40
1.5
  9
$DIMTSZ
 40
0.0
  9
$DIMTOL
 70
     0
  9
$DIMLIM
 70
     0
  9
$DIMTIH
 70
     0
  9
$DIMTOH
 70
     0
  9
$DIMSE1
 70
     0
  9
$DIMSE2
 70
     0
  9
$DIMTAD
 70
     1
  9
$DIMZIN
 70
     8
  9
$DIMBLK
  1

  9
$DIMASO
 70
     1
  9
$DIMSHO
 70
     0
  9
$DIMPOST
  1

  9
$DIMAPOST
  1

  9
$DIMALT
 70
     0
  9
$DIMALTD
 70
     2
  9
$DIMALTF
 40
25.4
  9
$DIMLFAC
 40
1.0
  9
$DIMTOFL
 70
     1
  9
$DIMTVP
 40
0.0
  9
$DIMTIX
 70
     0
  9
$DIMSOXD
 70
     0
  9
$DIMSAH
 70
     0
  9
$DIMBLK1
  1

  9
$DIMBLK2
  1

  9
$DIMSTYLE
  2
Standard
  9
$DIMCLRD
 70
     0
  9
$DIMCLRE
 70
     0
  9
$DIMCLRT
 70
     1
  9
$DIMTFAC
 40
0.5142857142857144
  9
$DIMGAP
 40
1.5
  9
$DIMJUST
 70
     0
  9
$DIMSD1
 70
     0
  9
$DIMSD2
 70
     0
  9
$DIMTOLJ
 70
     1
  9
$DIMTZIN
 70
     8
  9
$DIMALTZ
 70
     8
  9
$DIMALTTZ
 70
     8
  9
$DIMUPT
 70
     0
  9
$DIMDEC
 70
     2
  9
$DIMTDEC
 70
     2
  9
$DIMALTU
 70
     2
  9
$DIMALTTD
 70
     2
  9
$DIMTXSTY
  7
STANDARD
  9
$DIMAUNIT
 70
     0
  9
$DIMADEC
 70
     2
  9
$DIMALTRND
 40
0.0
  9
$DIMAZIN
 70
     2
  9
$DIMDSEP
 70
    46
  9
$DIMATFIT
 70
     3
  9
$DIMFRAC
 70
     0
  9
$DIMLDRBLK
  1

  9
$DIMLUNIT
 70
     2
  9
$DIMLWD
 70
    -2
  9
$DIMLWE
 70
    -2
  9
$DIMTMOVE
 70
     0
  9
$LUNITS
 70
     2
  9
$LUPREC
 70
     2
  9
$SKETCHINC
 40
1.0
  9
$FILLETRAD
 40
8.0
  9
$AUNITS
 70
     0
  9
$AUPREC
 70
     0
  9
$MENU
  1
ACAD
  9
$ELEVATION
 40
0.0
  9
$PELEVATION
 40
0.0
  9
$THICKNESS
 40
0.0
  9
$LIMCHECK
 70
     0
  9
$CHAMFERA
 40
0.0
  9
$CHAMFERB
 40
0.0
  9
$CHAMFERC
 40
0.0
  9
$CHAMFERD
 40
0.0
  9
$SKPOLY
 70
     0
  9
$TDCREATE
 40
2455397.864709028
  9
$TDUCREATE
 40
2455397.781375695
  9
$TDUPDATE
 40
2455656.301764352
  9
$TDUUPDATE
 40
2455656.218431018
  9
$TDINDWG
 40
0.1177083102
  9
$TDUSRTIMER
 40
0.1177083102
  9
$USRTIMER
 70
     1
  9
$ANGBASE
 50
0.0
  9
$ANGDIR
 70
     0
  9
$PDMODE
 70
     0
  9
$PDSIZE
 40
0.0
  9
$PLINEWID
 40
0.0
  9
$SPLFRAME
 70
     0
  9
$SPLINETYPE
 70
     6
  9
$SPLINESEGS
 70
     8
  9
$HANDSEED
  5
CF0
  9
$SURFTAB1
 70
     6
  9
$SURFTAB2
 70
     6
  9
$SURFTYPE
 70
     6
  9
$SURFU
 70
     6
  9
$SURFV
 70
     6
  9
$UCSBASE
  2

  9
$UCSNAME
  2

  9
$UCSORG
 10
0.0
 20
0.0
 30
0.0
  9
$UCSXDIR
 10
1.0
 20
0.0
 30
0.0
  9
$UCSYDIR
 10
0.0
 20
1.0
 30
0.0
  9
$UCSORTHOREF
  2

  9
$UCSORTHOVIEW
 70
     0
  9
$UCSORGTOP
 10
0.0
 20
0.0
 30
0.0
  9
$UCSORGBOTTOM
 10
0.0
 20
0.0
 30
0.0
  9
$UCSORGLEFT
 10
0.0
 20
0.0
 30
0.0
  9
$UCSORGRIGHT
 10
0.0
 20
0.0
 30
0.0
  9
$UCSORGFRONT
 10
0.0
 20
0.0
 30
0.0
  9
$UCSORGBACK
 10
0.0
 20
0.0
 30
0.0
  9
$PUCSBASE
  2

  9
$PUCSNAME
  2

  9
$PUCSORG
 10
0.0
 20
0.0
 30
0.0
  9
$PUCSXDIR
 10
1.0
 20
0.0
 30
0.0
  9
$PUCSYDIR
 10
0.0
 20
1.0
 30
0.0
  9
$PUCSORTHOREF
  2

  9
$PUCSORTHOVIEW
 70
     0
  9
$PUCSORGTOP
 10
0.0
 20
0.0
 30
0.0
  9
$PUCSORGBOTTOM
 10
0.0
 20
0.0
 30
0.0
  9
$PUCSORGLEFT
 10
0.0
 20
0.0
 30
0.0
  9
$PUCSORGRIGHT
 10
0.0
 20
0.0
 30
0.0
  9
$PUCSORGFRONT
 10
0.0
 20
0.0
 30
0.0
  9
$PUCSORGBACK
 10
0.0
 20
0.0
 30
0.0
  9
$USERI1
 70
     0
  9
$USERI2
 70
     0
  9
$USERI3
 70
     0
  9
$USERI4
 70
     0
  9
$USERI5
 70
     0
  9
$USERR1
 40
0.0
  9
$USERR2
 40
0.0
  9
$USERR3
 40
0.0
  9
$USERR4
 40
0.0
  9
$USERR5
 40
0.0
  9
$WORLDVIEW
 70
     1
  9
$SHADEDGE
 70
     3
  9
$SHADEDIF
 70
    70
  9
$TILEMODE
 70
     1
  9
$MAXACTVP
 70
    16
  9
$PINSBASE
 10
0.0
 20
0.0
 30
0.0
  9
$PLIMCHECK
 70
     0
  9
$PEXTMIN
 10
1.000000000000000E+20
 20
1.000000000000000E+20
 30
1.000000000000000E+20
  9
$PEXTMAX
 10
-1.000000000000000E+20
 20
-1.000000000000000E+20
 30
-1.000000000000000E+20
  9
$PLIMMIN
 10
0.0
 20
0.0
  9
$PLIMMAX
 10
12.0
 20
9.0
  9
$UNITMODE
 70
     0
  9
$VISRETAIN
 70
     0
  9
$PLINEGEN
 70
     0
  9
$PSLTSCALE
 70
     0
  9
$TREEDEPTH
 70
  3020
  9
$CMLSTYLE
  2
Standard
  9
$CMLJUST
 70
     0
  9
$CMLSCALE
 40
1.0
  9
$PROXYGRAPHICS
 70
     1
  9
$MEASUREMENT
 70
     0
  9
$CELWEIGHT
370
    -1
  9
$ENDCAPS
280
     0
  9
$JOINSTYLE
280
     0
  9
$LWDISPLAY
290
     0
  9
$INSUNITS
 70
     0
  9
$HYPERLINKBASE
  1

  9
$STYLESHEET
  1
monochrome 1.ctb
  9
$XEDIT
290
     1
  9
$CEPSNTYPE
380
     0
  9
$PSTYLEMODE
290
     1
  9
$FINGERPRINTGUID
  2
{D68B0D02-A558-11D7-B632-000102183313}
  9
$VERSIONGUID
  2
{4A9D1A5D-52B9-4937-8121-EE0673F8A98C}
  9
$EXTNAMES
290
     1
  9
$PSVPSCALE
 40
0.0
  9
$OLESTARTUP
290
     0
  9
$SORTENTS
280
   127
  9
$INDEXCTL
280
     0
  9
$HIDETEXT
280
     0
  9
$XCLIPFRAME
290
     0
  9
$HALOGAP
280
     0
  9
$OBSCOLOR
 70
   257
  9
$OBSLTYPE
280
     0
  9
$INTERSECTIONDISPLAY
280
     0
  9
$INTERSECTIONCOLOR
 70
   257
  9
$DIMASSOC
280
     1
  9
$PROJECTNAME
  1

  0
ENDSEC
  0
SECTION
  2
CLASSES
  0
CLASS
  1
ACDBDICTIONARYWDFLT
  2
AcDbDictionaryWithDefault
  3
ObjectDBX Classes
 90
        0
 91
        1
280
     0
281
     0
  0
CLASS
  1
DICTIONARYVAR
  2
AcDbDictionaryVar
  3
ObjectDBX Classes
 90
        0
 91
        2
280
     0
281
     0
  0
ENDSEC
  0
SECTION
  2
TABLES
  0
TABLE
  2
VPORT
  5
8
330
0
100
AcDbSymbolTable
 70
     3
  0
VPORT
  5
CEF
330
8
100
AcDbSymbolTableRecord
100
AcDbViewportTableRecord
  2
*Active
 70
     0
 10
0.0
 20
0.0
 11
1.0
 21
1.0
 12
105.0
 22
148.5
 13
0.0
 23
0.0
 14
1.0
 24
1.0
 15
10.0
 25
10.0
 16
0.0
 26
0.0
 36
1.0
 17
0.0
 27
0.0
 37
0.0
 40
297.0000000000001
 41
1.334231805929919
 42
50.0
 43
0.0
 44
0.0
 50
0.0
 51
0.0
 71
     0
 72
  1500
 73
     1
 74
     0
 75
     0
 76
     0
 77
     0
 78
     0
281
     0
 65
     1
110
0.0
120
0.0
130
0.0
111
1.0
121
0.0
131
0.0
112
0.0
122
1.0
132
0.0
 79
     0
146
0.0
  0
ENDTAB
  0
TABLE
  2
LTYPE
  5
5
330
0
100
AcDbSymbolTable
 70
     3
  0
LTYPE
  5
13
330
5
100
AcDbSymbolTableRecord
100
AcDbLinetypeTableRecord
  2
ByBlock
 70
     0
  3

 72
    65
 73
     0
 40
0.0
  0
LTYPE
  5
14
330
5
100
AcDbSymbolTableRecord
100
AcDbLinetypeTableRecord
  2
ByLayer
 70
     0
  3

 72
    65
 73
     0
 40
0.0
  0
LTYPE
  5
15
330
5
100
AcDbSymbolTableRecord
100
AcDbLinetypeTableRecord
  2
Continuous
 70
     0
  3
Solid line
 72
    65
 73
     0
 40
0.0
  0
LTYPE
  5
25
330
5
100
AcDbSymbolTableRecord
100
AcDbLinetypeTableRecord
  2
STRICHPUNKT
 70
     0
  3
__ . __ . __ . __ . __ . __ . __ . __ . __ . __
 72
    65
 73
     4
 40
1.0
 49
0.5
 74
     0
 49
-0.25
 74
     0
 49
0.0
 74
     0
 49
-0.25
 74
     0
  0
LTYPE
  5
32
330
5
100
AcDbSymbolTableRecord
100
AcDbLinetypeTableRecord
  2
AUSGEZOGEN
 70
     0
  3
Ausgezogene Linie
 72
    65
 73
     0
 40
0.0
  0
ENDTAB
  0
TABLE
  2
LAYER
  5
2
330
0
100
AcDbSymbolTable
 70
     9
  0
LAYER
  5
10
330
2
100
AcDbSymbolTableRecord
100
AcDbLayerTableRecord
  2
0
 70
     0
 62
     7
  6
Continuous
370
    -3
390
F
  0
LAYER
  5
2A
330
2
100
AcDbSymbolTableRecord
100
AcDbLayerTableRecord
  2
VOLL
 70
     0
 62
     1
  6
Continuous
370
    -3
390
F
  0
LAYER
  5
2B
330
2
100
AcDbSymbolTableRecord
100
AcDbLayerTableRecord
  2
HILF
 70
     0
 62
     2
  6
Continuous
370
    -3
390
F
  0
LAYER
  5
2C
330
2
100
AcDbSymbolTableRecord
100
AcDbLayerTableRecord
  2
MITTEL
 70
     0
 62
     2
  6
STRICHPUNKT
370
    -3
390
F
  0
LAYER
  5
2F
330
2
100
AcDbSymbolTableRecord
100
AcDbLayerTableRecord
  2
BEM
 70
     0
 62
     7
  6
Continuous
370
    -3
390
F
  0
LAYER
  5
30
330
2
100
AcDbSymbolTableRecord
100
AcDbLayerTableRecord
  2
STEMPEL
 70
     0
 62
     3
  6
Continuous
370
    -3
390
F
  0
LAYER
  5
31
330
2
100
AcDbSymbolTableRecord
100
AcDbLayerTableRecord
  2
TEXT
 70
     0
 62
     7
  6
Continuous
370
    -3
390
F
  0
LAYER
  5
274
330
2
100
AcDbSymbolTableRecord
100
AcDbLayerTableRecord
  2
SCHRAFF
 70
     0
 62
     7
  6
AUSGEZOGEN
370
    -3
390
F
  0
LAYER
  5
2E5
330
2
100
AcDbSymbolTableRecord
100
AcDbLayerTableRecord
  2
Defpoints
 70
     0
 62
     7
  6
Continuous
290
     0
370
    -3
390
F
  0
ENDTAB
  0
TABLE
  2
STYLE
  5
3
330
0
100
AcDbSymbolTable
 70
     2
  0
STYLE
  5
11
330
3
100
AcDbSymbolTableRecord
100
AcDbTextStyleTableRecord
  2
STANDARD
 70
     0
 40
0.0
 41
0.8
 50
0.0
 71
     0
 42
3.5
  3
simplex.shx
  4

  0
STYLE
  5
24
330
3
100
AcDbSymbolTableRecord
100
AcDbTextStyleTableRecord
  2
GREEKS
 70
     0
 40
0.0
 41
0.8
 50
0.0
 71
     0
 42
2.5
  3
SIMPLEX.shx
  4

  0
ENDTAB
  0
TABLE
  2
VIEW
  5
6
330
0
100
AcDbSymbolTable
 70
     0
  0
ENDTAB
  0
TABLE
  2
UCS
  5
7
330
0
100
AcDbSymbolTable
 70
     0
  0
ENDTAB
  0
TABLE
  2
APPID
  5
9
330
0
100
AcDbSymbolTable
 70
     1
  0
APPID
  5
12
330
9
100
AcDbSymbolTableRecord
100
AcDbRegAppTableRecord
  2
ACAD
 70
     0
  0
ENDTAB
  0
TABLE
  2
DIMSTYLE
  5
A
330
0
100
AcDbSymbolTable
 70
     1
100
AcDbDimStyleTable
 71
     1
340
9D
  0
DIMSTYLE
105
9D
102
{ACAD_REACTORS
330
938
330
936
330
91D
330
91C
330
B40
102
}
330
A
100
AcDbSymbolTableRecord
100
AcDbDimStyleTableRecord
  2
Standard
 70
     0
340
11
  0
ENDTAB
  0
TABLE
  2
BLOCK_RECORD
  5
1
330
0
100
AcDbSymbolTable
 70
     9
  0
BLOCK_RECORD
  5
1E
102
{ACAD_XDICTIONARY
360
A0
102
}
330
1
100
AcDbSymbolTableRecord
100
AcDbBlockTableRecord
  2
*Model_Space
340
21
  0
BLOCK_RECORD
  5
1A
102
{ACAD_XDICTIONARY
360
A2
102
}
330
1
100
AcDbSymbolTableRecord
100
AcDbBlockTableRecord
  2
*Paper_Space
340
1D
  0
BLOCK_RECORD
  5
22
330
1
100
AcDbSymbolTableRecord
100
AcDbBlockTableRecord
  2
LOGO
340
0
102
{BLKREFS
331
9B
102
}
  0
BLOCK_RECORD
  5
951
330
1
100
AcDbSymbolTableRecord
100
AcDbBlockTableRecord
  2
*D1
340
0
  0
BLOCK_RECORD
  5
95E
330
1
100
AcDbSymbolTableRecord
100
AcDbBlockTableRecord
  2
*D2
340
0
  0
BLOCK_RECORD
  5
978
330
1
100
AcDbSymbolTableRecord
100
AcDbBlockTableRecord
  2
*D4
340
0
  0
BLOCK_RECORD
  5
985
330
1
100
AcDbSymbolTableRecord
100
AcDbBlockTableRecord
  2
*D5
340
0
  0
BLOCK_RECORD
  5
B53
330
1
100
AcDbSymbolTableRecord
100
AcDbBlockTableRecord
  2
*D7
340
0
  0
ENDTAB
  0
ENDSEC
  0
SECTION
  2
BLOCKS
  0
BLOCK
  5
35
330
1E
100
AcDbEntity
  8
0
100
AcDbBlockBegin
  2
*Model_Space
 70
     0
 10
0.0
 20
0.0
 30
0.0
  3
*Model_Space
  1

  0
ENDBLK
  5
36
330
1E
100
AcDbEntity
  8
0
100
AcDbBlockEnd
  0
BLOCK
  5
33
330
1A
100
AcDbEntity
 67
     1
  8
0
100
AcDbBlockBegin
  2
*Paper_Space
 70
     0
 10
0.0
 20
0.0
 30
0.0
  3
*Paper_Space
  1

  0
ENDBLK
  5
34
330
1A
100
AcDbEntity
 67
     1
  8
0
100
AcDbBlockEnd
  0
BLOCK
  5
37
330
22
100
AcDbEntity
  8
0
100
AcDbBlockBegin
  2
LOGO
 70
     0
 10
0.0
 20
0.0
 30
0.0
  3
LOGO
  1

  0
ARC
  5
38
330
22
100
AcDbEntity
  8
0
100
AcDbCircle
 10
11.59973089678112
 20
-9.271599258481501
 30
0.0
 40
4.5
100
AcDbArc
 50
270.0
 51
231.0575587310159
  0
LINE
  5
39
330
22
100
AcDbEntity
  8
0
100
AcDbLine
 10
3.599730896781125
 20
-4.771599258481529
 30
0.0
 11
3.599730896781153
 21
-11.77159925848133
 31
0.0
  0
LINE
  5
3A
330
22
100
AcDbEntity
  8
0
100
AcDbLine
 10
2.599730896781125
 20
-4.771599258481529
 30
0.0
 11
2.599730896781153
 21
-11.77159925848133
 31
0.0
  0
CIRCLE
  5
3B
330
22
100
AcDbEntity
  8
0
100
AcDbCircle
 10
11.59973089678112
 20
-9.271599258481501
 30
0.0
 40
3.5
  0
ARC
  5
3C
330
22
100
AcDbEntity
  8
0
100
AcDbCircle
 10
31.59973089678115
 20
-9.271599258481472
 30
0.0
 40
4.5
100
AcDbArc
 50
270.0
 51
231.0575587310182
  0
LINE
  5
3D
330
22
100
AcDbEntity
  8
0
100
AcDbLine
 10
17.59973089678112
 20
-4.771599258481472
 30
0.0
 11
17.59973089678115
 21
-13.77159925848147
 31
0.0
  0
ARC
  5
3E
330
22
100
AcDbEntity
  8
0
100
AcDbCircle
 10
22.59973089678116
 20
-7.271599258481472
 30
0.0
 40
2.5
100
AcDbArc
 50
293.1161887722295
 51
90.0
  0
CIRCLE
  5
3F
330
22
100
AcDbEntity
  8
0
100
AcDbCircle
 10
31.59973089678115
 20
-9.271599258481472
 30
0.0
 40
3.5
  0
ARC
  5
40
330
22
100
AcDbEntity
  8
0
100
AcDbCircle
 10
4.599730896781153
 20
-11.77159925848133
 30
0.0
 40
1.0
100
AcDbArc
 50
180.0
 51
270.0
  0
ARC
  5
41
330
22
100
AcDbEntity
  8
0
100
AcDbCircle
 10
4.599730896781153
 20
-11.77159925848133
 30
0.0
 40
2.0
100
AcDbArc
 50
179.9999999999992
 51
270.0
  0
LINE
  5
42
330
22
100
AcDbEntity
  8
0
100
AcDbLine
 10
11.59973089678115
 20
-13.77159925848144
 30
0.0
 11
4.599730896781153
 21
-13.77159925848147
 31
0.0
  0
LINE
  5
43
330
22
100
AcDbEntity
  8
0
100
AcDbLine
 10
8.771303772034769
 20
-12.77159925848136
 30
0.0
 11
4.599730896781153
 21
-12.77159925848133
 31
0.0
  0
LINE
  5
44
330
22
100
AcDbEntity
  8
0
100
AcDbLine
 10
31.59973089678115
 20
-13.77159925848147
 30
0.0
 11
23.6715276665056
 21
-13.77159925848144
 31
0.0
  0
LINE
  5
45
330
22
100
AcDbEntity
  8
0
100
AcDbLine
 10
23.56565672307022
 20
-9.51278021337896
 30
0.0
 11
24.4388546544846
 21
-12.77159925848144
 31
0.0
  0
LINE
  5
46
330
22
100
AcDbEntity
  8
0
100
AcDbLine
 10
22.59973089678116
 20
-9.771599258481472
 30
0.0
 11
18.59973089678112
 21
-9.771599258481472
 31
0.0
  0
LINE
  5
47
330
22
100
AcDbEntity
  8
0
100
AcDbLine
 10
18.59973089678115
 20
-13.77159925848144
 30
0.0
 11
17.59973089678115
 21
-13.77159925848144
 31
0.0
  0
LINE
  5
48
330
22
100
AcDbEntity
  8
0
100
AcDbLine
 10
18.59973089678115
 20
-9.771599258481472
 30
0.0
 11
18.59973089678115
 21
-13.77159925848144
 31
0.0
  0
LINE
  5
49
330
22
100
AcDbEntity
  8
0
100
AcDbLine
 10
22.59973089678116
 20
-9.771599258481472
 30
0.0
 11
23.67152766650562
 21
-13.77159925848147
 31
0.0
  0
ARC
  5
4A
330
22
100
AcDbEntity
  8
0
100
AcDbCircle
 10
22.59973089678116
 20
-7.271599258481472
 30
0.0
 40
2.5
100
AcDbArc
 50
270.0
 51
270.0000000000007
  0
LINE
  5
4B
330
22
100
AcDbEntity
  8
0
100
AcDbLine
 10
28.77130377203494
 20
-12.77159925848147
 30
0.0
 11
24.43885465448463
 21
-12.77159925848144
 31
0.0
  0
LINE
  5
4C
330
22
100
AcDbEntity
  8
0
100
AcDbLine
 10
3.599730896781125
 20
-4.771599258481472
 30
0.0
 11
2.599730896781125
 21
-4.771599258481472
 31
0.0
  0
LINE
  5
4D
330
22
100
AcDbEntity
  8
0
100
AcDbLine
 10
22.59973089678116
 20
-8.771599258481472
 30
0.0
 11
18.59973089678115
 21
-8.771599258481472
 31
0.0
  0
LINE
  5
4E
330
22
100
AcDbEntity
  8
0
100
AcDbLine
 10
22.59973089678116
 20
-5.771599258481472
 30
0.0
 11
18.59973089678115
 21
-5.771599258481472
 31
0.0
  0
LINE
  5
4F
330
22
100
AcDbEntity
  8
0
100
AcDbLine
 10
22.59973089678116
 20
-4.771599258481472
 30
0.0
 11
17.59973089678115
 21
-4.771599258481472
 31
0.0
  0
LINE
  5
50
330
22
100
AcDbEntity
  8
0
100
AcDbLine
 10
18.59973089678115
 20
-5.771599258481472
 30
0.0
 11
18.59973089678115
 21
-8.771599258481472
 31
0.0
  0
ARC
  5
51
330
22
100
AcDbEntity
  8
0
100
AcDbCircle
 10
22.59973089678116
 20
-7.271599258481472
 30
0.0
 40
1.5
100
AcDbArc
 50
270.0
 51
90.0
  0
ENDBLK
  5
52
330
22
100
AcDbEntity
  8
0
100
AcDbBlockEnd
  0
BLOCK
  5
95C
330
951
100
AcDbEntity
  8
0
100
AcDbBlockBegin
  2
*D1
 70
     1
 10
0.0
 20
0.0
 30
0.0
  3
*D1
  1

  0
LINE
  5
CB6
330
951
100
AcDbEntity
  8
BEM
 62
     0
370
    -2
100
AcDbLine
 10
84.24999999999998
 20
251.4551836073138
 30
0.0
 11
73.98865415848398
 21
251.4551836073138
 31
0.0
  0
LINE
  5
CB7
330
951
100
AcDbEntity
  8
BEM
 62
     0
370
    -2
100
AcDbLine
 10
84.25
 20
216.4551836073138
 30
0.0
 11
73.98865415848397
 21
216.4551836073138
 31
0.0
  0
LINE
  5
CB8
330
951
100
AcDbEntity
  8
BEM
 62
     0
370
    -2
100
AcDbLine
 10
74.98865415848398
 20
247.9551836073139
 30
0.0
 11
74.98865415848396
 21
219.9551836073138
 31
0.0
  0
SOLID
  5
CB9
330
951
100
AcDbEntity
  8
BEM
 62
     0
100
AcDbTrace
 10
74.40532082515066
 20
247.9551836073139
 30
0.0
 11
75.57198749181731
 21
247.9551836073139
 31
0.0
 12
74.98865415848398
 22
251.4551836073138
 32
0.0
 13
74.98865415848398
 23
251.4551836073138
 33
0.0
  0
SOLID
  5
CBA
330
951
100
AcDbEntity
  8
BEM
 62
     0
100
AcDbTrace
 10
74.40532082515064
 20
219.9551836073138
 30
0.0
 11
75.57198749181729
 21
219.9551836073138
 31
0.0
 12
74.98865415848396
 22
216.4551836073138
 32
0.0
 13
74.98865415848396
 23
216.4551836073138
 33
0.0
  0
MTEXT
  5
CBB
330
951
100
AcDbEntity
  8
BEM
 62
     1
100
AcDbMText
 10
71.73865415848394
 20
233.9551836073139
 30
0.0
 40
3.5
 41
0.0
 71
     5
 72
     1
  1
\A1;35
 11
0.0000000000000001
 21
1.0
 31
0.0
 73
     1
 44
1.0
  0
POINT
  5
CBC
330
951
100
AcDbEntity
  8
Defpoints
 62
     0
100
AcDbPoint
 10
85.24999999999998
 20
251.4551836073138
 30
0.0
  0
POINT
  5
CBD
330
951
100
AcDbEntity
  8
Defpoints
 62
     0
100
AcDbPoint
 10
85.25
 20
216.4551836073138
 30
0.0
  0
POINT
  5
CBE
330
951
100
AcDbEntity
  8
Defpoints
 62
     0
100
AcDbPoint
 10
74.98865415848396
 20
216.4551836073138
 30
0.0
  0
ENDBLK
  5
95D
330
951
100
AcDbEntity
  8
0
100
AcDbBlockEnd
  0
BLOCK
  5
969
330
95E
100
AcDbEntity
  8
0
100
AcDbBlockBegin
  2
*D2
 70
     1
 10
0.0
 20
0.0
 30
0.0
  3
*D2
  1

  0
LINE
  5
A5B
330
95E
100
AcDbEntity
  8
BEM
 62
     0
370
    -2
100
AcDbLine
 10
85.99999999999999
 20
116.2891848556418
 30
0.0
 11
85.99999999999999
 21
96.82343423851103
 31
0.0
  0
LINE
  5
A5C
330
95E
100
AcDbEntity
  8
BEM
 62
     0
370
    -2
100
AcDbLine
 10
139.0
 20
116.2891848556418
 30
0.0
 11
139.0
 21
96.82343423851103
 31
0.0
  0
LINE
  5
A5D
330
95E
100
AcDbEntity
  8
BEM
 62
     0
370
    -2
100
AcDbLine
 10
89.49999999999999
 20
97.82343423851102
 30
0.0
 11
135.5
 21
97.82343423851102
 31
0.0
  0
SOLID
  5
A5E
330
95E
100
AcDbEntity
  8
BEM
 62
     0
100
AcDbTrace
 10
89.49999999999999
 20
98.40676757184436
 30
0.0
 11
89.49999999999999
 21
97.2401009051777
 31
0.0
 12
85.99999999999999
 22
97.82343423851102
 32
0.0
 13
85.99999999999999
 23
97.82343423851102
 33
0.0
  0
SOLID
  5
A5F
330
95E
100
AcDbEntity
  8
BEM
 62
     0
100
AcDbTrace
 10
135.5
 20
98.40676757184436
 30
0.0
 11
135.5
 21
97.2401009051777
 31
0.0
 12
139.0
 22
97.82343423851102
 32
0.0
 13
139.0
 23
97.82343423851102
 33
0.0
  0
MTEXT
  5
A60
330
95E
100
AcDbEntity
  8
BEM
 62
     1
100
AcDbMText
 10
112.5
 20
101.073434238511
 30
0.0
 40
3.5
 41
0.0
 71
     5
 72
     1
  1
\A1;%%C53
 73
     1
 44
1.0
  0
POINT
  5
A61
330
95E
100
AcDbEntity
  8
Defpoints
 62
     0
100
AcDbPoint
 10
85.99999999999999
 20
117.2891848556418
 30
0.0
  0
POINT
  5
A62
330
95E
100
AcDbEntity
  8
Defpoints
 62
     0
100
AcDbPoint
 10
139.0
 20
117.2891848556418
 30
0.0
  0
POINT
  5
A63
330
95E
100
AcDbEntity
  8
Defpoints
 62
     0
100
AcDbPoint
 10
139.0
 20
97.82343423851102
 30
0.0
  0
ENDBLK
  5
96A
330
95E
100
AcDbEntity
  8
0
100
AcDbBlockEnd
  0
BLOCK
  5
983
330
978
100
AcDbEntity
  8
0
100
AcDbBlockBegin
  2
*D4
 70
     1
 10
0.0
 20
0.0
 30
0.0
  3
*D4
  1

  0
LINE
  5
CAD
330
978
100
AcDbEntity
  8
BEM
 62
     0
370
    -2
100
AcDbLine
 10
84.24999999999998
 20
251.4551836073138
 30
0.0
 11
65.38513444797877
 21
251.4551836073138
 31
0.0
  0
LINE
  5
CAE
330
978
100
AcDbEntity
  8
BEM
 62
     0
370
    -2
100
AcDbLine
 10
85.87488663525922
 20
111.4551836073138
 30
0.0
 11
65.38513444797874
 21
111.4551836073138
 31
0.0
  0
LINE
  5
CAF
330
978
100
AcDbEntity
  8
BEM
 62
     0
370
    -2
100
AcDbLine
 10
66.38513444797877
 20
247.9551836073139
 30
0.0
 11
66.38513444797874
 21
114.9551836073138
 31
0.0
  0
SOLID
  5
CB0
330
978
100
AcDbEntity
  8
BEM
 62
     0
100
AcDbTrace
 10
65.80180111464544
 20
247.9551836073139
 30
0.0
 11
66.96846778131209
 21
247.9551836073139
 31
0.0
 12
66.38513444797877
 22
251.4551836073138
 32
0.0
 13
66.38513444797877
 23
251.4551836073138
 33
0.0
  0
SOLID
  5
CB1
330
978
100
AcDbEntity
  8
BEM
 62
     0
100
AcDbTrace
 10
65.80180111464541
 20
114.9551836073138
 30
0.0
 11
66.96846778131207
 21
114.9551836073138
 31
0.0
 12
66.38513444797874
 22
111.4551836073138
 32
0.0
 13
66.38513444797874
 23
111.4551836073138
 33
0.0
  0
MTEXT
  5
CB2
330
978
100
AcDbEntity
  8
BEM
 62
     1
100
AcDbMText
 10
63.13513444797873
 20
181.4551836073138
 30
0.0
 40
3.5
 41
0.0
 71
     5
 72
     1
  1
\A1;140
 11
0.0000000000000001
 21
1.0
 31
0.0
 73
     1
 44
1.0
  0
POINT
  5
CB3
330
978
100
AcDbEntity
  8
Defpoints
 62
     0
100
AcDbPoint
 10
85.24999999999998
 20
251.4551836073138
 30
0.0
  0
POINT
  5
CB4
330
978
100
AcDbEntity
  8
Defpoints
 62
     0
100
AcDbPoint
 10
86.87488663525924
 20
111.4551836073138
 30
0.0
  0
POINT
  5
CB5
330
978
100
AcDbEntity
  8
Defpoints
 62
     0
100
AcDbPoint
 10
66.38513444797874
 20
111.4551836073138
 30
0.0
  0
ENDBLK
  5
984
330
978
100
AcDbEntity
  8
0
100
AcDbBlockEnd
  0
BLOCK
  5
990
330
985
100
AcDbEntity
  8
0
100
AcDbBlockBegin
  2
*D5
 70
     1
 10
0.0
 20
0.0
 30
0.0
  3
*D5
  1

  0
LINE
  5
CBF
330
985
100
AcDbEntity
  8
BEM
 62
     0
370
    -2
100
AcDbLine
 10
84.24999999999998
 20
216.4551836073138
 30
0.0
 11
73.98865413639985
 21
216.4551836073138
 31
0.0
  0
LINE
  5
CC0
330
985
100
AcDbEntity
  8
BEM
 62
     0
370
    -2
100
AcDbLine
 10
85.87488663525922
 20
111.4551836073138
 30
0.0
 11
73.98865413639983
 21
111.4551836073138
 31
0.0
  0
LINE
  5
CC1
330
985
100
AcDbEntity
  8
BEM
 62
     0
370
    -2
100
AcDbLine
 10
74.98865413639984
 20
212.9551836073138
 30
0.0
 11
74.98865413639983
 21
114.9551836073138
 31
0.0
  0
SOLID
  5
CC2
330
985
100
AcDbEntity
  8
BEM
 62
     0
100
AcDbTrace
 10
74.40532080306652
 20
212.9551836073138
 30
0.0
 11
75.57198746973317
 21
212.9551836073138
 31
0.0
 12
74.98865413639984
 22
216.4551836073138
 32
0.0
 13
74.98865413639984
 23
216.4551836073138
 33
0.0
  0
SOLID
  5
CC3
330
985
100
AcDbEntity
  8
BEM
 62
     0
100
AcDbTrace
 10
74.4053208030665
 20
114.9551836073138
 30
0.0
 11
75.57198746973316
 21
114.9551836073138
 31
0.0
 12
74.98865413639983
 22
111.4551836073138
 32
0.0
 13
74.98865413639983
 23
111.4551836073138
 33
0.0
  0
MTEXT
  5
CC4
330
985
100
AcDbEntity
  8
BEM
 62
     1
100
AcDbMText
 10
71.73865413639981
 20
163.9551836073138
 30
0.0
 40
3.5
 41
0.0
 71
     5
 72
     1
  1
\A1;105
 11
0.0000000000000001
 21
1.0
 31
0.0
 73
     1
 44
1.0
  0
POINT
  5
CC5
330
985
100
AcDbEntity
  8
Defpoints
 62
     0
100
AcDbPoint
 10
85.24999999999998
 20
216.4551836073138
 30
0.0
  0
POINT
  5
CC6
330
985
100
AcDbEntity
  8
Defpoints
 62
     0
100
AcDbPoint
 10
86.87488663525924
 20
111.4551836073138
 30
0.0
  0
POINT
  5
CC7
330
985
100
AcDbEntity
  8
Defpoints
 62
     0
100
AcDbPoint
 10
74.98865413639983
 20
111.4551836073138
 30
0.0
  0
ENDBLK
  5
991
330
985
100
AcDbEntity
  8
0
100
AcDbBlockEnd
  0
BLOCK
  5
B5D
330
B53
100
AcDbEntity
  8
0
100
AcDbBlockBegin
  2
*D7
 70
     1
 10
0.0
 20
0.0
 30
0.0
  3
*D7
  1

  0
LINE
  5
B68
330
B53
100
AcDbEntity
  8
BEM
 62
     0
370
    -2
100
AcDbLine
 10
88.59999999999997
 20
252.4551836073138
 30
0.0
 11
88.59999999999997
 21
260.1785702470976
 31
0.0
  0
LINE
  5
B69
330
B53
100
AcDbEntity
  8
BEM
 62
     0
370
    -2
100
AcDbLine
 10
136.4
 20
252.4551836073138
 30
0.0
 11
136.4
 21
260.1785702470976
 31
0.0
  0
LINE
  5
B6A
330
B53
100
AcDbEntity
  8
BEM
 62
     0
370
    -2
100
AcDbLine
 10
92.09999999999997
 20
259.1785702470976
 30
0.0
 11
132.8999999999999
 21
259.1785702470976
 31
0.0
  0
SOLID
  5
B6B
330
B53
100
AcDbEntity
  8
BEM
 62
     0
100
AcDbTrace
 10
92.09999999999997
 20
259.761903580431
 30
0.0
 11
92.09999999999997
 21
258.5952369137643
 31
0.0
 12
88.59999999999997
 22
259.1785702470976
 32
0.0
 13
88.59999999999997
 23
259.1785702470976
 33
0.0
  0
SOLID
  5
B6C
330
B53
100
AcDbEntity
  8
BEM
 62
     0
100
AcDbTrace
 10
132.8999999999999
 20
259.761903580431
 30
0.0
 11
132.8999999999999
 21
258.5952369137643
 31
0.0
 12
136.4
 22
259.1785702470976
 32
0.0
 13
136.4
 23
259.1785702470976
 33
0.0
  0
MTEXT
  5
B6D
330
B53
100
AcDbEntity
  8
BEM
 62
     1
100
AcDbMText
 10
112.5
 20
263.3452369137643
 30
0.0
 40
3.5
 41
0.0
 71
     5
 72
     1
  1
\A1;Rp1 1/2
 73
     1
 44
1.0
  0
POINT
  5
B6E
330
B53
100
AcDbEntity
  8
Defpoints
 62
     0
100
AcDbPoint
 10
88.59999999999997
 20
251.4551836073138
 30
0.0
  0
POINT
  5
B6F
330
B53
100
AcDbEntity
  8
Defpoints
 62
     0
100
AcDbPoint
 10
136.4
 20
251.4551836073138
 30
0.0
  0
POINT
  5
B70
330
B53
100
AcDbEntity
  8
Defpoints
 62
     0
100
AcDbPoint
 10
136.4
 20
259.1785702470976
 30
0.0
  0
ENDBLK
  5
B5E
330
B53
100
AcDbEntity
  8
0
100
AcDbBlockEnd
  0
ENDSEC
  0
SECTION
  2
ENTITIES
  0
LINE
  5
57
330
1E
100
AcDbEntity
  8
STEMPEL
100
AcDbLine
 10
205.0
 20
55.00000000000003
 30
0.0
 11
19.99999999999998
 21
55.0
 31
0.0
  0
LINE
  5
58
330
1E
100
AcDbEntity
  8
STEMPEL
100
AcDbLine
 10
68.00000000000006
 20
54.99999999999997
 30
0.0
 11
68.0
 21
4.999999999999985
 31
0.0
  0
LINE
  5
59
330
1E
100
AcDbEntity
  8
STEMPEL
100
AcDbLine
 10
110.0
 20
55.00000000000003
 30
0.0
 11
110.0
 21
4.999999999999985
 31
0.0
  0
LINE
  5
5A
330
1E
100
AcDbEntity
  8
STEMPEL
100
AcDbLine
 10
166.0
 20
54.99999999999989
 30
0.0
 11
166.0
 21
20.0
 31
0.0
  0
LINE
  5
5B
330
1E
100
AcDbEntity
  8
STEMPEL
100
AcDbLine
 10
67.99999999999994
 20
14.99999999999998
 30
0.0
 11
19.99999999999998
 21
14.99999999999998
 31
0.0
  0
LINE
  5
5C
330
1E
100
AcDbEntity
  8
STEMPEL
100
AcDbLine
 10
205.0
 20
20.0
 30
0.0
 11
68.00000000000006
 21
19.99999999999998
 31
0.0
  0
LINE
  5
5D
330
1E
100
AcDbEntity
  8
STEMPEL
100
AcDbLine
 10
205.0
 20
40.0
 30
0.0
 11
68.00000000000006
 21
39.99999999999997
 31
0.0
  0
LINE
  5
5E
330
1E
100
AcDbEntity
  8
VOLL
100
AcDbLine
 10
27.00000000000005
 20
55.00000000000003
 30
0.0
 11
26.99999999999999
 21
4.999999999999985
 31
0.0
  0
LINE
  5
5F
330
1E
100
AcDbEntity
  8
VOLL
100
AcDbLine
 10
47.00000000000005
 20
54.99999999999997
 30
0.0
 11
47.0
 21
4.999999999999985
 31
0.0
  0
LINE
  5
60
330
1E
100
AcDbEntity
  8
VOLL
100
AcDbLine
 10
57.00000000000006
 20
54.99999999999997
 30
0.0
 11
57.0
 21
4.999999999999985
 31
0.0
  0
LINE
  5
61
330
1E
100
AcDbEntity
  8
VOLL
100
AcDbLine
 10
77.00000000000006
 20
39.99999999999997
 30
0.0
 11
77.00000000000006
 21
19.99999999999998
 31
0.0
  0
LINE
  5
62
330
1E
100
AcDbEntity
  8
VOLL
100
AcDbLine
 10
90.00000000000005
 20
54.99999999999992
 30
0.0
 11
90.0
 21
19.99999999999998
 31
0.0
  0
LINE
  5
63
330
1E
100
AcDbEntity
  8
HILF
100
AcDbLine
 10
20.00000000000004
 20
50.00000000000003
 30
0.0
 11
68.00000000000006
 21
50.00000000000003
 31
0.0
  0
LINE
  5
64
330
1E
100
AcDbEntity
  8
HILF
100
AcDbLine
 10
20.00000000000004
 20
45.00000000000002
 30
0.0
 11
68.00000000000006
 21
45.00000000000002
 31
0.0
  0
LINE
  5
65
330
1E
100
AcDbEntity
  8
HILF
100
AcDbLine
 10
20.00000000000004
 20
39.99999999999997
 30
0.0
 11
68.00000000000006
 21
39.99999999999997
 31
0.0
  0
LINE
  5
66
330
1E
100
AcDbEntity
  8
HILF
100
AcDbLine
 10
20.00000000000004
 20
34.99999999999997
 30
0.0
 11
68.00000000000006
 21
34.99999999999997
 31
0.0
  0
LINE
  5
67
330
1E
100
AcDbEntity
  8
HILF
100
AcDbLine
 10
20.00000000000004
 20
29.99999999999999
 30
0.0
 11
68.00000000000006
 21
29.99999999999999
 31
0.0
  0
LINE
  5
68
330
1E
100
AcDbEntity
  8
HILF
100
AcDbLine
 10
20.00000000000004
 20
24.99999999999999
 30
0.0
 11
68.00000000000006
 21
24.99999999999999
 31
0.0
  0
LINE
  5
69
330
1E
100
AcDbEntity
  8
HILF
100
AcDbLine
 10
20.00000000000004
 20
19.99999999999998
 30
0.0
 11
68.00000000000006
 21
19.99999999999998
 31
0.0
  0
LINE
  5
6A
330
1E
100
AcDbEntity
  8
HILF
100
AcDbLine
 10
68.00000000000006
 20
34.99999999999997
 30
0.0
 11
110.0
 21
34.99999999999997
 31
0.0
  0
LINE
  5
6B
330
1E
100
AcDbEntity
  8
HILF
100
AcDbLine
 10
68.00000000000006
 20
29.99999999999999
 30
0.0
 11
110.0
 21
29.99999999999999
 31
0.0
  0
LINE
  5
6C
330
1E
100
AcDbEntity
  8
HILF
100
AcDbLine
 10
68.00000000000006
 20
24.99999999999999
 30
0.0
 11
110.0
 21
24.99999999999999
 31
0.0
  0
LINE
  5
6D
330
1E
100
AcDbEntity
  8
HILF
100
AcDbLine
 10
112.3868400548474
 20
42.01879123782069
 30
0.0
 11
162.4176958278155
 21
42.01879123782069
 31
0.0
  0
LINE
  5
6E
330
1E
100
AcDbEntity
  8
HILF
100
AcDbLine
 10
112.3868400548474
 20
34.99999999999997
 30
0.0
 11
162.4176958278155
 21
34.99999999999997
 31
0.0
  0
LINE
  5
6F
330
1E
100
AcDbEntity
  8
HILF
100
AcDbLine
 10
112.3868400548474
 20
29.99999999999999
 30
0.0
 11
162.4176958278155
 21
29.99999999999999
 31
0.0
  0
LINE
  5
70
330
1E
100
AcDbEntity
  8
HILF
100
AcDbLine
 10
112.3868400548474
 20
24.99999999999999
 30
0.0
 11
162.4176958278155
 21
24.99999999999999
 31
0.0
  0
LINE
  5
71
330
1E
100
AcDbEntity
  8
VOLL
100
AcDbLine
 10
166.0
 20
30.0
 30
0.0
 11
205.0
 21
30.0
 31
0.0
  0
LINE
  5
72
330
1E
100
AcDbEntity
  8
HILF
100
AcDbLine
 10
168.3619308148496
 20
41.88991818477913
 30
0.0
 11
202.4294419663364
 21
41.88991818477913
 31
0.0
  0
LINE
  5
73
330
1E
100
AcDbEntity
  8
HILF
100
AcDbLine
 10
111.7454849644942
 20
7.446991290141568
 30
0.0
 11
202.4294419663364
 21
7.446991290141568
 31
0.0
  0
TEXT
  5
74
330
1E
100
AcDbEntity
  8
TEXT
100
AcDbText
 10
31.71096305918511
 20
9.336909474920659
 30
0.0
 40
2.0
  1
Änderung
 41
0.8
  7
GREEKS
 72
     1
 11
37.08239163061369
 21
9.336909474920659
 31
0.0
100
AcDbText
  0
TEXT
  5
75
330
1E
100
AcDbEntity
  8
TEXT
100
AcDbText
 10
71.75817860751886
 20
51.23104475435443
 30
0.0
 40
2.5
  1
Maßstab
 41
0.8
  7
GREEKS
100
AcDbText
  0
TEXT
  5
76
330
1E
100
AcDbEntity
  8
TEXT
100
AcDbText
 10
92.14294773670257
 20
51.20920842174095
 30
0.0
 40
2.5
  1
Zul. Abw.
 41
0.8
  7
GREEKS
100
AcDbText
  0
TEXT
  5
77
330
1E
100
AcDbEntity
  8
TEXT
100
AcDbText
 10
112.4389701904505
 20
51.27446640058898
 30
0.0
 40
2.5
  1
Benennung
 41
0.8
  7
GREEKS
100
AcDbText
  0
TEXT
  5
78
330
1E
100
AcDbEntity
  8
TEXT
100
AcDbText
 10
168.089377478817
 20
51.15660172685682
 30
0.0
 40
2.5
  1
Zeichnungs Nr.
 41
0.8
  7
GREEKS
100
AcDbText
  0
TEXT
  5
79
330
1E
100
AcDbEntity
  8
TEXT
100
AcDbText
 10
112.371119195568
 20
15.42280285096528
 30
0.0
 40
2.5
  1
Bauvorhaben
 41
0.8
  7
GREEKS
100
AcDbText
  0
TEXT
  5
7A
330
1E
100
AcDbEntity
  8
TEXT
100
AcDbText
 10
168.3619308148496
 20
36.59059118549985
 30
0.0
 40
2.5
  1
Ersatz für:
 41
0.8
  7
GREEKS
100
AcDbText
  0
TEXT
  5
7B
330
1E
100
AcDbEntity
  8
TEXT
100
AcDbText
 10
24.13320553522878
 20
6.827329230135958
 30
0.0
 40
2.0
  1
Index
 50
90.0
 41
0.8
  7
GREEKS
100
AcDbText
  0
TEXT
  5
7C
330
1E
100
AcDbEntity
  8
TEXT
100
AcDbText
 10
49.79989095693829
 20
9.33578134669905
 30
0.0
 40
2.0
  1
Tag
 41
0.8
  7
GREEKS
 72
     1
 11
51.66655762360496
 21
9.33578134669905
 31
0.0
100
AcDbText
  0
TEXT
  5
7D
330
1E
100
AcDbEntity
  8
TEXT
100
AcDbText
 10
59.50613721932963
 20
9.29662108483204
 30
0.0
 40
2.0
  1
Name
 41
0.8
  7
GREEKS
 72
     1
 11
62.66804198123439
 21
9.29662108483204
 31
0.0
100
AcDbText
  0
TEXT
  5
7E
330
1E
100
AcDbEntity
  8
TEXT
100
AcDbText
 10
81.16558365768254
 20
36.65940250614963
 30
0.0
 40
2.0
  1
Tag
 41
0.8
  7
GREEKS
100
AcDbText
  0
TEXT
  5
7F
330
1E
100
AcDbEntity
  8
TEXT
100
AcDbText
 10
96.23132921131475
 20
36.65480545957612
 30
0.0
 40
2.0
  1
Name
 41
0.8
  7
GREEKS
100
AcDbText
  0
TEXT
  5
80
330
1E
100
AcDbEntity
  8
TEXT
100
AcDbText
 10
68.79180635838077
 20
31.81495184808982
 30
0.0
 40
2.0
  1
Gez.
 41
0.8
  7
GREEKS
100
AcDbText
  0
TEXT
  5
81
330
1E
100
AcDbEntity
  8
TEXT
100
AcDbText
 10
68.77575432858361
 20
26.84463145714189
 30
0.0
 40
2.0
  1
Gepr.
 41
0.8
  7
GREEKS
100
AcDbText
  0
TEXT
  5
82
330
1E
100
AcDbEntity
  8
TEXT
100
AcDbText
 10
68.80033886936519
 20
21.76473194824904
 30
0.0
 40
2.0
  1
Norm.
 41
0.8
  7
GREEKS
100
AcDbText
  0
LINE
  5
83
330
1E
100
AcDbEntity
  8
STEMPEL
100
AcDbLine
 10
24.99999999999995
 20
5.0
 30
0.0
 11
205.0
 21
5.0
 31
0.0
  0
TEXT
  5
84
330
1E
100
AcDbEntity
  8
TEXT
100
AcDbText
 10
168.6200430748503
 20
26.03708088939301
 30
0.0
 40
2.5
  1
ersetzt durch:
 41
0.8
  7
GREEKS
100
AcDbText
  0
LINE
  5
85
330
1E
100
AcDbEntity
  8
STEMPEL
100
AcDbLine
 10
205.0
 20
5.0
 30
0.0
 11
19.99999999999994
 21
5.0
 31
0.0
  0
LINE
  5
86
330
1E
100
AcDbEntity
  8
STEMPEL
100
AcDbLine
 10
205.0
 20
5.0
 30
0.0
 11
205.0
 21
292.0
 31
0.0
  0
LINE
  5
87
330
1E
100
AcDbEntity
  8
STEMPEL
100
AcDbLine
 10
20.0
 20
5.0
 30
0.0
 11
19.99999999999994
 21
292.0
 31
0.0
  0
LINE
  5
88
330
1E
100
AcDbEntity
  8
STEMPEL
100
AcDbLine
 10
205.0
 20
292.0
 30
0.0
 11
19.99999999999994
 21
292.0
 31
0.0
  0
LINE
  5
89
330
1E
100
AcDbEntity
  8
HILF
100
AcDbLine
 10
0.0
 20
0.0
 30
0.0
 11
-0.0000000000000568
 21
297.0
 31
0.0
  0
LINE
  5
8A
330
1E
100
AcDbEntity
  8
HILF
100
AcDbLine
 10
210.0
 20
297.0000000000001
 30
0.0
 11
0.0
 21
297.0
 31
0.0
  0
LINE
  5
8B
330
1E
100
AcDbEntity
  8
HILF
100
AcDbLine
 10
210.0
 20
0.0
 30
0.0
 11
0.0
 21
0.0
 31
0.0
  0
LINE
  5
8C
330
1E
100
AcDbEntity
  8
HILF
100
AcDbLine
 10
15.54383567856928
 20
148.5
 30
0.0
 11
0.0000000000000568
 21
148.5
 31
0.0
  0
TEXT
  5
8D
330
1E
100
AcDbEntity
  8
TEXT
100
AcDbText
 10
69.31105491105199
 20
36.57012735575833
 30
0.0
 40
2.0
  1
2011
 41
0.8
  7
GREEKS
100
AcDbText
  0
LINE
  5
8E
330
1E
100
AcDbEntity
  8
HILF
100
AcDbLine
 10
210.0
 20
-0.0000000000000568
 30
0.0
 11
210.0
 21
297.0
 31
0.0
  0
TEXT
  5
8F
330
1E
100
AcDbEntity
  8
VOLL
100
AcDbText
 10
78.07675471698113
 20
31.02594776470585
 30
0.0
 40
1.8
  1

  7
GREEKS
100
AcDbText
  0
TEXT
  5
90
330
1E
100
AcDbEntity
  8
TEXT
100
AcDbText
 10
20.92754975488837
 20
55.83599999999997
 30
0.0
 40
2.5
  1
Erstellt mit AUTOCAD 2004
 41
0.8
  7
GREEKS
100
AcDbText
  0
TEXT
  5
91
330
1E
100
AcDbEntity
  8
TEXT
100
AcDbText
 10
97.21080242906285
 20
31.54481959861755
 30
0.0
 40
2.0
  1
Koeh
 41
0.8
  7
GREEKS
 72
     1
 11
99.83937385763429
 21
31.54481959861755
 31
0.0
100
AcDbText
  0
TEXT
  5
92
330
1E
100
AcDbEntity
  8
TEXT
 62
     1
100
AcDbText
 10
173.5387692836532
 20
44.07450714456979
 30
0.0
 40
3.5
  1
00721050W
 41
0.8
  7
GREEKS
 72
     1
 11
185.2721026169866
 21
44.07450714456979
 31
0.0
100
AcDbText
  0
TEXT
  5
93
330
1E
100
AcDbEntity
  8
TEXT
 62
     1
100
AcDbText
 10
75.25031532409435
 20
44.07450714456979
 30
0.0
 40
3.5
  1
1:1
 41
0.8
  7
GREEKS
100
AcDbText
  0
TEXT
  5
94
330
1E
100
AcDbEntity
  8
TEXT
100
AcDbText
 10
80.35187950649897
 20
31.55382520412866
 30
0.0
 40
2.0
  1
01.04.
 41
0.8
  7
GREEKS
 72
     1
 11
83.70426045887993
 21
31.55382520412866
 31
0.0
100
AcDbText
  0
TEXT
  5
95
330
1E
100
AcDbEntity
  8
TEXT
 62
     1
100
AcDbText
 10
113.4467865528701
 20
43.70874394626889
 30
0.0
 40
3.5
  1
Anschlußstück DN50
 41
0.8
  7
GREEKS
100
AcDbText
  0
TEXT
  5
96
330
1E
100
AcDbEntity
  8
TEXT
100
AcDbText
 10
112.5648195562657
 20
35.75167208792644
 30
0.0
 40
2.5
  1
mit Gewinde Rp1 1/2
 41
0.8
  7
GREEKS
100
AcDbText
  0
TEXT
  5
98
330
1E
100
AcDbEntity
  8
TEXT
100
AcDbText
 10
112.5648195562657
 20
25.82005971521079
 30
0.0
 40
2.5
  1
EDV-Art.Nr. 00721.050X
 41
0.8
  7
GREEKS
100
AcDbText
  0
TEXT
  5
99
330
1E
100
AcDbEntity
  8
TEXT
100
AcDbText
 10
112.4918750788913
 20
21.31487076511316
 30
0.0
 40
2.0
  1
00721050W.DWG
 41
0.8
  7
GREEKS
100
AcDbText
  0
TEXT
  5
9A
330
1E
100
AcDbEntity
  8
TEXT
100
AcDbText
 10
91.31306610404202
 20
45.38181920511511
 30
0.0
 40
2.0
  1
DIN EN1123-2
 41
0.8
  7
GREEKS
 72
     1
 11
99.80830419928011
 21
45.38181920511511
 31
0.0
100
AcDbText
  0
INSERT
  5
9B
330
1E
100
AcDbEntity
  8
STEMPEL
100
AcDbBlockReference
  2
LOGO
 10
70.4977742728897
 20
22.51052638224161
 30
0.0
  0
TEXT
  5
118
330
1E
100
AcDbEntity
  8
BEM
100
AcDbText
 10
208.6511461928583
 20
5.083950539994247
 30
0.0
 40
2.0
  1
Diese Zeichnung ist urheberrechtlich geschützt und bleibt unser Eigentum. Sie darf weder ganz noch teilweise verfielfältigt und nicht an Dritte weitergegeben werden.
 50
90.0
 41
0.8
  7
GREEKS
100
AcDbText
  0
TEXT
  5
2B3
330
1E
100
AcDbEntity
  8
TEXT
 62
     1
100
AcDbText
 10
104.1938082061664
 20
140.1249800082354
 30
0.0
 40
3.5
  1
DN50
 50
90.0
 41
0.8
  7
GREEKS
100
AcDbText
  0
TEXT
  5
2B4
330
1E
100
AcDbEntity
  8
TEXT
 62
     1
100
AcDbText
 10
138.1725262906716
 20
83.34804688148429
 30
0.0
 40
3.5
  1
Rohrende leicht eingezogen
 41
0.8
  7
GREEKS
100
AcDbText
  0
TEXT
  5
44C
330
1E
100
AcDbEntity
  8
TEXT
 62
     1
100
AcDbText
 10
93.32802422862448
 20
69.90022919477588
 30
0.0
 40
3.5
  1
Werkstoff: E195 EN10305 galv.verzinkt
 41
0.8
  7
GREEKS
100
AcDbText
  0
DIMENSION
  5
91C
330
1E
100
AcDbEntity
  8
BEM
100
AcDbDimension
  2
*D4
 10
66.38513444797874
 20
111.4551836073138
 30
0.0
 11
63.13513444797873
 21
181.4551836073138
 31
0.0
 70
    32
 71
     5
 42
140.0
  3
Standard
100
AcDbAlignedDimension
 13
85.24999999999998
 23
251.4551836073138
 33
0.0
 14
86.87488663525924
 24
111.4551836073138
 34
0.0
 50
90.0
100
AcDbRotatedDimension
1001
ACAD
1000
DSTYLE
1002
{
1070
    41
1040
3.5
1070
    42
1040
1.0
1070
    43
1040
7.0
1070
    44
1040
1.0
1070
    73
1070
     0
1070
    74
1070
     0
1070
    77
1070
     1
1070
    78
1070
     8
1070
    79
1070
     2
1070
   140
1040
3.5
1070
   141
1040
1.5
1070
   146
1040
0.5142857142857144
1070
   147
1040
1.5
1070
   172
1070
     1
1070
   178
1070
     1
1070
   179
1070
     2
1070
   271
1070
     2
1070
   272
1070
     2
1070
   284
1070
     8
1070
   285
1070
     8
1070
   286
1070
     8
1002
}
  0
DIMENSION
  5
91D
330
1E
100
AcDbEntity
  8
BEM
100
AcDbDimension
  2
*D5
 10
74.98865413639983
 20
111.4551836073138
 30
0.0
 11
71.73865413639981
 21
163.9551836073138
 31
0.0
 70
    32
 71
     5
 42
105.0
  3
Standard
100
AcDbAlignedDimension
 13
85.24999999999998
 23
216.4551836073138
 33
0.0
 14
86.87488663525924
 24
111.4551836073138
 34
0.0
 50
90.0
100
AcDbRotatedDimension
1001
ACAD
1000
DSTYLE
1002
{
1070
    41
1040
3.5
1070
    42
1040
1.0
1070
    43
1040
7.0
1070
    44
1040
1.0
1070
    73
1070
     0
1070
    74
1070
     0
1070
    77
1070
     1
1070
    78
1070
     8
1070
    79
1070
     2
1070
   140
1040
3.5
1070
   141
1040
1.5
1070
   146
1040
0.5142857142857144
1070
   147
1040
1.5
1070
   172
1070
     1
1070
   178
1070
     1
1070
   179
1070
     2
1070
   271
1070
     2
1070
   272
1070
     2
1070
   284
1070
     8
1070
   285
1070
     8
1070
   286
1070
     8
1002
}
  0
ARC
  5
91F
102
{ACAD_REACTORS
330
C39
102
}
330
1E
100
AcDbEntity
  8
SCHRAFF
100
AcDbCircle
 10
94.24799858334342
 20
217.3239628253949
 30
0.0
 40
9.039842688654502
100
AcDbArc
 50
185.5149553810668
 51
216.3255365969104
  0
ARC
  5
920
102
{ACAD_REACTORS
330
C39
102
}
330
1E
100
AcDbEntity
  8
SCHRAFF
100
AcDbCircle
 10
130.7520014166565
 20
217.3239628253949
 30
0.0
 40
9.039842688654502
100
AcDbArc
 50
323.6744634030896
 51
354.4850446189331
  0
LINE
  5
921
330
1E
100
AcDbEntity
  8
MITTEL
100
AcDbLine
 10
112.5
 20
256.4551836073139
 30
0.0
 11
112.4999999999999
 21
106.4551836073138
 31
0.0
  0
LINE
  5
927
102
{ACAD_REACTORS
330
C39
102
}
330
1E
100
AcDbEntity
  8
STEMPEL
100
AcDbLine
 10
85.99999999999999
 20
206.4551836073138
 30
0.0
 11
87.74999999999998
 21
216.4551836073138
 31
0.0
  0
LINE
  5
928
102
{ACAD_REACTORS
330
C39
102
}
330
1E
100
AcDbEntity
  8
STEMPEL
100
AcDbLine
 10
137.25
 20
216.4551836073138
 30
0.0
 11
139.0
 21
206.4551836073138
 31
0.0
  0
DIMENSION
  5
936
330
1E
100
AcDbEntity
  8
BEM
100
AcDbDimension
  2
*D1
 10
74.98865415848396
 20
216.4551836073138
 30
0.0
 11
71.73865415848394
 21
233.9551836073139
 31
0.0
 70
    32
 71
     5
 42
35.00000000000003
  3
Standard
100
AcDbAlignedDimension
 13
85.24999999999998
 23
251.4551836073138
 33
0.0
 14
85.25
 24
216.4551836073138
 34
0.0
 50
90.0
100
AcDbRotatedDimension
1001
ACAD
1000
DSTYLE
1002
{
1070
    41
1040
3.5
1070
    42
1040
1.0
1070
    43
1040
7.0
1070
    44
1040
1.0
1070
    73
1070
     0
1070
    74
1070
     0
1070
    77
1070
     1
1070
    78
1070
     8
1070
    79
1070
     2
1070
   140
1040
3.5
1070
   141
1040
1.5
1070
   146
1040
0.5142857142857144
1070
   147
1040
1.5
1070
   172
1070
     1
1070
   178
1070
     1
1070
   179
1070
     2
1070
   271
1070
     2
1070
   272
1070
     2
1070
   284
1070
     8
1070
   285
1070
     8
1070
   286
1070
     8
1002
}
  0
DIMENSION
  5
938
330
1E
100
AcDbEntity
  8
BEM
100
AcDbDimension
  2
*D2
 10
139.0
 20
97.82343423851102
 30
0.0
 11
112.5
 21
101.073434238511
 31
0.0
 70
    32
  1
%%C<>
 71
     5
 42
53.00000000000001
  3
Standard
100
AcDbAlignedDimension
 13
85.99999999999999
 23
117.2891848556418
 33
0.0
 14
139.0
 24
117.2891848556418
 34
0.0
100
AcDbRotatedDimension
1001
ACAD
1000
DSTYLE
1002
{
1070
    41
1040
3.5
1070
    42
1040
1.0
1070
    43
1040
7.0
1070
    44
1040
1.0
1070
    73
1070
     0
1070
    74
1070
     0
1070
    77
1070
     1
1070
    78
1070
     8
1070
    79
1070
     2
1070
   140
1040
3.5
1070
   141
1040
1.5
1070
   146
1040
0.5142857142857144
1070
   147
1040
1.5
1070
   172
1070
     1
1070
   178
1070
     1
1070
   179
1070
     2
1070
   271
1070
     2
1070
   272
1070
     2
1070
   284
1070
     8
1070
   285
1070
     8
1070
   286
1070
     8
1002
}
  0
POLYLINE
  5
93A
102
{ACAD_REACTORS
330
CE6
102
}
330
1E
100
AcDbEntity
  8
HILF
100
AcDb2dPolyline
 66
     1
 10
0.0
 20
0.0
 30
0.0
 70
     4
 75
     6
  0
VERTEX
  5
C7A
330
93A
100
AcDbEntity
  8
HILF
100
AcDbVertex
100
AcDb2dVertex
 10
139.75
 20
231.0894017015249
 30
0.0
 70
    16
  0
VERTEX
  5
C7B
330
93A
100
AcDbEntity
  8
HILF
100
AcDbVertex
100
AcDb2dVertex
 10
139.75
 20
231.0894017015249
 30
0.0
 70
     8
  0
VERTEX
  5
C7C
330
93A
100
AcDbEntity
  8
HILF
100
AcDbVertex
100
AcDb2dVertex
 10
139.2564090407445
 20
230.9465218748941
 30
0.0
 70
     8
  0
VERTEX
  5
C7D
330
93A
100
AcDbEntity
  8
HILF
100
AcDbVertex
100
AcDb2dVertex
 10
138.3806783794027
 20
230.6975246075339
 30
0.0
 70
     8
  0
VERTEX
  5
C7E
330
93A
100
AcDbEntity
  8
HILF
100
AcDbVertex
100
AcDb2dVertex
 10
137.1866213406116
 20
230.3661606322554
 30
0.0
 70
     8
  0
VERTEX
  5
C7F
330
93A
100
AcDbEntity
  8
HILF
100
AcDbVertex
100
AcDb2dVertex
 10
135.738051249008
 20
229.97618068187
 30
0.0
 70
     8
  0
VERTEX
  5
C80
330
93A
100
AcDbEntity
  8
HILF
100
AcDbVertex
100
AcDb2dVertex
 10
134.0987814292288
 20
229.5513354891889
 30
0.0
 70
     8
  0
VERTEX
  5
C81
330
93A
100
AcDbEntity
  8
HILF
100
AcDbVertex
100
AcDb2dVertex
 10
132.332625205911
 20
229.1153757870232
 30
0.0
 70
     8
  0
VERTEX
  5
C82
330
93A
100
AcDbEntity
  8
HILF
100
AcDbVertex
100
AcDb2dVertex
 10
130.5033959036916
 20
228.6920523081843
 30
0.0
 70
     8
  0
VERTEX
  5
C83
330
93A
100
AcDbEntity
  8
HILF
100
AcDbVertex
100
AcDb2dVertex
 10
128.6749068472073
 20
228.3051157854831
 30
0.0
 70
     8
  0
VERTEX
  5
C84
330
93A
100
AcDbEntity
  8
HILF
100
AcDbVertex
100
AcDb2dVertex
 10
126.8988789159436
 20
227.9740452791327
 30
0.0
 70
     8
  0
VERTEX
  5
C85
330
93A
100
AcDbEntity
  8
HILF
100
AcDbVertex
100
AcDb2dVertex
 10
125.17866320878
 20
227.7012331589519
 30
0.0
 70
     8
  0
VERTEX
  5
C86
330
93A
100
AcDbEntity
  8
HILF
100
AcDbVertex
100
AcDb2dVertex
 10
123.5055183794441
 20
227.4848001221609
 30
0.0
 70
     8
  0
VERTEX
  5
C87
330
93A
100
AcDbEntity
  8
HILF
100
AcDbVertex
100
AcDb2dVertex
 10
121.8707030816638
 20
227.32286686598
 30
0.0
 70
     8
  0
VERTEX
  5
C88
330
93A
100
AcDbEntity
  8
HILF
100
AcDbVertex
100
AcDb2dVertex
 10
120.2654759691669
 20
227.2135540876297
 30
0.0
 70
     8
  0
VERTEX
  5
C89
330
93A
100
AcDbEntity
  8
HILF
100
AcDbVertex
100
AcDb2dVertex
 10
118.6810956956814
 20
227.1549824843303
 30
0.0
 70
     8
  0
VERTEX
  5
C8A
330
93A
100
AcDbEntity
  8
HILF
100
AcDbVertex
100
AcDb2dVertex
 10
117.1088209149349
 20
227.145272753302
 30
0.0
 70
     8
  0
VERTEX
  5
C8B
330
93A
100
AcDbEntity
  8
HILF
100
AcDbVertex
100
AcDb2dVertex
 10
115.5399102806553
 20
227.1825455917654
 30
0.0
 70
     8
  0
VERTEX
  5
C8C
330
93A
100
AcDbEntity
  8
HILF
100
AcDbVertex
100
AcDb2dVertex
 10
113.9677514875915
 20
227.2643996683906
 30
0.0
 70
     8
  0
VERTEX
  5
C8D
330
93A
100
AcDbEntity
  8
HILF
100
AcDbVertex
100
AcDb2dVertex
 10
112.3942483945763
 20
227.3863455376486
 30
0.0
 70
     8
  0
VERTEX
  5
C8E
330
93A
100
AcDbEntity
  8
HILF
100
AcDbVertex
100
AcDb2dVertex
 10
110.8234339014638
 20
227.5433717254603
 30
0.0
 70
     8
  0
VERTEX
  5
C8F
330
93A
100
AcDbEntity
  8
HILF
100
AcDbVertex
100
AcDb2dVertex
 10
109.2593409081079
 20
227.7304667577466
 30
0.0
 70
     8
  0
VERTEX
  5
C90
330
93A
100
AcDbEntity
  8
HILF
100
AcDbVertex
100
AcDb2dVertex
 10
107.7060023143625
 20
227.9426191604284
 30
0.0
 70
     8
  0
VERTEX
  5
C91
330
93A
100
AcDbEntity
  8
HILF
100
AcDbVertex
100
AcDb2dVertex
 10
106.1674510200816
 20
228.1748174594266
 30
0.0
 70
     8
  0
VERTEX
  5
C92
330
93A
100
AcDbEntity
  8
HILF
100
AcDbVertex
100
AcDb2dVertex
 10
104.6477199251191
 20
228.422050180662
 30
0.0
 70
     8
  0
VERTEX
  5
C93
330
93A
100
AcDbEntity
  8
HILF
100
AcDbVertex
100
AcDb2dVertex
 10
103.1508419293289
 20
228.6793058500557
 30
0.0
 70
     8
  0
VERTEX
  5
C94
330
93A
100
AcDbEntity
  8
HILF
100
AcDbVertex
100
AcDb2dVertex
 10
101.6803452539943
 20
228.9411031678335
 30
0.0
 70
     8
  0
VERTEX
  5
C95
330
93A
100
AcDbEntity
  8
HILF
100
AcDbVertex
100
AcDb2dVertex
 10
100.2377394061151
 20
229.2000815314419
 30
0.0
 70
     8
  0
VERTEX
  5
C96
330
93A
100
AcDbEntity
  8
HILF
100
AcDbVertex
100
AcDb2dVertex
 10
98.82402921412037
 20
229.4484105126322
 30
0.0
 70
     8
  0
VERTEX
  5
C97
330
93A
100
AcDbEntity
  8
HILF
100
AcDbVertex
100
AcDb2dVertex
 10
97.44021950643919
 20
229.6782596831557
 30
0.0
 70
     8
  0
VERTEX
  5
C98
330
93A
100
AcDbEntity
  8
HILF
100
AcDbVertex
100
AcDb2dVertex
 10
96.08731511150065
 20
229.8817986147641
 30
0.0
 70
     8
  0
VERTEX
  5
C99
330
93A
100
AcDbEntity
  8
HILF
100
AcDbVertex
100
AcDb2dVertex
 10
94.76632085773387
 20
230.0511968792085
 30
0.0
 70
     8
  0
VERTEX
  5
C9A
330
93A
100
AcDbEntity
  8
HILF
100
AcDbVertex
100
AcDb2dVertex
 10
93.47824157356788
 20
230.1786240482406
 30
0.0
 70
     8
  0
VERTEX
  5
C9B
330
93A
100
AcDbEntity
  8
HILF
100
AcDbVertex
100
AcDb2dVertex
 10
92.2240820874318
 20
230.2562496936116
 30
0.0
 70
     8
  0
VERTEX
  5
C9C
330
93A
100
AcDbEntity
  8
HILF
100
AcDbVertex
100
AcDb2dVertex
 10
91.00820172318652
 20
230.2794479031822
 30
0.0
 70
     8
  0
VERTEX
  5
C9D
330
93A
100
AcDbEntity
  8
HILF
100
AcDbVertex
100
AcDb2dVertex
 10
89.84837778642022
 20
230.2564108292499
 30
0.0
 70
     8
  0
VERTEX
  5
C9E
330
93A
100
AcDbEntity
  8
HILF
100
AcDbVertex
100
AcDb2dVertex
 10
88.76574207815286
 20
230.1985351402212
 30
0.0
 70
     8
  0
VERTEX
  5
C9F
330
93A
100
AcDbEntity
  8
HILF
100
AcDbVertex
100
AcDb2dVertex
 10
87.78142639940446
 20
230.1172175045028
 30
0.0
 70
     8
  0
VERTEX
  5
CA0
330
93A
100
AcDbEntity
  8
HILF
100
AcDbVertex
100
AcDb2dVertex
 10
86.91656255119498
 20
230.0238545905014
 30
0.0
 70
     8
  0
VERTEX
  5
CA1
330
93A
100
AcDbEntity
  8
HILF
100
AcDbVertex
100
AcDb2dVertex
 10
86.19228233454441
 20
229.9298430666237
 30
0.0
 70
     8
  0
VERTEX
  5
CA2
330
93A
100
AcDbEntity
  8
HILF
100
AcDbVertex
100
AcDb2dVertex
 10
85.62971755047277
 20
229.8465796012762
 30
0.0
 70
     8
  0
VERTEX
  5
CA3
330
93A
100
AcDbEntity
  8
HILF
100
AcDbVertex
100
AcDb2dVertex
 10
85.24999999999998
 20
229.7854608628656
 30
0.0
 70
     8
  0
VERTEX
  5
93B
330
93A
100
AcDbEntity
  8
HILF
100
AcDbVertex
100
AcDb2dVertex
 10
139.0
 20
230.8709905139808
 30
0.0
 70
    16
  0
VERTEX
  5
93D
330
93A
100
AcDbEntity
  8
HILF
100
AcDbVertex
100
AcDb2dVertex
 10
127.9863354299045
 20
227.6636471033587
 30
0.0
 70
    16
  0
VERTEX
  5
93F
330
93A
100
AcDbEntity
  8
HILF
100
AcDbVertex
100
AcDb2dVertex
 10
115.5972670785781
 20
226.701444080172
 30
0.0
 70
    16
  0
VERTEX
  5
941
330
93A
100
AcDbEntity
  8
HILF
100
AcDbVertex
100
AcDb2dVertex
 10
102.8640579397149
 20
228.6258501265453
 30
0.0
 70
    16
  0
VERTEX
  5
943
330
93A
100
AcDbEntity
  8
HILF
100
AcDbVertex
100
AcDb2dVertex
 10
91.85155273853595
 20
230.8709905139808
 30
0.0
 70
    16
  0
VERTEX
  5
945
330
93A
100
AcDbEntity
  8
HILF
100
AcDbVertex
100
AcDb2dVertex
 10
85.99999999999999
 20
229.9087874907942
 30
0.0
 70
    16
  0
VERTEX
  5
C72
330
93A
100
AcDbEntity
  8
HILF
100
AcDbVertex
100
AcDb2dVertex
 10
85.24999999999998
 20
229.7854608628656
 30
0.0
 70
    16
  0
SEQEND
  5
946
330
93A
100
AcDbEntity
  8
HILF
  0
LINE
  5
947
330
1E
100
AcDbEntity
  8
HILF
100
AcDbLine
 10
87.5847633819122
 20
206.8092855735635
 30
0.0
 11
137.4152366180878
 21
206.8092855735635
 31
0.0
  0
LINE
  5
94A
330
1E
100
AcDbEntity
  8
STEMPEL
100
AcDbLine
 10
139.0
 20
117.2891848556418
 30
0.0
 11
138.1251133647407
 21
111.4551836073138
 31
0.0
  0
LINE
  5
94B
330
1E
100
AcDbEntity
  8
STEMPEL
100
AcDbLine
 10
85.99999999999999
 20
117.2891848556418
 30
0.0
 11
86.87488663525924
 21
111.4551836073138
 31
0.0
  0
LINE
  5
94C
330
1E
100
AcDbEntity
  8
HILF
100
AcDbLine
 10
87.49999999999998
 20
117.2891848556418
 30
0.0
 11
137.5
 21
117.2891848556418
 31
0.0
  0
LINE
  5
94D
330
1E
100
AcDbEntity
  8
STEMPEL
100
AcDbLine
 10
139.0
 20
206.4551836073138
 30
0.0
 11
139.0
 21
117.2891848556418
 31
0.0
  0
LINE
  5
94E
330
1E
100
AcDbEntity
  8
STEMPEL
100
AcDbLine
 10
85.99999999999999
 20
206.4551836073138
 30
0.0
 11
85.99999999999999
 21
117.2891848556418
 31
0.0
  0
LINE
  5
94F
330
1E
100
AcDbEntity
  8
STEMPEL
100
AcDbLine
 10
86.87488663525924
 20
111.4551836073138
 30
0.0
 11
138.1251133647407
 21
111.4551836073138
 31
0.0
  0
LINE
  5
950
102
{ACAD_REACTORS
330
C39
102
}
330
1E
100
AcDbEntity
  8
STEMPEL
100
AcDbLine
 10
85.24999999999998
 20
216.4551836073138
 30
0.0
 11
139.75
 21
216.4551836073138
 31
0.0
  0
LINE
  5
B3C
102
{ACAD_REACTORS
330
CE6
102
}
330
1E
100
AcDbEntity
  8
STEMPEL
100
AcDbLine
 10
139.7499999999999
 20
251.4551836073138
 30
0.0
 11
139.75
 21
216.4551836073138
 31
0.0
  0
LINE
  5
B3D
102
{ACAD_REACTORS
330
CE6
102
}
330
1E
100
AcDbEntity
  8
STEMPEL
100
AcDbLine
 10
85.24999999999998
 20
251.4551836073138
 30
0.0
 11
139.7499999999999
 21
251.4551836073138
 31
0.0
  0
LINE
  5
B3E
102
{ACAD_REACTORS
330
CE6
102
}
330
1E
100
AcDbEntity
  8
HILF
100
AcDbLine
 10
136.4
 20
251.4551836073138
 30
0.0
 11
136.4
 21
230.154388655765
 31
0.0
  0
LINE
  5
B3F
102
{ACAD_REACTORS
330
CE6
102
}
330
1E
100
AcDbEntity
  8
STEMPEL
100
AcDbLine
 10
134.8999999999999
 20
249.9551836073139
 30
0.0
 11
134.8999999999999
 21
229.7589851719755
 31
0.0
  0
DIMENSION
  5
B40
330
1E
100
AcDbEntity
  8
BEM
100
AcDbDimension
  2
*D7
 10
136.4
 20
259.1785702470976
 30
0.0
 11
112.5
 21
263.3452369137643
 31
0.0
 70
    32
  1
Rp1 1/2
 71
     5
 42
47.80000000000001
  3
Standard
100
AcDbAlignedDimension
 13
88.59999999999997
 23
251.4551836073138
 33
0.0
 14
136.4
 24
251.4551836073138
 34
0.0
100
AcDbRotatedDimension
1001
ACAD
1000
DSTYLE
1002
{
1070
    41
1040
3.5
1070
    42
1040
1.0
1070
    43
1040
7.0
1070
    44
1040
1.0
1070
    73
1070
     0
1070
    74
1070
     0
1070
    77
1070
     1
1070
    78
1070
     8
1070
    79
1070
     2
1070
   140
1040
3.5
1070
   141
1040
1.5
1070
   146
1040
0.5142857142857144
1070
   147
1040
1.5
1070
   172
1070
     1
1070
   178
1070
     1
1070
   179
1070
     2
1070
   271
1070
     2
1070
   272
1070
     2
1070
   284
1070
     8
1070
   285
1070
     8
1070
   286
1070
     8
1002
}
  0
LINE
  5
B41
102
{ACAD_REACTORS
330
CE6
102
}
330
1E
100
AcDbEntity
  8
STEMPEL
100
AcDbLine
 10
136.4
 20
251.4551836073138
 30
0.0
 11
134.8999999999999
 21
249.9551836073139
 31
0.0
  0
LINE
  5
B42
330
1E
100
AcDbEntity
  8
STEMPEL
100
AcDbLine
 10
90.09999999999996
 20
249.9551836073139
 30
0.0
 11
134.8999999999999
 21
249.9551836073139
 31
0.0
  0
LINE
  5
B43
102
{ACAD_REACTORS
330
CE6
102
}
330
1E
100
AcDbEntity
  8
STEMPEL
100
AcDbLine
 10
85.24999999999998
 20
251.4551836073138
 30
0.0
 11
85.24999999999998
 21
216.4551836073138
 31
0.0
  0
LINE
  5
B44
102
{ACAD_REACTORS
330
CE6
102
}
330
1E
100
AcDbEntity
  8
HILF
100
AcDbLine
 10
88.59999999999997
 20
251.4551836073138
 30
0.0
 11
88.59999999999997
 21
230.1848426285348
 31
0.0
  0
LINE
  5
B45
102
{ACAD_REACTORS
330
CE6
102
}
330
1E
100
AcDbEntity
  8
STEMPEL
100
AcDbLine
 10
90.09999999999996
 20
249.9551836073139
 30
0.0
 11
90.09999999999996
 21
230.2614086908679
 31
0.0
  0
LINE
  5
B46
102
{ACAD_REACTORS
330
CE6
102
}
330
1E
100
AcDbEntity
  8
STEMPEL
100
AcDbLine
 10
88.59999999999997
 20
251.4551836073138
 30
0.0
 11
90.09999999999996
 21
249.9551836073139
 31
0.0
  0
HATCH
  5
C39
330
1E
100
AcDbEntity
  8
SCHRAFF
100
AcDbHatch
 10
0.0
 20
0.0
 30
0.0
210
0.0
220
0.0
230
1.0
  2
_U
 70
     0
 71
     1
 91
        2
 92
        7
 72
     1
 73
     1
 93
        3
 10
86.96491966005181
 20
211.9690102361813
 42
0.0
 10
87.75
 20
216.4551836073139
 42
0.0
 10
85.24999999999998
 20
216.4551836073138
 42
0.135252318201183
 97
        3
330
950
330
91F
330
927
 92
        7
 72
     1
 73
     1
 93
        3
 10
138.0350803399482
 20
211.9690102361813
 42
0.1352523182011814
 10
139.75
 20
216.4551836073138
 42
0.0
 10
137.25
 20
216.4551836073139
 42
0.0
 97
        3
330
950
330
928
330
920
 75
     0
 76
     0
 52
0.0
 41
0.1
 77
     0
 78
     1
 53
0.0
 43
0.0
 44
0.0
 45
0.0
 46
0.1
 79
     0
 47
0.1750785235448302
 98
        2
 10
86.26028001438703
 20
215.2458063381526
 10
138.2949757892534
 20
215.4208845720816
  0
HATCH
  5
CE6
330
1E
100
AcDbEntity
  8
SCHRAFF
100
AcDbHatch
 10
0.0
 20
0.0
 30
0.0
210
0.0
220
0.0
230
1.0
  2
_USER
 70
     0
 71
     1
 91
        4
 92
        7
 72
     0
 73
     1
 93
        7
 10
139.7499999999999
 20
251.4551836073138
 10
136.3999999999999
 20
251.4551836073138
 10
136.4
 20
230.1543886557649
 10
137.1866213406057
 20
230.3661606322532
 10
138.3806783794005
 20
230.6975246075332
 10
139.2564090407519
 20
230.9465218748975
 10
139.7499999999999
 20
231.0894017015249
 97
        4
330
B3D
330
B3E
330
93A
330
B3C
 92
        7
 72
     0
 73
     1
 93
        5
 10
136.4
 20
251.4551836073138
 10
134.8999999999999
 20
249.9551836073138
 10
134.8999999999999
 20
229.7589851719755
 10
135.7380512490119
 20
229.9761806818705
 10
136.4
 20
230.1543886557647
 97
        4
330
B41
330
B3F
330
93A
330
B3E
 92
        7
 72
     0
 73
     1
 93
        6
 10
90.09999999999996
 20
249.9551836073139
 10
88.59999999999997
 20
251.4551836073138
 10
88.59999999999995
 20
230.1848426285348
 10
88.76574207815304
 20
230.1985351402212
 10
89.84837778641978
 20
230.2564108292499
 10
90.09999999999996
 20
230.2614086908679
 97
        4
330
B46
330
B44
330
93A
330
B45
 92
        7
 72
     0
 73
     1
 93
        8
 10
88.59999999999995
 20
251.4551836073138
 10
85.24999999999996
 20
251.4551836073138
 10
85.25
 20
229.7854608628656
 10
85.62971755047533
 20
229.8465796012766
 10
86.19228233454348
 20
229.9298430666237
 10
86.9165625511936
 20
230.0238545905011
 10
87.78142639940394
 20
230.1172175045027
 10
88.59999999999997
 20
230.1848426285347
 97
        4
330
B3D
330
B43
330
93A
330
B44
 75
     0
 76
     0
 52
45.0
 41
3.0
 77
     0
 78
     1
 53
45.0
 43
0.0
 44
0.0
 45
-2.121320343559642
 46
2.121320343559642
 79
     0
 47
0.1388183007103482
 98
        4
 10
138.5803266854277
 20
245.2450258352929
 10
135.6641587835981
 20
246.4943904846209
 10
89.69980430584792
 20
246.3555719573802
 10
87.61682740231822
 20
246.6332083132489
  0
ARC
  5
CE9
330
1E
100
AcDbEntity
  8
SCHRAFF
100
AcDbCircle
 10
85.6771996843055
 20
214.2190102361813
 30
0.0
 40
5.0
100
AcDbArc
 50
333.2563160495973
 51
26.56640145935517
  0
ARC
  5
CEA
330
1E
100
AcDbEntity
  8
SCHRAFF
100
AcDbCircle
 10
90.6771996843055
 20
214.2190102361813
 30
0.0
 40
5.0
100
AcDbArc
 50
333.2563160495973
 51
26.56640145935517
  0
ARC
  5
CEB
330
1E
100
AcDbEntity
  8
SCHRAFF
100
AcDbCircle
 10
100.6771996843055
 20
214.2190102361813
 30
0.0
 40
5.0
100
AcDbArc
 50
333.2563160495973
 51
26.56640145935517
  0
ARC
  5
CEC
330
1E
100
AcDbEntity
  8
SCHRAFF
100
AcDbCircle
 10
95.6771996843055
 20
214.2190102361813
 30
0.0
 40
5.0
100
AcDbArc
 50
333.2563160495973
 51
26.56640145935517
  0
ARC
  5
CED
330
1E
100
AcDbEntity
  8
SCHRAFF
100
AcDbCircle
 10
105.6771996843055
 20
214.2190102361813
 30
0.0
 40
5.0
100
AcDbArc
 50
333.2563160495973
 51
26.56640145935517
  0
ENDSEC
  0
SECTION
  2
OBJECTS
  0
DICTIONARY
  5
C
330
0
100
AcDbDictionary
281
     1
  3
ACAD_COLOR
350
DF
  3
ACAD_GROUP
350
D
  3
ACAD_LAYOUT
350
19
  3
ACAD_MATERIAL
350
DE
  3
ACAD_MLINESTYLE
350
16
  3
ACAD_PLOTSETTINGS
350
18
  3
ACAD_PLOTSTYLENAME
350
E
  3
AcDbVariableDictionary
350
EA
  0
DICTIONARY
  5
A0
330
1E
100
AcDbDictionary
280
     1
281
     1
  3
ACAD_LAYOUTSELFREF
360
D4
  0
DICTIONARY
  5
A2
330
1A
100
AcDbDictionary
280
     1
281
     1
  3
ACAD_LAYOUTSELFREF
360
D3
  0
DICTIONARY
  5
DF
102
{ACAD_REACTORS
330
C
102
}
330
C
100
AcDbDictionary
281
     1
  0
DICTIONARY
  5
D
102
{ACAD_REACTORS
330
C
102
}
330
C
100
AcDbDictionary
281
     1
  0
DICTIONARY
  5
19
102
{ACAD_REACTORS
330
C
102
}
330
C
100
AcDbDictionary
281
     1
  3
Layout1
350
1D
  3
Model
350
21
  0
DICTIONARY
  5
DE
102
{ACAD_REACTORS
330
C
102
}
330
C
100
AcDbDictionary
281
     1
  0
DICTIONARY
  5
16
102
{ACAD_REACTORS
330
C
102
}
330
C
100
AcDbDictionary
281
     1
  3
Standard
350
17
  0
DICTIONARY
  5
18
102
{ACAD_REACTORS
330
C
102
}
330
C
100
AcDbDictionary
281
     1
  0
ACDBDICTIONARYWDFLT
  5
E
102
{ACAD_REACTORS
330
C
102
}
330
C
100
AcDbDictionary
281
     1
  3
Normal
350
F
100
AcDbDictionaryWithDefault
340
F
  0
DICTIONARY
  5
EA
102
{ACAD_REACTORS
330
C
102
}
330
C
100
AcDbDictionary
281
     1
  3
DIMASSOC
350
EB
  3
PROJECTNAME
350
EC
  0
XRECORD
  5
D4
102
{ACAD_REACTORS
330
A0
102
}
330
A0
100
AcDbXrecord
280
     1
340
1E
  0
XRECORD
  5
D3
102
{ACAD_REACTORS
330
A2
102
}
330
A2
100
AcDbXrecord
280
     1
340
1A
  0
LAYOUT
  5
1D
102
{ACAD_REACTORS
330
19
102
}
330
19
100
AcDbPlotSettings
  1

  2
\\NT_WORK01\HP LaserJet 5000 PCL 6
  4

  6

 40
0.0
 41
0.0
 42
0.0
 43
0.0
 44
0.0
 45
0.0
 46
0.0
 47
0.0
 48
0.0
 49
0.0
140
0.0
141
0.0
142
1.0
143
1.0
 70
   688
 72
     0
 73
     0
 74
     5
  7

 75
    16
147
1.0
 76
     0
 77
     2
 78
   300
148
0.0
149
0.0
100
AcDbLayout
  1
Layout1
 70
     0
 71
     1
 10
0.0
 20
0.0
 11
12.0
 21
9.0
 12
0.0
 22
0.0
 32
0.0
 14
1.000000000000000E+20
 24
1.000000000000000E+20
 34
1.000000000000000E+20
 15
-1.000000000000000E+20
 25
-1.000000000000000E+20
 35
-1.000000000000000E+20
146
0.0
 13
0.0
 23
0.0
 33
0.0
 16
1.0
 26
0.0
 36
0.0
 17
0.0
 27
1.0
 37
0.0
 76
     0
330
1A
  0
LAYOUT
  5
21
102
{ACAD_REACTORS
330
19
102
}
330
19
100
AcDbPlotSettings
  1

  2
none_device
  4
Letter_(8.50_x_11.00_Inches)
  6

 40
6.349999904632568
 41
6.349999904632568
 42
6.350006103515625
 43
6.350006103515625
 44
215.8999938964844
 45
279.3999938964844
 46
0.0
 47
0.0
 48
0.0
 49
0.0
140
0.0
141
0.0
142
1.0
143
1.0
 70
 11952
 72
     0
 73
     1
 74
     0
  7

 75
     0
147
1.0
 76
     0
 77
     2
 78
   300
148
1149.94759482167
149
45.04758967657628
100
AcDbLayout
  1
Model
 70
     1
 71
     0
 10
0.0
 20
0.0
 11
12.0
 21
9.0
 12
0.0
 22
0.0
 32
0.0
 14
0.0
 24
0.0
 34
0.0
 15
0.0
 25
0.0
 35
0.0
146
0.0
 13
0.0
 23
0.0
 33
0.0
 16
1.0
 26
0.0
 36
0.0
 17
0.0
 27
1.0
 37
0.0
 76
     0
330
1E
  0
MLINESTYLE
  5
17
102
{ACAD_REACTORS
330
16
102
}
330
16
100
AcDbMlineStyle
  2
STANDARD
 70
     0
  3

 62
   256
 51
90.0
 52
90.0
 71
     2
 49
0.5
 62
   256
  6
BYLAYER
 49
-0.5
 62
   256
  6
BYLAYER
  0
ACDBPLACEHOLDER
  5
F
102
{ACAD_REACTORS
330
E
102
}
330
E
  0
DICTIONARYVAR
  5
EB
102
{ACAD_REACTORS
330
EA
102
}
330
EA
100
DictionaryVariables
280
     0
  1
1
  0
DICTIONARYVAR
  5
EC
102
{ACAD_REACTORS
330
EA
102
}
330
EA
100
DictionaryVariables
280
     0
  1

  0
ENDSEC
  0
EOF
