  0
SECTION
  2
HEADER
  9
$ACADVER
  1
AC1018
  9
$ACADMAINTVER
 70
     2
  9
$DWGCODEPAGE
  3
ANSI_1252
  9
$INSBASE
 10
0.0
 20
0.0
 30
0.0
  9
$EXTMIN
 10
-0.0031957397357587
 20
-0.0045196890552006
 30
-0.0000000000000129
  9
$EXTMAX
 10
210.003207964225
 20
297.004536977975
 30
0.0000000000000023
  9
$LIMMIN
 10
0.0
 20
0.0
  9
$LIMMAX
 10
210.0
 20
297.0
  9
$ORTHOMODE
 70
     1
  9
$REGENMODE
 70
     1
  9
$FILLMODE
 70
     1
  9
$QTEXTMODE
 70
     0
  9
$MIRRTEXT
 70
     1
  9
$LTSCALE
 40
10.0
  9
$ATTMODE
 70
     1
  9
$TEXTSIZE
 40
3.5
  9
$TRACEWID
 40
0.5
  9
$TEXTSTYLE
  7
STANDARD
  9
$CLAYER
  8
SCHRAFF
  9
$CELTYPE
  6
ByLayer
  9
$CECOLOR
 62
   256
  9
$CELTSCALE
 40
1.0
  9
$DISPSILH
 70
     0
  9
$DIMSCALE
 40
1.0
  9
$DIMASZ
 40
3.5
  9
$DIMEXO
 40
1.0
  9
$DIMDLI
 40
7.0
  9
$DIMRND
 40
0.0
  9
$DIMDLE
 40
0.0
  9
$DIMEXE
 40
1.0
  9
$DIMTP
 40
0.0
  9
$DIMTM
 40
0.0
  9
$DIMTXT
 40
3.5
  9
$DIMCEN
 40
1.5
  9
$DIMTSZ
 40
0.0
  9
$DIMTOL
 70
     0
  9
$DIMLIM
 70
     0
  9
$DIMTIH
 70
     0
  9
$DIMTOH
 70
     0
  9
$DIMSE1
 70
     0
  9
$DIMSE2
 70
     0
  9
$DIMTAD
 70
     1
  9
$DIMZIN
 70
     8
  9
$DIMBLK
  1

  9
$DIMASO
 70
     1
  9
$DIMSHO
 70
     0
  9
$DIMPOST
  1

  9
$DIMAPOST
  1

  9
$DIMALT
 70
     0
  9
$DIMALTD
 70
     2
  9
$DIMALTF
 40
25.4
  9
$DIMLFAC
 40
1.0
  9
$DIMTOFL
 70
     1
  9
$DIMTVP
 40
0.0
  9
$DIMTIX
 70
     0
  9
$DIMSOXD
 70
     0
  9
$DIMSAH
 70
     0
  9
$DIMBLK1
  1

  9
$DIMBLK2
  1

  9
$DIMSTYLE
  2
Standard
  9
$DIMCLRD
 70
     0
  9
$DIMCLRE
 70
     0
  9
$DIMCLRT
 70
     1
  9
$DIMTFAC
 40
0.5142857142857144
  9
$DIMGAP
 40
1.5
  9
$DIMJUST
 70
     0
  9
$DIMSD1
 70
     0
  9
$DIMSD2
 70
     0
  9
$DIMTOLJ
 70
     1
  9
$DIMTZIN
 70
     8
  9
$DIMALTZ
 70
     8
  9
$DIMALTTZ
 70
     8
  9
$DIMUPT
 70
     0
  9
$DIMDEC
 70
     2
  9
$DIMTDEC
 70
     2
  9
$DIMALTU
 70
     2
  9
$DIMALTTD
 70
     2
  9
$DIMTXSTY
  7
STANDARD
  9
$DIMAUNIT
 70
     0
  9
$DIMADEC
 70
     2
  9
$DIMALTRND
 40
0.0
  9
$DIMAZIN
 70
     2
  9
$DIMDSEP
 70
    46
  9
$DIMATFIT
 70
     3
  9
$DIMFRAC
 70
     0
  9
$DIMLDRBLK
  1

  9
$DIMLUNIT
 70
     2
  9
$DIMLWD
 70
    -2
  9
$DIMLWE
 70
    -2
  9
$DIMTMOVE
 70
     0
  9
$LUNITS
 70
     2
  9
$LUPREC
 70
     2
  9
$SKETCHINC
 40
1.0
  9
$FILLETRAD
 40
8.0
  9
$AUNITS
 70
     0
  9
$AUPREC
 70
     0
  9
$MENU
  1
ACAD
  9
$ELEVATION
 40
0.0
  9
$PELEVATION
 40
0.0
  9
$THICKNESS
 40
0.0
  9
$LIMCHECK
 70
     0
  9
$CHAMFERA
 40
0.0
  9
$CHAMFERB
 40
0.0
  9
$CHAMFERC
 40
0.0
  9
$CHAMFERD
 40
0.0
  9
$SKPOLY
 70
     0
  9
$TDCREATE
 40
2455397.864709028
  9
$TDUCREATE
 40
2455397.781375695
  9
$TDUPDATE
 40
2455653.614516621
  9
$TDUUPDATE
 40
2455653.531183287
  9
$TDINDWG
 40
0.0503595255
  9
$TDUSRTIMER
 40
0.0503595255
  9
$USRTIMER
 70
     1
  9
$ANGBASE
 50
0.0
  9
$ANGDIR
 70
     0
  9
$PDMODE
 70
     0
  9
$PDSIZE
 40
0.0
  9
$PLINEWID
 40
0.0
  9
$SPLFRAME
 70
     0
  9
$SPLINETYPE
 70
     6
  9
$SPLINESEGS
 70
     8
  9
$HANDSEED
  5
9D5
  9
$SURFTAB1
 70
     6
  9
$SURFTAB2
 70
     6
  9
$SURFTYPE
 70
     6
  9
$SURFU
 70
     6
  9
$SURFV
 70
     6
  9
$UCSBASE
  2

  9
$UCSNAME
  2

  9
$UCSORG
 10
0.0
 20
0.0
 30
0.0
  9
$UCSXDIR
 10
1.0
 20
0.0
 30
0.0
  9
$UCSYDIR
 10
0.0
 20
1.0
 30
0.0
  9
$UCSORTHOREF
  2

  9
$UCSORTHOVIEW
 70
     0
  9
$UCSORGTOP
 10
0.0
 20
0.0
 30
0.0
  9
$UCSORGBOTTOM
 10
0.0
 20
0.0
 30
0.0
  9
$UCSORGLEFT
 10
0.0
 20
0.0
 30
0.0
  9
$UCSORGRIGHT
 10
0.0
 20
0.0
 30
0.0
  9
$UCSORGFRONT
 10
0.0
 20
0.0
 30
0.0
  9
$UCSORGBACK
 10
0.0
 20
0.0
 30
0.0
  9
$PUCSBASE
  2

  9
$PUCSNAME
  2

  9
$PUCSORG
 10
0.0
 20
0.0
 30
0.0
  9
$PUCSXDIR
 10
1.0
 20
0.0
 30
0.0
  9
$PUCSYDIR
 10
0.0
 20
1.0
 30
0.0
  9
$PUCSORTHOREF
  2

  9
$PUCSORTHOVIEW
 70
     0
  9
$PUCSORGTOP
 10
0.0
 20
0.0
 30
0.0
  9
$PUCSORGBOTTOM
 10
0.0
 20
0.0
 30
0.0
  9
$PUCSORGLEFT
 10
0.0
 20
0.0
 30
0.0
  9
$PUCSORGRIGHT
 10
0.0
 20
0.0
 30
0.0
  9
$PUCSORGFRONT
 10
0.0
 20
0.0
 30
0.0
  9
$PUCSORGBACK
 10
0.0
 20
0.0
 30
0.0
  9
$USERI1
 70
     0
  9
$USERI2
 70
     0
  9
$USERI3
 70
     0
  9
$USERI4
 70
     0
  9
$USERI5
 70
     0
  9
$USERR1
 40
0.0
  9
$USERR2
 40
0.0
  9
$USERR3
 40
0.0
  9
$USERR4
 40
0.0
  9
$USERR5
 40
0.0
  9
$WORLDVIEW
 70
     1
  9
$SHADEDGE
 70
     3
  9
$SHADEDIF
 70
    70
  9
$TILEMODE
 70
     1
  9
$MAXACTVP
 70
    16
  9
$PINSBASE
 10
0.0
 20
0.0
 30
0.0
  9
$PLIMCHECK
 70
     0
  9
$PEXTMIN
 10
1.000000000000000E+20
 20
1.000000000000000E+20
 30
1.000000000000000E+20
  9
$PEXTMAX
 10
-1.000000000000000E+20
 20
-1.000000000000000E+20
 30
-1.000000000000000E+20
  9
$PLIMMIN
 10
0.0
 20
0.0
  9
$PLIMMAX
 10
12.0
 20
9.0
  9
$UNITMODE
 70
     0
  9
$VISRETAIN
 70
     0
  9
$PLINEGEN
 70
     0
  9
$PSLTSCALE
 70
     0
  9
$TREEDEPTH
 70
  3020
  9
$CMLSTYLE
  2
Standard
  9
$CMLJUST
 70
     0
  9
$CMLSCALE
 40
1.0
  9
$PROXYGRAPHICS
 70
     1
  9
$MEASUREMENT
 70
     0
  9
$CELWEIGHT
370
    -1
  9
$ENDCAPS
280
     0
  9
$JOINSTYLE
280
     0
  9
$LWDISPLAY
290
     0
  9
$INSUNITS
 70
     0
  9
$HYPERLINKBASE
  1

  9
$STYLESHEET
  1
monochrome 1.ctb
  9
$XEDIT
290
     1
  9
$CEPSNTYPE
380
     0
  9
$PSTYLEMODE
290
     1
  9
$FINGERPRINTGUID
  2
{D68B0D02-A558-11D7-B632-000102183313}
  9
$VERSIONGUID
  2
{94D6BFC0-61C6-48F6-B95C-00E2583D7E89}
  9
$EXTNAMES
290
     1
  9
$PSVPSCALE
 40
0.0
  9
$OLESTARTUP
290
     0
  9
$SORTENTS
280
   127
  9
$INDEXCTL
280
     0
  9
$HIDETEXT
280
     0
  9
$XCLIPFRAME
290
     0
  9
$HALOGAP
280
     0
  9
$OBSCOLOR
 70
   257
  9
$OBSLTYPE
280
     0
  9
$INTERSECTIONDISPLAY
280
     0
  9
$INTERSECTIONCOLOR
 70
   257
  9
$DIMASSOC
280
     1
  9
$PROJECTNAME
  1

  0
ENDSEC
  0
SECTION
  2
CLASSES
  0
CLASS
  1
ACDBDICTIONARYWDFLT
  2
AcDbDictionaryWithDefault
  3
ObjectDBX Classes
 90
        0
 91
        1
280
     0
281
     0
  0
CLASS
  1
DICTIONARYVAR
  2
AcDbDictionaryVar
  3
ObjectDBX Classes
 90
        0
 91
        2
280
     0
281
     0
  0
ENDSEC
  0
SECTION
  2
TABLES
  0
TABLE
  2
VPORT
  5
8
330
0
100
AcDbSymbolTable
 70
     3
  0
VPORT
  5
9D4
330
8
100
AcDbSymbolTableRecord
100
AcDbViewportTableRecord
  2
*Active
 70
     0
 10
0.0
 20
0.0
 11
1.0
 21
1.0
 12
105.0
 22
148.5
 13
0.0
 23
0.0
 14
1.0
 24
1.0
 15
10.0
 25
10.0
 16
0.0
 26
0.0
 36
1.0
 17
0.0
 27
0.0
 37
0.0
 40
297.0000000000001
 41
1.334231805929919
 42
50.0
 43
0.0
 44
0.0
 50
0.0
 51
0.0
 71
     0
 72
  1500
 73
     1
 74
     0
 75
     0
 76
     0
 77
     0
 78
     0
281
     0
 65
     1
110
0.0
120
0.0
130
0.0
111
1.0
121
0.0
131
0.0
112
0.0
122
1.0
132
0.0
 79
     0
146
0.0
  0
ENDTAB
  0
TABLE
  2
LTYPE
  5
5
330
0
100
AcDbSymbolTable
 70
     3
  0
LTYPE
  5
13
330
5
100
AcDbSymbolTableRecord
100
AcDbLinetypeTableRecord
  2
ByBlock
 70
     0
  3

 72
    65
 73
     0
 40
0.0
  0
LTYPE
  5
14
330
5
100
AcDbSymbolTableRecord
100
AcDbLinetypeTableRecord
  2
ByLayer
 70
     0
  3

 72
    65
 73
     0
 40
0.0
  0
LTYPE
  5
15
330
5
100
AcDbSymbolTableRecord
100
AcDbLinetypeTableRecord
  2
Continuous
 70
     0
  3
Solid line
 72
    65
 73
     0
 40
0.0
  0
LTYPE
  5
25
330
5
100
AcDbSymbolTableRecord
100
AcDbLinetypeTableRecord
  2
STRICHPUNKT
 70
     0
  3
__ . __ . __ . __ . __ . __ . __ . __ . __ . __
 72
    65
 73
     4
 40
1.0
 49
0.5
 74
     0
 49
-0.25
 74
     0
 49
0.0
 74
     0
 49
-0.25
 74
     0
  0
LTYPE
  5
32
330
5
100
AcDbSymbolTableRecord
100
AcDbLinetypeTableRecord
  2
AUSGEZOGEN
 70
     0
  3
Ausgezogene Linie
 72
    65
 73
     0
 40
0.0
  0
ENDTAB
  0
TABLE
  2
LAYER
  5
2
330
0
100
AcDbSymbolTable
 70
     9
  0
LAYER
  5
10
330
2
100
AcDbSymbolTableRecord
100
AcDbLayerTableRecord
  2
0
 70
     0
 62
     7
  6
Continuous
370
    -3
390
F
  0
LAYER
  5
2A
330
2
100
AcDbSymbolTableRecord
100
AcDbLayerTableRecord
  2
VOLL
 70
     0
 62
     1
  6
Continuous
370
    -3
390
F
  0
LAYER
  5
2B
330
2
100
AcDbSymbolTableRecord
100
AcDbLayerTableRecord
  2
HILF
 70
     0
 62
     2
  6
Continuous
370
    -3
390
F
  0
LAYER
  5
2C
330
2
100
AcDbSymbolTableRecord
100
AcDbLayerTableRecord
  2
MITTEL
 70
     0
 62
     2
  6
STRICHPUNKT
370
    -3
390
F
  0
LAYER
  5
2F
330
2
100
AcDbSymbolTableRecord
100
AcDbLayerTableRecord
  2
BEM
 70
     0
 62
     7
  6
Continuous
370
    -3
390
F
  0
LAYER
  5
30
330
2
100
AcDbSymbolTableRecord
100
AcDbLayerTableRecord
  2
STEMPEL
 70
     0
 62
     3
  6
Continuous
370
    -3
390
F
  0
LAYER
  5
31
330
2
100
AcDbSymbolTableRecord
100
AcDbLayerTableRecord
  2
TEXT
 70
     0
 62
     7
  6
Continuous
370
    -3
390
F
  0
LAYER
  5
274
330
2
100
AcDbSymbolTableRecord
100
AcDbLayerTableRecord
  2
SCHRAFF
 70
     0
 62
     7
  6
AUSGEZOGEN
370
    -3
390
F
  0
LAYER
  5
2E5
330
2
100
AcDbSymbolTableRecord
100
AcDbLayerTableRecord
  2
Defpoints
 70
     0
 62
     7
  6
Continuous
290
     0
370
    -3
390
F
  0
ENDTAB
  0
TABLE
  2
STYLE
  5
3
330
0
100
AcDbSymbolTable
 70
     2
  0
STYLE
  5
11
330
3
100
AcDbSymbolTableRecord
100
AcDbTextStyleTableRecord
  2
STANDARD
 70
     0
 40
0.0
 41
0.8
 50
0.0
 71
     0
 42
3.5
  3
simplex.shx
  4

  0
STYLE
  5
24
330
3
100
AcDbSymbolTableRecord
100
AcDbTextStyleTableRecord
  2
GREEKS
 70
     0
 40
0.0
 41
0.8
 50
0.0
 71
     0
 42
2.5
  3
SIMPLEX.shx
  4

  0
ENDTAB
  0
TABLE
  2
VIEW
  5
6
330
0
100
AcDbSymbolTable
 70
     0
  0
ENDTAB
  0
TABLE
  2
UCS
  5
7
330
0
100
AcDbSymbolTable
 70
     0
  0
ENDTAB
  0
TABLE
  2
APPID
  5
9
330
0
100
AcDbSymbolTable
 70
     1
  0
APPID
  5
12
330
9
100
AcDbSymbolTableRecord
100
AcDbRegAppTableRecord
  2
ACAD
 70
     0
  0
ENDTAB
  0
TABLE
  2
DIMSTYLE
  5
A
330
0
100
AcDbSymbolTable
 70
     1
100
AcDbDimStyleTable
 71
     1
340
9D
  0
DIMSTYLE
105
9D
102
{ACAD_REACTORS
330
63A
330
638
330
637
330
636
330
635
102
}
330
A
100
AcDbSymbolTableRecord
100
AcDbDimStyleTableRecord
  2
Standard
 70
     0
340
11
  0
ENDTAB
  0
TABLE
  2
BLOCK_RECORD
  5
1
330
0
100
AcDbSymbolTable
 70
     7
  0
BLOCK_RECORD
  5
1E
102
{ACAD_XDICTIONARY
360
A0
102
}
330
1
100
AcDbSymbolTableRecord
100
AcDbBlockTableRecord
  2
*Model_Space
340
21
  0
BLOCK_RECORD
  5
1A
102
{ACAD_XDICTIONARY
360
A2
102
}
330
1
100
AcDbSymbolTableRecord
100
AcDbBlockTableRecord
  2
*Paper_Space
340
1D
  0
BLOCK_RECORD
  5
22
330
1
100
AcDbSymbolTableRecord
100
AcDbBlockTableRecord
  2
LOGO
340
0
102
{BLKREFS
331
9B
102
}
  0
BLOCK_RECORD
  5
663
330
1
100
AcDbSymbolTableRecord
100
AcDbBlockTableRecord
  2
*D1
340
0
  0
BLOCK_RECORD
  5
670
330
1
100
AcDbSymbolTableRecord
100
AcDbBlockTableRecord
  2
*D2
340
0
  0
BLOCK_RECORD
  5
67D
330
1
100
AcDbSymbolTableRecord
100
AcDbBlockTableRecord
  2
*D3
340
0
  0
BLOCK_RECORD
  5
68A
330
1
100
AcDbSymbolTableRecord
100
AcDbBlockTableRecord
  2
*D4
340
0
  0
BLOCK_RECORD
  5
6A4
330
1
100
AcDbSymbolTableRecord
100
AcDbBlockTableRecord
  2
*D5
340
0
  0
ENDTAB
  0
ENDSEC
  0
SECTION
  2
BLOCKS
  0
BLOCK
  5
35
330
1E
100
AcDbEntity
  8
0
100
AcDbBlockBegin
  2
*Model_Space
 70
     0
 10
0.0
 20
0.0
 30
0.0
  3
*Model_Space
  1

  0
ENDBLK
  5
36
330
1E
100
AcDbEntity
  8
0
100
AcDbBlockEnd
  0
BLOCK
  5
33
330
1A
100
AcDbEntity
 67
     1
  8
0
100
AcDbBlockBegin
  2
*Paper_Space
 70
     0
 10
0.0
 20
0.0
 30
0.0
  3
*Paper_Space
  1

  0
ENDBLK
  5
34
330
1A
100
AcDbEntity
 67
     1
  8
0
100
AcDbBlockEnd
  0
BLOCK
  5
37
330
22
100
AcDbEntity
  8
0
100
AcDbBlockBegin
  2
LOGO
 70
     0
 10
0.0
 20
0.0
 30
0.0
  3
LOGO
  1

  0
ARC
  5
38
330
22
100
AcDbEntity
  8
0
100
AcDbCircle
 10
11.59973089678112
 20
-9.271599258481501
 30
0.0
 40
4.5
100
AcDbArc
 50
270.0
 51
231.0575587310159
  0
LINE
  5
39
330
22
100
AcDbEntity
  8
0
100
AcDbLine
 10
3.599730896781125
 20
-4.771599258481529
 30
0.0
 11
3.599730896781153
 21
-11.77159925848133
 31
0.0
  0
LINE
  5
3A
330
22
100
AcDbEntity
  8
0
100
AcDbLine
 10
2.599730896781125
 20
-4.771599258481529
 30
0.0
 11
2.599730896781153
 21
-11.77159925848133
 31
0.0
  0
CIRCLE
  5
3B
330
22
100
AcDbEntity
  8
0
100
AcDbCircle
 10
11.59973089678112
 20
-9.271599258481501
 30
0.0
 40
3.5
  0
ARC
  5
3C
330
22
100
AcDbEntity
  8
0
100
AcDbCircle
 10
31.59973089678115
 20
-9.271599258481472
 30
0.0
 40
4.5
100
AcDbArc
 50
270.0
 51
231.0575587310182
  0
LINE
  5
3D
330
22
100
AcDbEntity
  8
0
100
AcDbLine
 10
17.59973089678112
 20
-4.771599258481472
 30
0.0
 11
17.59973089678115
 21
-13.77159925848147
 31
0.0
  0
ARC
  5
3E
330
22
100
AcDbEntity
  8
0
100
AcDbCircle
 10
22.59973089678116
 20
-7.271599258481472
 30
0.0
 40
2.5
100
AcDbArc
 50
293.1161887722295
 51
90.0
  0
CIRCLE
  5
3F
330
22
100
AcDbEntity
  8
0
100
AcDbCircle
 10
31.59973089678115
 20
-9.271599258481472
 30
0.0
 40
3.5
  0
ARC
  5
40
330
22
100
AcDbEntity
  8
0
100
AcDbCircle
 10
4.599730896781153
 20
-11.77159925848133
 30
0.0
 40
1.0
100
AcDbArc
 50
180.0
 51
270.0
  0
ARC
  5
41
330
22
100
AcDbEntity
  8
0
100
AcDbCircle
 10
4.599730896781153
 20
-11.77159925848133
 30
0.0
 40
2.0
100
AcDbArc
 50
179.9999999999992
 51
270.0
  0
LINE
  5
42
330
22
100
AcDbEntity
  8
0
100
AcDbLine
 10
11.59973089678115
 20
-13.77159925848144
 30
0.0
 11
4.599730896781153
 21
-13.77159925848147
 31
0.0
  0
LINE
  5
43
330
22
100
AcDbEntity
  8
0
100
AcDbLine
 10
8.771303772034769
 20
-12.77159925848136
 30
0.0
 11
4.599730896781153
 21
-12.77159925848133
 31
0.0
  0
LINE
  5
44
330
22
100
AcDbEntity
  8
0
100
AcDbLine
 10
31.59973089678115
 20
-13.77159925848147
 30
0.0
 11
23.6715276665056
 21
-13.77159925848144
 31
0.0
  0
LINE
  5
45
330
22
100
AcDbEntity
  8
0
100
AcDbLine
 10
23.56565672307022
 20
-9.51278021337896
 30
0.0
 11
24.4388546544846
 21
-12.77159925848144
 31
0.0
  0
LINE
  5
46
330
22
100
AcDbEntity
  8
0
100
AcDbLine
 10
22.59973089678116
 20
-9.771599258481472
 30
0.0
 11
18.59973089678112
 21
-9.771599258481472
 31
0.0
  0
LINE
  5
47
330
22
100
AcDbEntity
  8
0
100
AcDbLine
 10
18.59973089678115
 20
-13.77159925848144
 30
0.0
 11
17.59973089678115
 21
-13.77159925848144
 31
0.0
  0
LINE
  5
48
330
22
100
AcDbEntity
  8
0
100
AcDbLine
 10
18.59973089678115
 20
-9.771599258481472
 30
0.0
 11
18.59973089678115
 21
-13.77159925848144
 31
0.0
  0
LINE
  5
49
330
22
100
AcDbEntity
  8
0
100
AcDbLine
 10
22.59973089678116
 20
-9.771599258481472
 30
0.0
 11
23.67152766650562
 21
-13.77159925848147
 31
0.0
  0
ARC
  5
4A
330
22
100
AcDbEntity
  8
0
100
AcDbCircle
 10
22.59973089678116
 20
-7.271599258481472
 30
0.0
 40
2.5
100
AcDbArc
 50
270.0
 51
270.0000000000007
  0
LINE
  5
4B
330
22
100
AcDbEntity
  8
0
100
AcDbLine
 10
28.77130377203494
 20
-12.77159925848147
 30
0.0
 11
24.43885465448463
 21
-12.77159925848144
 31
0.0
  0
LINE
  5
4C
330
22
100
AcDbEntity
  8
0
100
AcDbLine
 10
3.599730896781125
 20
-4.771599258481472
 30
0.0
 11
2.599730896781125
 21
-4.771599258481472
 31
0.0
  0
LINE
  5
4D
330
22
100
AcDbEntity
  8
0
100
AcDbLine
 10
22.59973089678116
 20
-8.771599258481472
 30
0.0
 11
18.59973089678115
 21
-8.771599258481472
 31
0.0
  0
LINE
  5
4E
330
22
100
AcDbEntity
  8
0
100
AcDbLine
 10
22.59973089678116
 20
-5.771599258481472
 30
0.0
 11
18.59973089678115
 21
-5.771599258481472
 31
0.0
  0
LINE
  5
4F
330
22
100
AcDbEntity
  8
0
100
AcDbLine
 10
22.59973089678116
 20
-4.771599258481472
 30
0.0
 11
17.59973089678115
 21
-4.771599258481472
 31
0.0
  0
LINE
  5
50
330
22
100
AcDbEntity
  8
0
100
AcDbLine
 10
18.59973089678115
 20
-5.771599258481472
 30
0.0
 11
18.59973089678115
 21
-8.771599258481472
 31
0.0
  0
ARC
  5
51
330
22
100
AcDbEntity
  8
0
100
AcDbCircle
 10
22.59973089678116
 20
-7.271599258481472
 30
0.0
 40
1.5
100
AcDbArc
 50
270.0
 51
90.0
  0
ENDBLK
  5
52
330
22
100
AcDbEntity
  8
0
100
AcDbBlockEnd
  0
BLOCK
  5
66E
330
663
100
AcDbEntity
  8
0
100
AcDbBlockBegin
  2
*D1
 70
     1
 10
0.0
 20
0.0
 30
0.0
  3
*D1
  1

  0
LINE
  5
984
330
663
100
AcDbEntity
  8
BEM
 62
     0
370
    -2
100
AcDbLine
 10
82.44368951070143
 20
115.828391358614
 30
0.0
 11
82.44368951070143
 21
96.82343423851101
 31
0.0
  0
LINE
  5
985
330
663
100
AcDbEntity
  8
BEM
 62
     0
370
    -2
100
AcDbLine
 10
135.4436895107014
 20
115.828391358614
 30
0.0
 11
135.4436895107014
 21
96.82343423851101
 31
0.0
  0
LINE
  5
986
330
663
100
AcDbEntity
  8
BEM
 62
     0
370
    -2
100
AcDbLine
 10
85.94368951070142
 20
97.823434238511
 30
0.0
 11
131.9436895107014
 21
97.823434238511
 31
0.0
  0
SOLID
  5
987
330
663
100
AcDbEntity
  8
BEM
 62
     0
100
AcDbTrace
 10
85.94368951070142
 20
98.40676757184432
 30
0.0
 11
85.94368951070142
 21
97.24010090517767
 31
0.0
 12
82.44368951070143
 22
97.823434238511
 32
0.0
 13
82.44368951070143
 23
97.823434238511
 33
0.0
  0
SOLID
  5
988
330
663
100
AcDbEntity
  8
BEM
 62
     0
100
AcDbTrace
 10
131.9436895107014
 20
98.40676757184432
 30
0.0
 11
131.9436895107014
 21
97.24010090517767
 31
0.0
 12
135.4436895107014
 22
97.823434238511
 32
0.0
 13
135.4436895107014
 23
97.823434238511
 33
0.0
  0
MTEXT
  5
989
330
663
100
AcDbEntity
  8
BEM
 62
     1
100
AcDbMText
 10
108.9436895107014
 20
101.073434238511
 30
0.0
 40
3.5
 41
0.0
 71
     5
 72
     1
  1
\A1;%%C53
 73
     1
 44
1.0
  0
POINT
  5
98A
330
663
100
AcDbEntity
  8
Defpoints
 62
     0
100
AcDbPoint
 10
82.44368951070143
 20
116.828391358614
 30
0.0
  0
POINT
  5
98B
330
663
100
AcDbEntity
  8
Defpoints
 62
     0
100
AcDbPoint
 10
135.4436895107014
 20
116.828391358614
 30
0.0
  0
POINT
  5
98C
330
663
100
AcDbEntity
  8
Defpoints
 62
     0
100
AcDbPoint
 10
135.4436895107014
 20
97.823434238511
 30
0.0
  0
ENDBLK
  5
66F
330
663
100
AcDbEntity
  8
0
100
AcDbBlockEnd
  0
BLOCK
  5
67B
330
670
100
AcDbEntity
  8
0
100
AcDbBlockBegin
  2
*D2
 70
     1
 10
0.0
 20
0.0
 30
0.0
  3
*D2
  1

  0
LINE
  5
97B
330
670
100
AcDbEntity
  8
BEM
 62
     0
370
    -2
100
AcDbLine
 10
76.69368951070144
 20
251.4551836073138
 30
0.0
 11
54.94600822077416
 21
251.4551836073138
 31
0.0
  0
LINE
  5
97C
330
670
100
AcDbEntity
  8
BEM
 62
     0
370
    -2
100
AcDbLine
 10
82.31857614596069
 20
111.4551836073138
 30
0.0
 11
54.94600822077413
 21
111.4551836073138
 31
0.0
  0
LINE
  5
97D
330
670
100
AcDbEntity
  8
BEM
 62
     0
370
    -2
100
AcDbLine
 10
55.94600822077417
 20
247.9551836073138
 30
0.0
 11
55.94600822077413
 21
114.9551836073138
 31
0.0
  0
SOLID
  5
97E
330
670
100
AcDbEntity
  8
BEM
 62
     0
100
AcDbTrace
 10
55.36267488744083
 20
247.9551836073138
 30
0.0
 11
56.52934155410751
 21
247.9551836073138
 31
0.0
 12
55.94600822077417
 22
251.4551836073138
 32
0.0
 13
55.94600822077417
 23
251.4551836073138
 33
0.0
  0
SOLID
  5
97F
330
670
100
AcDbEntity
  8
BEM
 62
     0
100
AcDbTrace
 10
55.3626748874408
 20
114.9551836073138
 30
0.0
 11
56.52934155410747
 21
114.9551836073138
 31
0.0
 12
55.94600822077413
 22
111.4551836073138
 32
0.0
 13
55.94600822077413
 23
111.4551836073138
 33
0.0
  0
MTEXT
  5
980
330
670
100
AcDbEntity
  8
BEM
 62
     1
100
AcDbMText
 10
52.69600822077412
 20
181.4551836073138
 30
0.0
 40
3.5
 41
0.0
 71
     5
 72
     1
  1
\A1;140
 11
0.0000000000000001
 21
1.0
 31
0.0
 73
     1
 44
1.0
  0
POINT
  5
981
330
670
100
AcDbEntity
  8
Defpoints
 62
     0
100
AcDbPoint
 10
77.69368951070145
 20
251.4551836073138
 30
0.0
  0
POINT
  5
982
330
670
100
AcDbEntity
  8
Defpoints
 62
     0
100
AcDbPoint
 10
83.31857614596069
 20
111.4551836073138
 30
0.0
  0
POINT
  5
983
330
670
100
AcDbEntity
  8
Defpoints
 62
     0
100
AcDbPoint
 10
55.94600822077413
 20
111.4551836073138
 30
0.0
  0
ENDBLK
  5
67C
330
670
100
AcDbEntity
  8
0
100
AcDbBlockEnd
  0
BLOCK
  5
688
330
67D
100
AcDbEntity
  8
0
100
AcDbBlockBegin
  2
*D3
 70
     1
 10
0.0
 20
0.0
 30
0.0
  3
*D3
  1

  0
LINE
  5
972
330
67D
100
AcDbEntity
  8
BEM
 62
     0
370
    -2
100
AcDbLine
 10
76.69368951070144
 20
216.4551836073138
 30
0.0
 11
63.20538712165841
 21
216.4551836073139
 31
0.0
  0
LINE
  5
973
330
67D
100
AcDbEntity
  8
BEM
 62
     0
370
    -2
100
AcDbLine
 10
82.31857614596069
 20
111.4551836073138
 30
0.0
 11
63.20538712165838
 21
111.4551836073138
 31
0.0
  0
LINE
  5
974
330
67D
100
AcDbEntity
  8
BEM
 62
     0
370
    -2
100
AcDbLine
 10
64.2053871216584
 20
212.9551836073138
 30
0.0
 11
64.20538712165839
 21
114.9551836073138
 31
0.0
  0
SOLID
  5
975
330
67D
100
AcDbEntity
  8
BEM
 62
     0
100
AcDbTrace
 10
63.62205378832507
 20
212.9551836073138
 30
0.0
 11
64.78872045499173
 21
212.9551836073138
 31
0.0
 12
64.2053871216584
 22
216.4551836073138
 32
0.0
 13
64.2053871216584
 23
216.4551836073138
 33
0.0
  0
SOLID
  5
976
330
67D
100
AcDbEntity
  8
BEM
 62
     0
100
AcDbTrace
 10
63.62205378832506
 20
114.9551836073138
 30
0.0
 11
64.78872045499172
 21
114.9551836073138
 31
0.0
 12
64.20538712165839
 22
111.4551836073138
 32
0.0
 13
64.20538712165839
 23
111.4551836073138
 33
0.0
  0
MTEXT
  5
977
330
67D
100
AcDbEntity
  8
BEM
 62
     1
100
AcDbMText
 10
60.95538712165836
 20
163.9551836073138
 30
0.0
 40
3.5
 41
0.0
 71
     5
 72
     1
  1
\A1;105
 11
0.0000000000000001
 21
1.0
 31
0.0
 73
     1
 44
1.0
  0
POINT
  5
978
330
67D
100
AcDbEntity
  8
Defpoints
 62
     0
100
AcDbPoint
 10
77.69368951070145
 20
216.4551836073138
 30
0.0
  0
POINT
  5
979
330
67D
100
AcDbEntity
  8
Defpoints
 62
     0
100
AcDbPoint
 10
83.31857614596069
 20
111.4551836073138
 30
0.0
  0
POINT
  5
97A
330
67D
100
AcDbEntity
  8
Defpoints
 62
     0
100
AcDbPoint
 10
64.20538712165839
 20
111.4551836073138
 30
0.0
  0
ENDBLK
  5
689
330
67D
100
AcDbEntity
  8
0
100
AcDbBlockEnd
  0
BLOCK
  5
695
330
68A
100
AcDbEntity
  8
0
100
AcDbBlockBegin
  2
*D4
 70
     1
 10
0.0
 20
0.0
 30
0.0
  3
*D4
  1

  0
LINE
  5
969
330
68A
100
AcDbEntity
  8
BEM
 62
     0
370
    -2
100
AcDbLine
 10
76.69368951070144
 20
251.4551836073138
 30
0.0
 11
63.2053871216584
 21
251.4551836073138
 31
0.0
  0
LINE
  5
96A
330
68A
100
AcDbEntity
  8
BEM
 62
     0
370
    -2
100
AcDbLine
 10
76.69368951070144
 20
216.4551836073138
 30
0.0
 11
63.2053871216584
 21
216.4551836073139
 31
0.0
  0
LINE
  5
96B
330
68A
100
AcDbEntity
  8
BEM
 62
     0
370
    -2
100
AcDbLine
 10
64.2053871216584
 20
247.9551836073138
 30
0.0
 11
64.20538712165839
 21
219.9551836073138
 31
0.0
  0
SOLID
  5
96C
330
68A
100
AcDbEntity
  8
BEM
 62
     0
100
AcDbTrace
 10
63.62205378832507
 20
247.9551836073138
 30
0.0
 11
64.78872045499173
 21
247.9551836073138
 31
0.0
 12
64.2053871216584
 22
251.4551836073138
 32
0.0
 13
64.2053871216584
 23
251.4551836073138
 33
0.0
  0
SOLID
  5
96D
330
68A
100
AcDbEntity
  8
BEM
 62
     0
100
AcDbTrace
 10
63.62205378832506
 20
219.9551836073138
 30
0.0
 11
64.78872045499172
 21
219.9551836073138
 31
0.0
 12
64.20538712165839
 22
216.4551836073138
 32
0.0
 13
64.20538712165839
 23
216.4551836073138
 33
0.0
  0
MTEXT
  5
96E
330
68A
100
AcDbEntity
  8
BEM
 62
     1
100
AcDbMText
 10
60.95538712165836
 20
233.9551836073138
 30
0.0
 40
3.5
 41
0.0
 71
     5
 72
     1
  1
\A1;35
 11
0.0000000000000001
 21
1.0
 31
0.0
 73
     1
 44
1.0
  0
POINT
  5
96F
330
68A
100
AcDbEntity
  8
Defpoints
 62
     0
100
AcDbPoint
 10
77.69368951070145
 20
251.4551836073138
 30
0.0
  0
POINT
  5
970
330
68A
100
AcDbEntity
  8
Defpoints
 62
     0
100
AcDbPoint
 10
77.69368951070145
 20
216.4551836073138
 30
0.0
  0
POINT
  5
971
330
68A
100
AcDbEntity
  8
Defpoints
 62
     0
100
AcDbPoint
 10
64.20538712165839
 20
216.4551836073138
 30
0.0
  0
ENDBLK
  5
696
330
68A
100
AcDbEntity
  8
0
100
AcDbBlockEnd
  0
BLOCK
  5
6AF
330
6A4
100
AcDbEntity
  8
0
100
AcDbBlockBegin
  2
*D5
 70
     1
 10
0.0
 20
0.0
 30
0.0
  3
*D5
  1

  0
LINE
  5
9A4
330
6A4
100
AcDbEntity
  8
BEM
 62
     0
370
    -2
100
AcDbLine
 10
79.14368951070148
 20
252.4551836073138
 30
0.0
 11
79.14368951070148
 21
259.6839664031988
 31
0.0
  0
LINE
  5
9A5
330
6A4
100
AcDbEntity
  8
BEM
 62
     0
370
    -2
100
AcDbLine
 10
138.7436895107014
 20
252.4551836073138
 30
0.0
 11
138.7436895107014
 21
259.6839664031988
 31
0.0
  0
LINE
  5
9A6
330
6A4
100
AcDbEntity
  8
BEM
 62
     0
370
    -2
100
AcDbLine
 10
82.64368951070148
 20
258.6839664031988
 30
0.0
 11
135.2436895107014
 21
258.6839664031988
 31
0.0
  0
SOLID
  5
9A7
330
6A4
100
AcDbEntity
  8
BEM
 62
     0
100
AcDbTrace
 10
82.64368951070148
 20
259.2672997365321
 30
0.0
 11
82.64368951070148
 21
258.1006330698655
 31
0.0
 12
79.14368951070148
 22
258.6839664031988
 32
0.0
 13
79.14368951070148
 23
258.6839664031988
 33
0.0
  0
SOLID
  5
9A8
330
6A4
100
AcDbEntity
  8
BEM
 62
     0
100
AcDbTrace
 10
135.2436895107014
 20
259.2672997365321
 30
0.0
 11
135.2436895107014
 21
258.1006330698655
 31
0.0
 12
138.7436895107014
 22
258.6839664031988
 32
0.0
 13
138.7436895107014
 23
258.6839664031988
 33
0.0
  0
MTEXT
  5
9A9
330
6A4
100
AcDbEntity
  8
BEM
 62
     1
100
AcDbMText
 10
108.9436895107014
 20
262.5172997365321
 30
0.0
 40
3.5
 41
0.0
 71
     5
 72
     1
  1
\A1;Rp 2
 73
     1
 44
1.0
  0
POINT
  5
9AA
330
6A4
100
AcDbEntity
  8
Defpoints
 62
     0
100
AcDbPoint
 10
79.14368951070148
 20
251.4551836073138
 30
0.0
  0
POINT
  5
9AB
330
6A4
100
AcDbEntity
  8
Defpoints
 62
     0
100
AcDbPoint
 10
138.7436895107014
 20
251.4551836073138
 30
0.0
  0
POINT
  5
9AC
330
6A4
100
AcDbEntity
  8
Defpoints
 62
     0
100
AcDbPoint
 10
138.7436895107014
 20
258.6839664031988
 30
0.0
  0
ENDBLK
  5
6B0
330
6A4
100
AcDbEntity
  8
0
100
AcDbBlockEnd
  0
ENDSEC
  0
SECTION
  2
ENTITIES
  0
LINE
  5
57
330
1E
100
AcDbEntity
  8
STEMPEL
100
AcDbLine
 10
205.0
 20
55.00000000000003
 30
0.0
 11
19.99999999999998
 21
55.0
 31
0.0
  0
LINE
  5
58
330
1E
100
AcDbEntity
  8
STEMPEL
100
AcDbLine
 10
68.00000000000006
 20
54.99999999999997
 30
0.0
 11
68.0
 21
4.999999999999985
 31
0.0
  0
LINE
  5
59
330
1E
100
AcDbEntity
  8
STEMPEL
100
AcDbLine
 10
110.0
 20
55.00000000000003
 30
0.0
 11
110.0
 21
4.999999999999985
 31
0.0
  0
LINE
  5
5A
330
1E
100
AcDbEntity
  8
STEMPEL
100
AcDbLine
 10
166.0
 20
54.99999999999989
 30
0.0
 11
166.0
 21
20.0
 31
0.0
  0
LINE
  5
5B
330
1E
100
AcDbEntity
  8
STEMPEL
100
AcDbLine
 10
67.99999999999994
 20
14.99999999999998
 30
0.0
 11
19.99999999999998
 21
14.99999999999998
 31
0.0
  0
LINE
  5
5C
330
1E
100
AcDbEntity
  8
STEMPEL
100
AcDbLine
 10
205.0
 20
20.0
 30
0.0
 11
68.00000000000006
 21
19.99999999999998
 31
0.0
  0
LINE
  5
5D
330
1E
100
AcDbEntity
  8
STEMPEL
100
AcDbLine
 10
205.0
 20
40.0
 30
0.0
 11
68.00000000000006
 21
39.99999999999997
 31
0.0
  0
LINE
  5
5E
330
1E
100
AcDbEntity
  8
VOLL
100
AcDbLine
 10
27.00000000000005
 20
55.00000000000003
 30
0.0
 11
26.99999999999999
 21
4.999999999999985
 31
0.0
  0
LINE
  5
5F
330
1E
100
AcDbEntity
  8
VOLL
100
AcDbLine
 10
47.00000000000005
 20
54.99999999999997
 30
0.0
 11
47.0
 21
4.999999999999985
 31
0.0
  0
LINE
  5
60
330
1E
100
AcDbEntity
  8
VOLL
100
AcDbLine
 10
57.00000000000006
 20
54.99999999999997
 30
0.0
 11
57.0
 21
4.999999999999985
 31
0.0
  0
LINE
  5
61
330
1E
100
AcDbEntity
  8
VOLL
100
AcDbLine
 10
77.00000000000006
 20
39.99999999999997
 30
0.0
 11
77.00000000000006
 21
19.99999999999998
 31
0.0
  0
LINE
  5
62
330
1E
100
AcDbEntity
  8
VOLL
100
AcDbLine
 10
90.00000000000005
 20
54.99999999999992
 30
0.0
 11
90.0
 21
19.99999999999998
 31
0.0
  0
LINE
  5
63
330
1E
100
AcDbEntity
  8
HILF
100
AcDbLine
 10
20.00000000000004
 20
50.00000000000003
 30
0.0
 11
68.00000000000006
 21
50.00000000000003
 31
0.0
  0
LINE
  5
64
330
1E
100
AcDbEntity
  8
HILF
100
AcDbLine
 10
20.00000000000004
 20
45.00000000000002
 30
0.0
 11
68.00000000000006
 21
45.00000000000002
 31
0.0
  0
LINE
  5
65
330
1E
100
AcDbEntity
  8
HILF
100
AcDbLine
 10
20.00000000000004
 20
39.99999999999997
 30
0.0
 11
68.00000000000006
 21
39.99999999999997
 31
0.0
  0
LINE
  5
66
330
1E
100
AcDbEntity
  8
HILF
100
AcDbLine
 10
20.00000000000004
 20
34.99999999999997
 30
0.0
 11
68.00000000000006
 21
34.99999999999997
 31
0.0
  0
LINE
  5
67
330
1E
100
AcDbEntity
  8
HILF
100
AcDbLine
 10
20.00000000000004
 20
29.99999999999999
 30
0.0
 11
68.00000000000006
 21
29.99999999999999
 31
0.0
  0
LINE
  5
68
330
1E
100
AcDbEntity
  8
HILF
100
AcDbLine
 10
20.00000000000004
 20
24.99999999999999
 30
0.0
 11
68.00000000000006
 21
24.99999999999999
 31
0.0
  0
LINE
  5
69
330
1E
100
AcDbEntity
  8
HILF
100
AcDbLine
 10
20.00000000000004
 20
19.99999999999998
 30
0.0
 11
68.00000000000006
 21
19.99999999999998
 31
0.0
  0
LINE
  5
6A
330
1E
100
AcDbEntity
  8
HILF
100
AcDbLine
 10
68.00000000000006
 20
34.99999999999997
 30
0.0
 11
110.0
 21
34.99999999999997
 31
0.0
  0
LINE
  5
6B
330
1E
100
AcDbEntity
  8
HILF
100
AcDbLine
 10
68.00000000000006
 20
29.99999999999999
 30
0.0
 11
110.0
 21
29.99999999999999
 31
0.0
  0
LINE
  5
6C
330
1E
100
AcDbEntity
  8
HILF
100
AcDbLine
 10
68.00000000000006
 20
24.99999999999999
 30
0.0
 11
110.0
 21
24.99999999999999
 31
0.0
  0
LINE
  5
6D
330
1E
100
AcDbEntity
  8
HILF
100
AcDbLine
 10
112.3868400548474
 20
42.01879123782069
 30
0.0
 11
162.4176958278155
 21
42.01879123782069
 31
0.0
  0
LINE
  5
6E
330
1E
100
AcDbEntity
  8
HILF
100
AcDbLine
 10
112.3868400548474
 20
34.99999999999997
 30
0.0
 11
162.4176958278155
 21
34.99999999999997
 31
0.0
  0
LINE
  5
6F
330
1E
100
AcDbEntity
  8
HILF
100
AcDbLine
 10
112.3868400548474
 20
29.99999999999999
 30
0.0
 11
162.4176958278155
 21
29.99999999999999
 31
0.0
  0
LINE
  5
70
330
1E
100
AcDbEntity
  8
HILF
100
AcDbLine
 10
112.3868400548474
 20
24.99999999999999
 30
0.0
 11
162.4176958278155
 21
24.99999999999999
 31
0.0
  0
LINE
  5
71
330
1E
100
AcDbEntity
  8
VOLL
100
AcDbLine
 10
166.0
 20
30.0
 30
0.0
 11
205.0
 21
30.0
 31
0.0
  0
LINE
  5
72
330
1E
100
AcDbEntity
  8
HILF
100
AcDbLine
 10
168.3619308148496
 20
41.88991818477913
 30
0.0
 11
202.4294419663364
 21
41.88991818477913
 31
0.0
  0
LINE
  5
73
330
1E
100
AcDbEntity
  8
HILF
100
AcDbLine
 10
111.7454849644942
 20
7.446991290141568
 30
0.0
 11
202.4294419663364
 21
7.446991290141568
 31
0.0
  0
TEXT
  5
74
330
1E
100
AcDbEntity
  8
TEXT
100
AcDbText
 10
31.88833143870213
 20
9.336909474920659
 30
0.0
 40
2.0
  1
Änderung
 41
0.8
  7
GREEKS
 72
     1
 11
37.25976001013071
 21
9.336909474920659
 31
0.0
100
AcDbText
  0
TEXT
  5
75
330
1E
100
AcDbEntity
  8
TEXT
100
AcDbText
 10
71.75817860751886
 20
51.23104475435443
 30
0.0
 40
2.5
  1
Maßstab
 41
0.8
  7
GREEKS
100
AcDbText
  0
TEXT
  5
76
330
1E
100
AcDbEntity
  8
TEXT
100
AcDbText
 10
92.14294773670257
 20
51.20920842174095
 30
0.0
 40
2.5
  1
Zul. Abw.
 41
0.8
  7
GREEKS
100
AcDbText
  0
TEXT
  5
77
330
1E
100
AcDbEntity
  8
TEXT
100
AcDbText
 10
112.4389701904505
 20
51.27446640058898
 30
0.0
 40
2.5
  1
Benennung
 41
0.8
  7
GREEKS
100
AcDbText
  0
TEXT
  5
78
330
1E
100
AcDbEntity
  8
TEXT
100
AcDbText
 10
168.089377478817
 20
51.15660172685682
 30
0.0
 40
2.5
  1
Zeichnungs Nr.
 41
0.8
  7
GREEKS
100
AcDbText
  0
TEXT
  5
79
330
1E
100
AcDbEntity
  8
TEXT
100
AcDbText
 10
112.371119195568
 20
15.42280285096528
 30
0.0
 40
2.5
  1
Bauvorhaben
 41
0.8
  7
GREEKS
100
AcDbText
  0
TEXT
  5
7A
330
1E
100
AcDbEntity
  8
TEXT
100
AcDbText
 10
168.3619308148496
 20
36.59059118549985
 30
0.0
 40
2.5
  1
Ersatz für:
 41
0.8
  7
GREEKS
100
AcDbText
  0
TEXT
  5
7B
330
1E
100
AcDbEntity
  8
TEXT
100
AcDbText
 10
24.13320553522878
 20
6.827329230135958
 30
0.0
 40
2.0
  1
Index
 50
90.0
 41
0.8
  7
GREEKS
100
AcDbText
  0
TEXT
  5
7C
330
1E
100
AcDbEntity
  8
TEXT
100
AcDbText
 10
49.79989095693829
 20
9.33578134669905
 30
0.0
 40
2.0
  1
Tag
 41
0.8
  7
GREEKS
 72
     1
 11
51.66655762360496
 21
9.33578134669905
 31
0.0
100
AcDbText
  0
TEXT
  5
7D
330
1E
100
AcDbEntity
  8
TEXT
100
AcDbText
 10
59.50613721932963
 20
9.29662108483204
 30
0.0
 40
2.0
  1
Name
 41
0.8
  7
GREEKS
 72
     1
 11
62.66804198123439
 21
9.29662108483204
 31
0.0
100
AcDbText
  0
TEXT
  5
7E
330
1E
100
AcDbEntity
  8
TEXT
100
AcDbText
 10
81.16558365768254
 20
36.65940250614963
 30
0.0
 40
2.0
  1
Tag
 41
0.8
  7
GREEKS
100
AcDbText
  0
TEXT
  5
7F
330
1E
100
AcDbEntity
  8
TEXT
100
AcDbText
 10
96.23132921131475
 20
36.65480545957612
 30
0.0
 40
2.0
  1
Name
 41
0.8
  7
GREEKS
100
AcDbText
  0
TEXT
  5
80
330
1E
100
AcDbEntity
  8
TEXT
100
AcDbText
 10
68.79180635838077
 20
31.81495184808982
 30
0.0
 40
2.0
  1
Gez.
 41
0.8
  7
GREEKS
100
AcDbText
  0
TEXT
  5
81
330
1E
100
AcDbEntity
  8
TEXT
100
AcDbText
 10
68.77575432858361
 20
26.84463145714189
 30
0.0
 40
2.0
  1
Gepr.
 41
0.8
  7
GREEKS
100
AcDbText
  0
TEXT
  5
82
330
1E
100
AcDbEntity
  8
TEXT
100
AcDbText
 10
68.80033886936519
 20
21.76473194824904
 30
0.0
 40
2.0
  1
Norm.
 41
0.8
  7
GREEKS
100
AcDbText
  0
LINE
  5
83
330
1E
100
AcDbEntity
  8
STEMPEL
100
AcDbLine
 10
24.99999999999995
 20
5.0
 30
0.0
 11
205.0
 21
5.0
 31
0.0
  0
TEXT
  5
84
330
1E
100
AcDbEntity
  8
TEXT
100
AcDbText
 10
168.6200430748503
 20
26.03708088939301
 30
0.0
 40
2.5
  1
ersetzt durch:
 41
0.8
  7
GREEKS
100
AcDbText
  0
LINE
  5
85
330
1E
100
AcDbEntity
  8
STEMPEL
100
AcDbLine
 10
205.0
 20
5.0
 30
0.0
 11
19.99999999999994
 21
5.0
 31
0.0
  0
LINE
  5
86
330
1E
100
AcDbEntity
  8
STEMPEL
100
AcDbLine
 10
205.0
 20
5.0
 30
0.0
 11
205.0
 21
292.0
 31
0.0
  0
LINE
  5
87
330
1E
100
AcDbEntity
  8
STEMPEL
100
AcDbLine
 10
20.0
 20
5.0
 30
0.0
 11
19.99999999999994
 21
292.0
 31
0.0
  0
LINE
  5
88
330
1E
100
AcDbEntity
  8
STEMPEL
100
AcDbLine
 10
205.0
 20
292.0
 30
0.0
 11
19.99999999999994
 21
292.0
 31
0.0
  0
LINE
  5
89
330
1E
100
AcDbEntity
  8
HILF
100
AcDbLine
 10
0.0
 20
0.0
 30
0.0
 11
-0.0000000000000568
 21
297.0
 31
0.0
  0
LINE
  5
8A
330
1E
100
AcDbEntity
  8
HILF
100
AcDbLine
 10
210.0
 20
297.0000000000001
 30
0.0
 11
0.0
 21
297.0
 31
0.0
  0
LINE
  5
8B
330
1E
100
AcDbEntity
  8
HILF
100
AcDbLine
 10
210.0
 20
0.0
 30
0.0
 11
0.0
 21
0.0
 31
0.0
  0
LINE
  5
8C
330
1E
100
AcDbEntity
  8
HILF
100
AcDbLine
 10
15.54383567856928
 20
148.5
 30
0.0
 11
0.0000000000000568
 21
148.5
 31
0.0
  0
TEXT
  5
8D
330
1E
100
AcDbEntity
  8
TEXT
100
AcDbText
 10
69.31105491105199
 20
36.57012735575833
 30
0.0
 40
2.0
  1
2011
 41
0.8
  7
GREEKS
100
AcDbText
  0
LINE
  5
8E
330
1E
100
AcDbEntity
  8
HILF
100
AcDbLine
 10
210.0
 20
-0.0000000000000568
 30
0.0
 11
210.0
 21
297.0
 31
0.0
  0
TEXT
  5
8F
330
1E
100
AcDbEntity
  8
VOLL
100
AcDbText
 10
78.07675471698113
 20
31.02594776470585
 30
0.0
 40
1.8
  1

  7
GREEKS
100
AcDbText
  0
TEXT
  5
90
330
1E
100
AcDbEntity
  8
TEXT
100
AcDbText
 10
20.92754975488837
 20
55.83599999999997
 30
0.0
 40
2.5
  1
Erstellt mit AUTOCAD 2004
 41
0.8
  7
GREEKS
100
AcDbText
  0
TEXT
  5
91
330
1E
100
AcDbEntity
  8
TEXT
100
AcDbText
 10
97.21080242906285
 20
31.54481959861755
 30
0.0
 40
2.0
  1
Koeh
 41
0.8
  7
GREEKS
 72
     1
 11
99.83937385763429
 21
31.54481959861755
 31
0.0
100
AcDbText
  0
TEXT
  5
92
330
1E
100
AcDbEntity
  8
TEXT
 62
     1
100
AcDbText
 10
173.2721026169866
 20
44.07450714456979
 30
0.0
 40
3.5
  1
00720050W
 41
0.8
  7
GREEKS
 72
     1
 11
185.2721026169866
 21
44.07450714456979
 31
0.0
100
AcDbText
  0
TEXT
  5
93
330
1E
100
AcDbEntity
  8
TEXT
 62
     1
100
AcDbText
 10
75.25031532409435
 20
44.07450714456979
 30
0.0
 40
3.5
  1
1:1
 41
0.8
  7
GREEKS
100
AcDbText
  0
TEXT
  5
94
330
1E
100
AcDbEntity
  8
TEXT
100
AcDbText
 10
80.61854617316564
 20
31.55382520412866
 30
0.0
 40
2.0
  1
01.04
 41
0.8
  7
GREEKS
 72
     1
 11
83.70426045887993
 21
31.55382520412866
 31
0.0
100
AcDbText
  0
TEXT
  5
95
330
1E
100
AcDbEntity
  8
TEXT
 62
     1
100
AcDbText
 10
113.4467865528701
 20
43.70874394626889
 30
0.0
 40
3.5
  1
Anschlußstück DN50
 41
0.8
  7
GREEKS
100
AcDbText
  0
TEXT
  5
96
330
1E
100
AcDbEntity
  8
TEXT
100
AcDbText
 10
112.5648195562657
 20
35.75167208792644
 30
0.0
 40
2.5
  1
mit Gewinde Rp2
 41
0.8
  7
GREEKS
100
AcDbText
  0
TEXT
  5
98
330
1E
100
AcDbEntity
  8
TEXT
100
AcDbText
 10
112.5648195562657
 20
25.82005971521079
 30
0.0
 40
2.5
  1
EDV-Art.Nr. 00720.050X
 41
0.8
  7
GREEKS
100
AcDbText
  0
TEXT
  5
99
330
1E
100
AcDbEntity
  8
TEXT
100
AcDbText
 10
112.4918750788913
 20
21.31487076511316
 30
0.0
 40
2.0
  1
00720050W.DWG
 41
0.8
  7
GREEKS
100
AcDbText
  0
TEXT
  5
9A
330
1E
100
AcDbEntity
  8
TEXT
100
AcDbText
 10
91.31306610404202
 20
45.38181920511511
 30
0.0
 40
2.0
  1
DIN EN1123-2
 41
0.8
  7
GREEKS
 72
     1
 11
99.80830419928011
 21
45.38181920511511
 31
0.0
100
AcDbText
  0
INSERT
  5
9B
330
1E
100
AcDbEntity
  8
STEMPEL
100
AcDbBlockReference
  2
LOGO
 10
70.4977742728897
 20
22.51052638224161
 30
0.0
  0
TEXT
  5
118
330
1E
100
AcDbEntity
  8
BEM
100
AcDbText
 10
208.6511461928583
 20
5.083950539994247
 30
0.0
 40
2.0
  1
Diese Zeichnung ist urheberrechtlich geschützt und bleibt unser Eigentum. Sie darf weder ganz noch teilweise verfielfältigt und nicht an Dritte weitergegeben werden.
 50
90.0
 41
0.8
  7
GREEKS
100
AcDbText
  0
TEXT
  5
2B3
330
1E
100
AcDbEntity
  8
TEXT
 62
     1
100
AcDbText
 10
102.4519776988419
 20
137.407228638415
 30
0.0
 40
3.5
  1
DN50
 50
90.0
 41
0.8
  7
GREEKS
100
AcDbText
  0
TEXT
  5
2B4
330
1E
100
AcDbEntity
  8
TEXT
 62
     1
100
AcDbText
 10
138.1725262906716
 20
83.34804688148429
 30
0.0
 40
3.5
  1
Rohrende leicht eingezogen
 41
0.8
  7
GREEKS
100
AcDbText
  0
TEXT
  5
44C
330
1E
100
AcDbEntity
  8
TEXT
 62
     1
100
AcDbText
 10
93.32802422862448
 20
69.90022919477588
 30
0.0
 40
3.5
  1
Werkstoff: E195 EN10305 galvanisch verzinkt
 41
0.8
  7
GREEKS
100
AcDbText
  0
ARC
  5
630
330
1E
100
AcDbEntity
  8
SCHRAFF
100
AcDbCircle
 10
79.23010482758083
 20
215.341403056199
 30
0.0
 40
1.897650953674851
100
AcDbArc
 50
144.0608350100827
 51
261.1484863081307
  0
ARC
  5
631
330
1E
100
AcDbEntity
  8
SCHRAFF
100
AcDbCircle
 10
138.657274193822
 20
215.341403056199
 30
0.0
 40
1.897650953674853
100
AcDbArc
 50
278.8515136918685
 51
35.93916498991724
  0
LINE
  5
634
330
1E
100
AcDbEntity
  8
MITTEL
100
AcDbLine
 10
108.9436895107014
 20
256.4551836073138
 30
0.0
 11
108.9436895107014
 21
106.4551836073138
 31
0.0
  0
DIMENSION
  5
635
330
1E
100
AcDbEntity
  8
BEM
100
AcDbDimension
  2
*D1
 10
135.4436895107014
 20
97.823434238511
 30
0.0
 11
108.9436895107014
 21
101.073434238511
 31
0.0
 70
    32
  1
%%C<>
 71
     5
 42
53.0
  3
Standard
100
AcDbAlignedDimension
 13
82.44368951070143
 23
116.828391358614
 33
0.0
 14
135.4436895107014
 24
116.828391358614
 34
0.0
100
AcDbRotatedDimension
1001
ACAD
1000
DSTYLE
1002
{
1070
    41
1040
3.5
1070
    42
1040
1.0
1070
    43
1040
7.0
1070
    44
1040
1.0
1070
    73
1070
     0
1070
    74
1070
     0
1070
    77
1070
     1
1070
    78
1070
     8
1070
    79
1070
     2
1070
   140
1040
3.5
1070
   141
1040
1.5
1070
   146
1040
0.5142857142857144
1070
   147
1040
1.5
1070
   172
1070
     1
1070
   178
1070
     1
1070
   179
1070
     2
1070
   271
1070
     2
1070
   272
1070
     2
1070
   284
1070
     8
1070
   285
1070
     8
1070
   286
1070
     8
1002
}
  0
DIMENSION
  5
636
330
1E
100
AcDbEntity
  8
BEM
100
AcDbDimension
  2
*D2
 10
55.94600822077413
 20
111.4551836073138
 30
0.0
 11
52.69600822077412
 21
181.4551836073138
 31
0.0
 70
    32
 71
     5
 42
140.0
  3
Standard
100
AcDbAlignedDimension
 13
77.69368951070145
 23
251.4551836073138
 33
0.0
 14
83.31857614596069
 24
111.4551836073138
 34
0.0
 50
90.0
100
AcDbRotatedDimension
1001
ACAD
1000
DSTYLE
1002
{
1070
    41
1040
3.5
1070
    42
1040
1.0
1070
    43
1040
7.0
1070
    44
1040
1.0
1070
    73
1070
     0
1070
    74
1070
     0
1070
    77
1070
     1
1070
    78
1070
     8
1070
    79
1070
     2
1070
   140
1040
3.5
1070
   141
1040
1.5
1070
   146
1040
0.5142857142857144
1070
   147
1040
1.5
1070
   172
1070
     1
1070
   178
1070
     1
1070
   179
1070
     2
1070
   271
1070
     2
1070
   272
1070
     2
1070
   284
1070
     8
1070
   285
1070
     8
1070
   286
1070
     8
1002
}
  0
DIMENSION
  5
637
330
1E
100
AcDbEntity
  8
BEM
100
AcDbDimension
  2
*D3
 10
64.20538712165839
 20
111.4551836073138
 30
0.0
 11
60.95538712165836
 21
163.9551836073138
 31
0.0
 70
    32
 71
     5
 42
105.0
  3
Standard
100
AcDbAlignedDimension
 13
77.69368951070145
 23
216.4551836073138
 33
0.0
 14
83.31857614596069
 24
111.4551836073138
 34
0.0
 50
90.0
100
AcDbRotatedDimension
1001
ACAD
1000
DSTYLE
1002
{
1070
    41
1040
3.5
1070
    42
1040
1.0
1070
    43
1040
7.0
1070
    44
1040
1.0
1070
    73
1070
     0
1070
    74
1070
     0
1070
    77
1070
     1
1070
    78
1070
     8
1070
    79
1070
     2
1070
   140
1040
3.5
1070
   141
1040
1.5
1070
   146
1040
0.5142857142857144
1070
   147
1040
1.5
1070
   172
1070
     1
1070
   178
1070
     1
1070
   179
1070
     2
1070
   271
1070
     2
1070
   272
1070
     2
1070
   284
1070
     8
1070
   285
1070
     8
1070
   286
1070
     8
1002
}
  0
DIMENSION
  5
638
330
1E
100
AcDbEntity
  8
BEM
100
AcDbDimension
  2
*D4
 10
64.20538712165839
 20
216.4551836073138
 30
0.0
 11
60.95538712165836
 21
233.9551836073138
 31
0.0
 70
    32
 71
     5
 42
34.99999999999997
  3
Standard
100
AcDbAlignedDimension
 13
77.69368951070145
 23
251.4551836073138
 33
0.0
 14
77.69368951070145
 24
216.4551836073138
 34
0.0
 50
90.0
100
AcDbRotatedDimension
1001
ACAD
1000
DSTYLE
1002
{
1070
    41
1040
3.5
1070
    42
1040
1.0
1070
    43
1040
7.0
1070
    44
1040
1.0
1070
    73
1070
     0
1070
    74
1070
     0
1070
    77
1070
     1
1070
    78
1070
     8
1070
    79
1070
     2
1070
   140
1040
3.5
1070
   141
1040
1.5
1070
   146
1040
0.5142857142857144
1070
   147
1040
1.5
1070
   172
1070
     1
1070
   178
1070
     1
1070
   179
1070
     2
1070
   271
1070
     2
1070
   272
1070
     2
1070
   284
1070
     8
1070
   285
1070
     8
1070
   286
1070
     8
1002
}
  0
DIMENSION
  5
63A
330
1E
100
AcDbEntity
  8
BEM
100
AcDbDimension
  2
*D5
 10
138.7436895107014
 20
258.6839664031988
 30
0.0
 11
108.9436895107014
 21
262.5172997365321
 31
0.0
 70
    32
  1
Rp 2
 71
     5
 42
59.59999999999997
  3
Standard
100
AcDbAlignedDimension
 13
79.14368951070148
 23
251.4551836073138
 33
0.0
 14
138.7436895107014
 24
251.4551836073138
 34
0.0
100
AcDbRotatedDimension
1001
ACAD
1000
DSTYLE
1002
{
1070
    41
1040
3.5
1070
    42
1040
1.0
1070
    43
1040
7.0
1070
    44
1040
1.0
1070
    73
1070
     0
1070
    74
1070
     0
1070
    77
1070
     1
1070
    78
1070
     8
1070
    79
1070
     2
1070
   140
1040
3.5
1070
   141
1040
1.5
1070
   146
1040
0.5142857142857144
1070
   147
1040
1.5
1070
   172
1070
     1
1070
   178
1070
     1
1070
   179
1070
     2
1070
   271
1070
     2
1070
   272
1070
     2
1070
   284
1070
     8
1070
   285
1070
     8
1070
   286
1070
     8
1002
}
  0
LINE
  5
64C
330
1E
100
AcDbEntity
  8
STEMPEL
100
AcDbLine
 10
140.1036895107014
 20
215.7751836073138
 30
0.0
 11
136.2882719827021
 21
208.1443485513151
 31
0.0
  0
LINE
  5
64D
330
1E
100
AcDbEntity
  8
STEMPEL
100
AcDbLine
 10
77.77909970732638
 20
215.7843632140638
 30
0.0
 11
81.59910703870076
 21
208.1443485513151
 31
0.0
  0
LINE
  5
64F
330
1E
100
AcDbEntity
  8
STEMPEL
100
AcDbLine
 10
80.64368951070148
 20
249.9551836073138
 30
0.0
 11
137.2436895107014
 21
249.9551836073139
 31
0.0
  0
LINE
  5
650
102
{ACAD_REACTORS
330
9C4
102
}
330
1E
100
AcDbEntity
  8
STEMPEL
100
AcDbLine
 10
138.7436895107014
 20
251.4551836073138
 30
0.0
 11
137.2436895107014
 21
249.9551836073139
 31
0.0
  0
LINE
  5
651
102
{ACAD_REACTORS
330
9C4
102
}
330
1E
100
AcDbEntity
  8
STEMPEL
100
AcDbLine
 10
79.14368951070148
 20
251.4551836073138
 30
0.0
 11
80.64368951070148
 21
249.9551836073138
 31
0.0
  0
LINE
  5
652
102
{ACAD_REACTORS
330
9C4
102
}
330
1E
100
AcDbEntity
  8
HILF
100
AcDbLine
 10
79.14368951070148
 20
251.4551836073138
 30
0.0
 11
79.14368951070148
 21
237.4824715187185
 31
0.0
  0
LINE
  5
653
102
{ACAD_REACTORS
330
9C4
102
}
330
1E
100
AcDbEntity
  8
HILF
100
AcDbLine
 10
138.7436895107014
 20
251.4551836073138
 30
0.0
 11
138.7436895107014
 21
236.0944674124785
 31
0.0
  0
LINE
  5
654
102
{ACAD_REACTORS
330
9C4
102
}
330
1E
100
AcDbEntity
  8
STEMPEL
100
AcDbLine
 10
137.2436895107014
 20
249.9551836073139
 30
0.0
 11
137.2436895107014
 21
235.3892941132785
 31
0.0
  0
LINE
  5
655
102
{ACAD_REACTORS
330
9C4
102
}
330
1E
100
AcDbEntity
  8
STEMPEL
100
AcDbLine
 10
80.64368951070148
 20
249.9551836073138
 30
0.0
 11
80.64368951070148
 21
238.1876448179185
 31
0.0
  0
LINE
  5
658
330
1E
100
AcDbEntity
  8
STEMPEL
100
AcDbLine
 10
135.4436895107014
 20
116.828391358614
 30
0.0
 11
134.5688028754421
 21
111.4551836073138
 31
0.0
  0
LINE
  5
659
330
1E
100
AcDbEntity
  8
STEMPEL
100
AcDbLine
 10
82.44368951070143
 20
116.828391358614
 30
0.0
 11
83.31857614596069
 21
111.4551836073138
 31
0.0
  0
LINE
  5
65A
330
1E
100
AcDbEntity
  8
HILF
100
AcDbLine
 10
83.94368951070143
 20
116.828391358614
 30
0.0
 11
133.9436895107014
 21
116.828391358614
 31
0.0
  0
LINE
  5
65D
330
1E
100
AcDbEntity
  8
STEMPEL
100
AcDbLine
 10
135.4436895107014
 20
204.5666397873155
 30
0.0
 11
135.4436895107014
 21
116.828391358614
 31
0.0
  0
LINE
  5
65E
330
1E
100
AcDbEntity
  8
STEMPEL
100
AcDbLine
 10
82.44368951070143
 20
204.5666397873154
 30
0.0
 11
82.44368951070143
 21
116.828391358614
 31
0.0
  0
LINE
  5
65F
330
1E
100
AcDbEntity
  8
STEMPEL
100
AcDbLine
 10
83.31857614596069
 20
111.4551836073138
 30
0.0
 11
134.5688028754421
 21
111.4551836073138
 31
0.0
  0
LINE
  5
660
330
1E
100
AcDbEntity
  8
STEMPEL
100
AcDbLine
 10
77.69368951070145
 20
216.4551836073138
 30
0.0
 11
140.1936895107014
 21
216.4551836073138
 31
0.0
  0
LINE
  5
661
102
{ACAD_REACTORS
330
9C4
102
}
330
1E
100
AcDbEntity
  8
STEMPEL
100
AcDbLine
 10
77.69368951070145
 20
251.4551836073137
 30
0.0
 11
140.1936895107014
 21
251.4551836073138
 31
0.0
  0
ARC
  5
7B6
330
1E
100
AcDbEntity
  8
STEMPEL
100
AcDbCircle
 10
143.4436895107014
 20
204.5666397873155
 30
0.0
 40
8.0
100
AcDbArc
 50
153.434948822922
 51
180.0
  0
ARC
  5
7B7
330
1E
100
AcDbEntity
  8
STEMPEL
100
AcDbCircle
 10
74.44368951070143
 20
204.5666397873154
 30
0.0
 40
8.0
100
AcDbArc
 50
0.0
 51
26.565051177078
  0
LINE
  5
7BC
330
1E
100
AcDbEntity
  8
HILF
100
AcDbLine
 10
83.76418682103834
 20
206.4046631516943
 30
0.0
 11
134.1231922003645
 21
206.4046631516943
 31
0.0
  0
LINE
  5
876
102
{ACAD_REACTORS
330
9C4
102
}
330
1E
100
AcDbEntity
  8
STEMPEL
100
AcDbLine
 10
77.69368951070145
 20
251.4551836073137
 30
0.0
 11
77.69368951070145
 21
216.4551836073138
 31
0.0
  0
LINE
  5
877
102
{ACAD_REACTORS
330
9C4
102
}
330
1E
100
AcDbEntity
  8
STEMPEL
100
AcDbLine
 10
140.1936895107014
 20
251.4551836073138
 30
0.0
 11
140.1936895107014
 21
216.4551836073138
 31
0.0
  0
LINE
  5
8A5
330
1E
100
AcDbEntity
  8
STEMPEL
100
AcDbLine
 10
138.7436895107014
 20
216.4551836073138
 30
0.0
 11
140.1036895107014
 21
215.7751836073138
 31
0.0
  0
LINE
  5
8A6
330
1E
100
AcDbEntity
  8
STEMPEL
100
AcDbLine
 10
79.12074049382624
 20
216.4551836073138
 30
0.0
 11
77.77909970732636
 21
215.7843632140639
 31
0.0
  0
HATCH
  5
8C8
330
1E
100
AcDbEntity
  8
SCHRAFF
100
AcDbHatch
 10
0.0
 20
0.0
 30
0.0
210
0.0
220
0.0
230
1.0
  2
_USER
 70
     0
 71
     0
 91
        2
 92
        7
 72
     1
 73
     1
 93
        5
 10
140.1936895107014
 20
216.4551836073138
 42
0.0
 10
138.7666385275766
 20
216.4551836073139
 42
0.0
 10
138.7620487242016
 20
216.4460040005637
 42
0.0
 10
140.1036895107014
 20
215.7751836073138
 42
0.0
 10
138.9492738569956
 20
213.4663522999022
 42
0.5605294152030016
 97
        0
 92
        7
 72
     1
 73
     1
 93
        4
 10
77.77909970732636
 20
215.7843632140639
 42
0.0
 10
79.12074049382624
 20
216.4551836073138
 42
0.0
 10
77.69368951070145
 20
216.4551836073138
 42
0.5605294152029878
 10
78.93810516440722
 20
213.4663522999022
 42
0.0
 97
        0
 75
     0
 76
     0
 52
0.0
 41
0.1
 77
     0
 78
     1
 53
0.0
 43
-3.556310489298539
 44
0.0
 45
0.0
 46
0.1
 79
     0
 47
0.2003248707305324
 98
        2
 10
140.083416195898
 20
214.3580923101708
 10
78.14576286332203
 20
214.3580923101708
  0
SPLINE
  5
9A3
102
{ACAD_REACTORS
330
9C4
102
}
330
1E
100
AcDbEntity
  8
HILF
100
AcDbSpline
210
0.0
220
0.0
230
1.0
 70
     8
 71
     3
 72
    11
 73
     7
 74
     5
 42
0.0000000001
 43
0.0000000001
 44
0.0000000001
 40
0.0
 40
0.0
 40
0.0
 40
0.0
 40
16.40550593550834
 40
32.81101187101671
 40
49.21651780652506
 40
65.62202374203343
 40
65.62202374203343
 40
65.62202374203343
 40
65.62202374203343
 10
77.69368951070145
 20
236.7884694655985
 30
0.0
 10
82.90202284403477
 20
239.2884694655985
 30
0.0
 10
93.31868951070145
 20
244.2884694655985
 30
0.0
 10
108.9436895107014
 20
236.7884694655985
 30
0.0
 10
124.5686895107014
 20
229.2884694655985
 30
0.0
 10
134.9853561773681
 20
234.2884694655985
 30
0.0
 10
140.1936895107014
 20
236.7884694655985
 30
0.0
 11
77.69368951070145
 21
236.7884694655985
 31
0.0
 11
93.31868951070143
 21
241.7884694655985
 31
0.0
 11
108.9436895107014
 21
236.7884694655985
 31
0.0
 11
124.5686895107014
 21
231.7884694655985
 31
0.0
 11
140.1936895107014
 21
236.7884694655985
 31
0.0
  0
HATCH
  5
9C4
330
1E
100
AcDbEntity
  8
SCHRAFF
100
AcDbHatch
 10
0.0
 20
0.0
 30
0.0
210
0.0
220
0.0
230
1.0
  2
_USER
 70
     0
 71
     1
 91
        4
 92
        5
 93
        4
 72
     1
 10
140.1936895107014
 20
251.4551836073138
 11
138.7436895107014
 21
251.4551836073138
 72
     1
 10
138.7436895107014
 20
251.4551836073138
 11
138.7436895107014
 21
236.0944674124786
 72
     4
 94
        3
 73
     0
 74
     0
 95
        8
 96
        4
 40
64.09959279121828
 40
64.09959279121828
 40
64.09959279121828
 40
64.09959279121828
 40
65.62202374203343
 40
65.62202374203343
 40
65.62202374203343
 40
65.62202374203343
 10
138.7436895107014
 20
236.0944674124785
 10
139.2270228440347
 20
236.3244694655985
 10
139.7103561773681
 20
236.5564694655985
 10
140.1936895107014
 20
236.7884694655985
 72
     1
 10
140.1936895107014
 20
236.7884694655986
 11
140.1936895107014
 21
251.4551836073138
 97
        4
330
661
330
653
330
9A3
330
877
 92
        5
 93
        4
 72
     1
 10
138.7436895107014
 20
251.4551836073138
 11
137.2436895107014
 21
249.9551836073139
 72
     1
 10
137.2436895107014
 20
249.9551836073139
 11
137.2436895107014
 21
235.3892941132786
 72
     4
 94
        3
 73
     0
 74
     0
 95
        8
 96
        4
 40
62.52466422140948
 40
62.52466422140948
 40
62.52466422140948
 40
62.52466422140948
 40
64.09959279121828
 40
64.09959279121828
 40
64.09959279121828
 40
64.09959279121828
 10
137.2436895107014
 20
235.3892941132786
 10
137.7436895107015
 20
235.6207392076785
 10
138.2436895107014
 20
235.8565342540785
 10
138.7436895107014
 20
236.0944674124785
 72
     1
 10
138.7436895107014
 20
236.0944674124785
 11
138.7436895107014
 21
251.4551836073138
 97
        4
330
650
330
654
330
9A3
330
653
 92
        5
 93
        4
 72
     1
 10
80.64368951070147
 20
249.9551836073139
 11
79.14368951070148
 21
251.4551836073138
 72
     1
 10
79.14368951070148
 20
251.4551836073138
 11
79.14368951070146
 21
237.4824715187185
 72
     4
 94
        3
 73
     0
 74
     0
 95
        8
 96
        4
 40
1.522430950815209
 40
1.522430950815209
 40
1.522430950815209
 40
1.522430950815209
 40
3.09735952062401
 40
3.09735952062401
 40
3.09735952062401
 40
3.09735952062401
 10
79.14368951070149
 20
237.4824715187185
 10
79.64368951070149
 20
237.7204046771185
 10
80.14368951070149
 20
237.9561997235185
 10
80.64368951070148
 20
238.1876448179185
 72
     1
 10
80.64368951070148
 20
238.1876448179186
 11
80.64368951070147
 21
249.9551836073139
 97
        4
330
651
330
652
330
9A3
330
655
 92
        5
 93
        4
 72
     1
 10
79.14368951070148
 20
251.4551836073137
 11
77.69368951070145
 21
251.4551836073137
 72
     1
 10
77.69368951070145
 20
251.4551836073137
 11
77.69368951070145
 21
236.7884694655985
 72
     4
 94
        3
 73
     0
 74
     0
 95
        8
 96
        4
 40
0.0
 40
0.0
 40
0.0
 40
0.0
 40
1.522430950815209
 40
1.522430950815209
 40
1.522430950815209
 40
1.522430950815209
 10
77.69368951070145
 20
236.7884694655985
 10
78.1770228440348
 20
237.0204694655985
 10
78.66035617736814
 20
237.2524694655985
 10
79.14368951070149
 20
237.4824715187185
 72
     1
 10
79.14368951070148
 20
237.4824715187186
 11
79.14368951070148
 21
251.4551836073137
 97
        4
330
661
330
876
330
9A3
330
652
 75
     0
 76
     0
 52
45.0
 41
2.0
 77
     0
 78
     1
 53
45.0
 43
0.0
 44
0.0
 45
-1.414213562373094
 46
1.414213562373095
 79
     0
 47
0.146428746964157
 98
        4
 10
139.4703678030687
 20
244.883809258763
 10
138.2985433039719
 20
245.3230956682761
 10
80.00024570052028
 20
244.5909516524208
 10
77.94955134393672
 20
245.3230956682761
  0
ARC
  5
9C7
330
1E
100
AcDbEntity
  8
SCHRAFF
100
AcDbCircle
 10
76.67149731982156
 20
214.9551836073138
 30
0.0
 40
5.0
100
AcDbArc
 50
342.6765111021979
 51
17.45760312372208
  0
ARC
  5
9C8
330
1E
100
AcDbEntity
  8
SCHRAFF
100
AcDbCircle
 10
81.67149731982156
 20
214.9551836073138
 30
0.0
 40
5.0
100
AcDbArc
 50
342.6765111021979
 51
17.45760312372208
  0
ARC
  5
9C9
330
1E
100
AcDbEntity
  8
SCHRAFF
100
AcDbCircle
 10
91.67149731982156
 20
214.9551836073138
 30
0.0
 40
5.0
100
AcDbArc
 50
342.6765111021979
 51
17.45760312372208
  0
ARC
  5
9CA
330
1E
100
AcDbEntity
  8
SCHRAFF
100
AcDbCircle
 10
86.67149731982156
 20
214.9551836073138
 30
0.0
 40
5.0
100
AcDbArc
 50
342.6765111021979
 51
17.45760312372208
  0
ARC
  5
9CB
330
1E
100
AcDbEntity
  8
SCHRAFF
100
AcDbCircle
 10
96.67149731982156
 20
214.9551836073138
 30
0.0
 40
5.0
100
AcDbArc
 50
342.6765111021979
 51
17.45760312372208
  0
ARC
  5
9CC
330
1E
100
AcDbEntity
  8
SCHRAFF
100
AcDbCircle
 10
101.6714973198215
 20
214.9551836073138
 30
0.0
 40
5.0
100
AcDbArc
 50
342.6765111021979
 51
17.45760312372208
  0
ARC
  5
9CD
330
1E
100
AcDbEntity
  8
SCHRAFF
100
AcDbCircle
 10
131.6714973198216
 20
214.9551836073138
 30
0.0
 40
5.0
100
AcDbArc
 50
342.6765111021979
 51
17.45760312372208
  0
ARC
  5
9CE
330
1E
100
AcDbEntity
  8
SCHRAFF
100
AcDbCircle
 10
126.6714973198215
 20
214.9551836073138
 30
0.0
 40
5.0
100
AcDbArc
 50
342.6765111021979
 51
17.45760312372208
  0
ARC
  5
9CF
330
1E
100
AcDbEntity
  8
SCHRAFF
100
AcDbCircle
 10
116.6714973198216
 20
214.9551836073138
 30
0.0
 40
5.0
100
AcDbArc
 50
342.6765111021979
 51
17.45760312372208
  0
ARC
  5
9D0
330
1E
100
AcDbEntity
  8
SCHRAFF
100
AcDbCircle
 10
121.6714973198215
 20
214.9551836073138
 30
0.0
 40
5.0
100
AcDbArc
 50
342.6765111021979
 51
17.45760312372208
  0
ARC
  5
9D1
330
1E
100
AcDbEntity
  8
SCHRAFF
100
AcDbCircle
 10
111.6714973198215
 20
214.9551836073138
 30
0.0
 40
5.0
100
AcDbArc
 50
342.6765111021979
 51
17.45760312372208
  0
ARC
  5
9D2
330
1E
100
AcDbEntity
  8
SCHRAFF
100
AcDbCircle
 10
106.6714973198215
 20
214.9551836073138
 30
0.0
 40
5.0
100
AcDbArc
 50
342.6765111021979
 51
17.45760312372208
  0
ENDSEC
  0
SECTION
  2
OBJECTS
  0
DICTIONARY
  5
C
330
0
100
AcDbDictionary
281
     1
  3
ACAD_COLOR
350
DF
  3
ACAD_GROUP
350
D
  3
ACAD_LAYOUT
350
19
  3
ACAD_MATERIAL
350
DE
  3
ACAD_MLINESTYLE
350
16
  3
ACAD_PLOTSETTINGS
350
18
  3
ACAD_PLOTSTYLENAME
350
E
  3
AcDbVariableDictionary
350
EA
  0
DICTIONARY
  5
A0
330
1E
100
AcDbDictionary
280
     1
281
     1
  3
ACAD_LAYOUTSELFREF
360
D4
  0
DICTIONARY
  5
A2
330
1A
100
AcDbDictionary
280
     1
281
     1
  3
ACAD_LAYOUTSELFREF
360
D3
  0
DICTIONARY
  5
DF
102
{ACAD_REACTORS
330
C
102
}
330
C
100
AcDbDictionary
281
     1
  0
DICTIONARY
  5
D
102
{ACAD_REACTORS
330
C
102
}
330
C
100
AcDbDictionary
281
     1
  0
DICTIONARY
  5
19
102
{ACAD_REACTORS
330
C
102
}
330
C
100
AcDbDictionary
281
     1
  3
Layout1
350
1D
  3
Model
350
21
  0
DICTIONARY
  5
DE
102
{ACAD_REACTORS
330
C
102
}
330
C
100
AcDbDictionary
281
     1
  0
DICTIONARY
  5
16
102
{ACAD_REACTORS
330
C
102
}
330
C
100
AcDbDictionary
281
     1
  3
Standard
350
17
  0
DICTIONARY
  5
18
102
{ACAD_REACTORS
330
C
102
}
330
C
100
AcDbDictionary
281
     1
  0
ACDBDICTIONARYWDFLT
  5
E
102
{ACAD_REACTORS
330
C
102
}
330
C
100
AcDbDictionary
281
     1
  3
Normal
350
F
100
AcDbDictionaryWithDefault
340
F
  0
DICTIONARY
  5
EA
102
{ACAD_REACTORS
330
C
102
}
330
C
100
AcDbDictionary
281
     1
  3
DIMASSOC
350
EB
  3
PROJECTNAME
350
EC
  0
XRECORD
  5
D4
102
{ACAD_REACTORS
330
A0
102
}
330
A0
100
AcDbXrecord
280
     1
340
1E
  0
XRECORD
  5
D3
102
{ACAD_REACTORS
330
A2
102
}
330
A2
100
AcDbXrecord
280
     1
340
1A
  0
LAYOUT
  5
1D
102
{ACAD_REACTORS
330
19
102
}
330
19
100
AcDbPlotSettings
  1

  2
\\NT_WORK01\HP LaserJet 5000 PCL 6
  4

  6

 40
0.0
 41
0.0
 42
0.0
 43
0.0
 44
0.0
 45
0.0
 46
0.0
 47
0.0
 48
0.0
 49
0.0
140
0.0
141
0.0
142
1.0
143
1.0
 70
   688
 72
     0
 73
     0
 74
     5
  7

 75
    16
147
1.0
 76
     0
 77
     2
 78
   300
148
0.0
149
0.0
100
AcDbLayout
  1
Layout1
 70
     0
 71
     1
 10
0.0
 20
0.0
 11
12.0
 21
9.0
 12
0.0
 22
0.0
 32
0.0
 14
1.000000000000000E+20
 24
1.000000000000000E+20
 34
1.000000000000000E+20
 15
-1.000000000000000E+20
 25
-1.000000000000000E+20
 35
-1.000000000000000E+20
146
0.0
 13
0.0
 23
0.0
 33
0.0
 16
1.0
 26
0.0
 36
0.0
 17
0.0
 27
1.0
 37
0.0
 76
     0
330
1A
  0
LAYOUT
  5
21
102
{ACAD_REACTORS
330
19
102
}
330
19
100
AcDbPlotSettings
  1

  2
none_device
  4
Letter_(8.50_x_11.00_Inches)
  6

 40
6.349999904632568
 41
6.349999904632568
 42
6.350006103515625
 43
6.350006103515625
 44
215.8999938964844
 45
279.3999938964844
 46
0.0
 47
0.0
 48
0.0
 49
0.0
140
0.0
141
0.0
142
1.0
143
1.0
 70
 11952
 72
     0
 73
     1
 74
     0
  7

 75
     0
147
1.0
 76
     0
 77
     2
 78
   300
148
1152.657181375307
149
47.75715178919111
100
AcDbLayout
  1
Model
 70
     1
 71
     0
 10
0.0
 20
0.0
 11
12.0
 21
9.0
 12
0.0
 22
0.0
 32
0.0
 14
0.0
 24
0.0
 34
0.0
 15
0.0
 25
0.0
 35
0.0
146
0.0
 13
0.0
 23
0.0
 33
0.0
 16
1.0
 26
0.0
 36
0.0
 17
0.0
 27
1.0
 37
0.0
 76
     0
330
1E
  0
MLINESTYLE
  5
17
102
{ACAD_REACTORS
330
16
102
}
330
16
100
AcDbMlineStyle
  2
STANDARD
 70
     0
  3

 62
   256
 51
90.0
 52
90.0
 71
     2
 49
0.5
 62
   256
  6
BYLAYER
 49
-0.5
 62
   256
  6
BYLAYER
  0
ACDBPLACEHOLDER
  5
F
102
{ACAD_REACTORS
330
E
102
}
330
E
  0
DICTIONARYVAR
  5
EB
102
{ACAD_REACTORS
330
EA
102
}
330
EA
100
DictionaryVariables
280
     0
  1
1
  0
DICTIONARYVAR
  5
EC
102
{ACAD_REACTORS
330
EA
102
}
330
EA
100
DictionaryVariables
280
     0
  1

  0
ENDSEC
  0
EOF
