  0
SECTION
  2
HEADER
  9
$ACADVER
  1
AC1018
  9
$ACADMAINTVER
 70
     2
  9
$DWGCODEPAGE
  3
ANSI_1252
  9
$INSBASE
 10
0.0
 20
0.0
 30
0.0
  9
$EXTMIN
 10
-0.012813617635004
 20
-0.0181221163699092
 30
-0.000000000000013
  9
$EXTMAX
 10
210.0128202187944
 20
297.0181314522945
 30
0.0000000000000023
  9
$LIMMIN
 10
0.0
 20
0.0
  9
$LIMMAX
 10
210.0
 20
297.0
  9
$ORTHOMODE
 70
     1
  9
$REGENMODE
 70
     1
  9
$FILLMODE
 70
     1
  9
$QTEXTMODE
 70
     0
  9
$MIRRTEXT
 70
     1
  9
$LTSCALE
 40
10.0
  9
$ATTMODE
 70
     1
  9
$TEXTSIZE
 40
3.5
  9
$TRACEWID
 40
0.5
  9
$TEXTSTYLE
  7
STANDARD
  9
$CLAYER
  8
SCHRAFF
  9
$CELTYPE
  6
ByLayer
  9
$CECOLOR
 62
   256
  9
$CELTSCALE
 40
1.0
  9
$DISPSILH
 70
     0
  9
$DIMSCALE
 40
1.0
  9
$DIMASZ
 40
3.5
  9
$DIMEXO
 40
1.0
  9
$DIMDLI
 40
7.0
  9
$DIMRND
 40
0.0
  9
$DIMDLE
 40
0.0
  9
$DIMEXE
 40
1.0
  9
$DIMTP
 40
0.0
  9
$DIMTM
 40
0.0
  9
$DIMTXT
 40
3.5
  9
$DIMCEN
 40
1.5
  9
$DIMTSZ
 40
0.0
  9
$DIMTOL
 70
     0
  9
$DIMLIM
 70
     0
  9
$DIMTIH
 70
     0
  9
$DIMTOH
 70
     0
  9
$DIMSE1
 70
     0
  9
$DIMSE2
 70
     0
  9
$DIMTAD
 70
     1
  9
$DIMZIN
 70
     8
  9
$DIMBLK
  1

  9
$DIMASO
 70
     1
  9
$DIMSHO
 70
     0
  9
$DIMPOST
  1

  9
$DIMAPOST
  1

  9
$DIMALT
 70
     0
  9
$DIMALTD
 70
     2
  9
$DIMALTF
 40
25.4
  9
$DIMLFAC
 40
1.0
  9
$DIMTOFL
 70
     1
  9
$DIMTVP
 40
0.0
  9
$DIMTIX
 70
     0
  9
$DIMSOXD
 70
     0
  9
$DIMSAH
 70
     0
  9
$DIMBLK1
  1

  9
$DIMBLK2
  1

  9
$DIMSTYLE
  2
Standard
  9
$DIMCLRD
 70
     0
  9
$DIMCLRE
 70
     0
  9
$DIMCLRT
 70
     1
  9
$DIMTFAC
 40
0.5142857142857144
  9
$DIMGAP
 40
1.5
  9
$DIMJUST
 70
     0
  9
$DIMSD1
 70
     0
  9
$DIMSD2
 70
     0
  9
$DIMTOLJ
 70
     1
  9
$DIMTZIN
 70
     8
  9
$DIMALTZ
 70
     8
  9
$DIMALTTZ
 70
     8
  9
$DIMUPT
 70
     0
  9
$DIMDEC
 70
     2
  9
$DIMTDEC
 70
     2
  9
$DIMALTU
 70
     2
  9
$DIMALTTD
 70
     2
  9
$DIMTXSTY
  7
STANDARD
  9
$DIMAUNIT
 70
     0
  9
$DIMADEC
 70
     2
  9
$DIMALTRND
 40
0.0
  9
$DIMAZIN
 70
     2
  9
$DIMDSEP
 70
    46
  9
$DIMATFIT
 70
     3
  9
$DIMFRAC
 70
     0
  9
$DIMLDRBLK
  1

  9
$DIMLUNIT
 70
     2
  9
$DIMLWD
 70
    -2
  9
$DIMLWE
 70
    -2
  9
$DIMTMOVE
 70
     0
  9
$LUNITS
 70
     2
  9
$LUPREC
 70
     2
  9
$SKETCHINC
 40
1.0
  9
$FILLETRAD
 40
8.0
  9
$AUNITS
 70
     0
  9
$AUPREC
 70
     0
  9
$MENU
  1
ACAD
  9
$ELEVATION
 40
0.0
  9
$PELEVATION
 40
0.0
  9
$THICKNESS
 40
0.0
  9
$LIMCHECK
 70
     0
  9
$CHAMFERA
 40
0.0
  9
$CHAMFERB
 40
0.0
  9
$CHAMFERC
 40
0.0
  9
$CHAMFERD
 40
0.0
  9
$SKPOLY
 70
     0
  9
$TDCREATE
 40
2455397.864709028
  9
$TDUCREATE
 40
2455397.781375695
  9
$TDUPDATE
 40
2455653.599149457
  9
$TDUUPDATE
 40
2455653.515816123
  9
$TDINDWG
 40
0.0564577431
  9
$TDUSRTIMER
 40
0.0564577431
  9
$USRTIMER
 70
     1
  9
$ANGBASE
 50
0.0
  9
$ANGDIR
 70
     0
  9
$PDMODE
 70
     0
  9
$PDSIZE
 40
0.0
  9
$PLINEWID
 40
0.0
  9
$SPLFRAME
 70
     0
  9
$SPLINETYPE
 70
     6
  9
$SPLINESEGS
 70
     8
  9
$HANDSEED
  5
63E
  9
$SURFTAB1
 70
     6
  9
$SURFTAB2
 70
     6
  9
$SURFTYPE
 70
     6
  9
$SURFU
 70
     6
  9
$SURFV
 70
     6
  9
$UCSBASE
  2

  9
$UCSNAME
  2

  9
$UCSORG
 10
0.0
 20
0.0
 30
0.0
  9
$UCSXDIR
 10
1.0
 20
0.0
 30
0.0
  9
$UCSYDIR
 10
0.0
 20
1.0
 30
0.0
  9
$UCSORTHOREF
  2

  9
$UCSORTHOVIEW
 70
     0
  9
$UCSORGTOP
 10
0.0
 20
0.0
 30
0.0
  9
$UCSORGBOTTOM
 10
0.0
 20
0.0
 30
0.0
  9
$UCSORGLEFT
 10
0.0
 20
0.0
 30
0.0
  9
$UCSORGRIGHT
 10
0.0
 20
0.0
 30
0.0
  9
$UCSORGFRONT
 10
0.0
 20
0.0
 30
0.0
  9
$UCSORGBACK
 10
0.0
 20
0.0
 30
0.0
  9
$PUCSBASE
  2

  9
$PUCSNAME
  2

  9
$PUCSORG
 10
0.0
 20
0.0
 30
0.0
  9
$PUCSXDIR
 10
1.0
 20
0.0
 30
0.0
  9
$PUCSYDIR
 10
0.0
 20
1.0
 30
0.0
  9
$PUCSORTHOREF
  2

  9
$PUCSORTHOVIEW
 70
     0
  9
$PUCSORGTOP
 10
0.0
 20
0.0
 30
0.0
  9
$PUCSORGBOTTOM
 10
0.0
 20
0.0
 30
0.0
  9
$PUCSORGLEFT
 10
0.0
 20
0.0
 30
0.0
  9
$PUCSORGRIGHT
 10
0.0
 20
0.0
 30
0.0
  9
$PUCSORGFRONT
 10
0.0
 20
0.0
 30
0.0
  9
$PUCSORGBACK
 10
0.0
 20
0.0
 30
0.0
  9
$USERI1
 70
     0
  9
$USERI2
 70
     0
  9
$USERI3
 70
     0
  9
$USERI4
 70
     0
  9
$USERI5
 70
     0
  9
$USERR1
 40
0.0
  9
$USERR2
 40
0.0
  9
$USERR3
 40
0.0
  9
$USERR4
 40
0.0
  9
$USERR5
 40
0.0
  9
$WORLDVIEW
 70
     1
  9
$SHADEDGE
 70
     3
  9
$SHADEDIF
 70
    70
  9
$TILEMODE
 70
     1
  9
$MAXACTVP
 70
    16
  9
$PINSBASE
 10
0.0
 20
0.0
 30
0.0
  9
$PLIMCHECK
 70
     0
  9
$PEXTMIN
 10
1.000000000000000E+20
 20
1.000000000000000E+20
 30
1.000000000000000E+20
  9
$PEXTMAX
 10
-1.000000000000000E+20
 20
-1.000000000000000E+20
 30
-1.000000000000000E+20
  9
$PLIMMIN
 10
0.0
 20
0.0
  9
$PLIMMAX
 10
12.0
 20
9.0
  9
$UNITMODE
 70
     0
  9
$VISRETAIN
 70
     0
  9
$PLINEGEN
 70
     0
  9
$PSLTSCALE
 70
     0
  9
$TREEDEPTH
 70
  3020
  9
$CMLSTYLE
  2
Standard
  9
$CMLJUST
 70
     0
  9
$CMLSCALE
 40
1.0
  9
$PROXYGRAPHICS
 70
     1
  9
$MEASUREMENT
 70
     0
  9
$CELWEIGHT
370
    -1
  9
$ENDCAPS
280
     0
  9
$JOINSTYLE
280
     0
  9
$LWDISPLAY
290
     0
  9
$INSUNITS
 70
     0
  9
$HYPERLINKBASE
  1

  9
$STYLESHEET
  1
monochrome 1.ctb
  9
$XEDIT
290
     1
  9
$CEPSNTYPE
380
     0
  9
$PSTYLEMODE
290
     1
  9
$FINGERPRINTGUID
  2
{D68B0D02-A558-11D7-B632-000102183313}
  9
$VERSIONGUID
  2
{F710AC1E-61E5-4A7D-B3A5-F67B49D002C4}
  9
$EXTNAMES
290
     1
  9
$PSVPSCALE
 40
0.0
  9
$OLESTARTUP
290
     0
  9
$SORTENTS
280
   127
  9
$INDEXCTL
280
     0
  9
$HIDETEXT
280
     0
  9
$XCLIPFRAME
290
     0
  9
$HALOGAP
280
     0
  9
$OBSCOLOR
 70
   257
  9
$OBSLTYPE
280
     0
  9
$INTERSECTIONDISPLAY
280
     0
  9
$INTERSECTIONCOLOR
 70
   257
  9
$DIMASSOC
280
     1
  9
$PROJECTNAME
  1

  0
ENDSEC
  0
SECTION
  2
CLASSES
  0
CLASS
  1
ACDBDICTIONARYWDFLT
  2
AcDbDictionaryWithDefault
  3
ObjectDBX Classes
 90
        0
 91
        1
280
     0
281
     0
  0
CLASS
  1
DICTIONARYVAR
  2
AcDbDictionaryVar
  3
ObjectDBX Classes
 90
        0
 91
        2
280
     0
281
     0
  0
ENDSEC
  0
SECTION
  2
TABLES
  0
TABLE
  2
VPORT
  5
8
330
0
100
AcDbSymbolTable
 70
     4
  0
VPORT
  5
63D
330
8
100
AcDbSymbolTableRecord
100
AcDbViewportTableRecord
  2
*Active
 70
     0
 10
0.0
 20
0.0
 11
1.0
 21
1.0
 12
105.0
 22
148.5
 13
0.0
 23
0.0
 14
1.0
 24
1.0
 15
10.0
 25
10.0
 16
0.0
 26
0.0
 36
1.0
 17
0.0
 27
0.0
 37
0.0
 40
297.0
 41
1.334231805929919
 42
50.0
 43
0.0
 44
0.0
 50
0.0
 51
0.0
 71
     0
 72
  1500
 73
     1
 74
     0
 75
     0
 76
     0
 77
     0
 78
     0
281
     0
 65
     1
110
0.0
120
0.0
130
0.0
111
1.0
121
0.0
131
0.0
112
0.0
122
1.0
132
0.0
 79
     0
146
0.0
  0
ENDTAB
  0
TABLE
  2
LTYPE
  5
5
330
0
100
AcDbSymbolTable
 70
     3
  0
LTYPE
  5
13
330
5
100
AcDbSymbolTableRecord
100
AcDbLinetypeTableRecord
  2
ByBlock
 70
     0
  3

 72
    65
 73
     0
 40
0.0
  0
LTYPE
  5
14
330
5
100
AcDbSymbolTableRecord
100
AcDbLinetypeTableRecord
  2
ByLayer
 70
     0
  3

 72
    65
 73
     0
 40
0.0
  0
LTYPE
  5
15
330
5
100
AcDbSymbolTableRecord
100
AcDbLinetypeTableRecord
  2
Continuous
 70
     0
  3
Solid line
 72
    65
 73
     0
 40
0.0
  0
LTYPE
  5
25
330
5
100
AcDbSymbolTableRecord
100
AcDbLinetypeTableRecord
  2
STRICHPUNKT
 70
     0
  3
__ . __ . __ . __ . __ . __ . __ . __ . __ . __
 72
    65
 73
     4
 40
1.0
 49
0.5
 74
     0
 49
-0.25
 74
     0
 49
0.0
 74
     0
 49
-0.25
 74
     0
  0
LTYPE
  5
32
330
5
100
AcDbSymbolTableRecord
100
AcDbLinetypeTableRecord
  2
AUSGEZOGEN
 70
     0
  3
Ausgezogene Linie
 72
    65
 73
     0
 40
0.0
  0
ENDTAB
  0
TABLE
  2
LAYER
  5
2
330
0
100
AcDbSymbolTable
 70
     9
  0
LAYER
  5
10
330
2
100
AcDbSymbolTableRecord
100
AcDbLayerTableRecord
  2
0
 70
     0
 62
     7
  6
Continuous
370
    -3
390
F
  0
LAYER
  5
2A
330
2
100
AcDbSymbolTableRecord
100
AcDbLayerTableRecord
  2
VOLL
 70
     0
 62
     1
  6
Continuous
370
    -3
390
F
  0
LAYER
  5
2B
330
2
100
AcDbSymbolTableRecord
100
AcDbLayerTableRecord
  2
HILF
 70
     0
 62
     2
  6
Continuous
370
    -3
390
F
  0
LAYER
  5
2C
330
2
100
AcDbSymbolTableRecord
100
AcDbLayerTableRecord
  2
MITTEL
 70
     0
 62
     2
  6
STRICHPUNKT
370
    -3
390
F
  0
LAYER
  5
2F
330
2
100
AcDbSymbolTableRecord
100
AcDbLayerTableRecord
  2
BEM
 70
     0
 62
     7
  6
Continuous
370
    -3
390
F
  0
LAYER
  5
30
330
2
100
AcDbSymbolTableRecord
100
AcDbLayerTableRecord
  2
STEMPEL
 70
     0
 62
     3
  6
Continuous
370
    -3
390
F
  0
LAYER
  5
31
330
2
100
AcDbSymbolTableRecord
100
AcDbLayerTableRecord
  2
TEXT
 70
     0
 62
     7
  6
Continuous
370
    -3
390
F
  0
LAYER
  5
274
330
2
100
AcDbSymbolTableRecord
100
AcDbLayerTableRecord
  2
SCHRAFF
 70
     0
 62
     7
  6
AUSGEZOGEN
370
    -3
390
F
  0
LAYER
  5
2E5
330
2
100
AcDbSymbolTableRecord
100
AcDbLayerTableRecord
  2
Defpoints
 70
     0
 62
     7
  6
Continuous
290
     0
370
    -3
390
F
  0
ENDTAB
  0
TABLE
  2
STYLE
  5
3
330
0
100
AcDbSymbolTable
 70
     2
  0
STYLE
  5
11
330
3
100
AcDbSymbolTableRecord
100
AcDbTextStyleTableRecord
  2
STANDARD
 70
     0
 40
0.0
 41
0.8
 50
0.0
 71
     0
 42
3.5
  3
simplex.shx
  4

  0
STYLE
  5
24
330
3
100
AcDbSymbolTableRecord
100
AcDbTextStyleTableRecord
  2
GREEKS
 70
     0
 40
0.0
 41
0.8
 50
0.0
 71
     0
 42
2.5
  3
SIMPLEX.shx
  4

  0
ENDTAB
  0
TABLE
  2
VIEW
  5
6
330
0
100
AcDbSymbolTable
 70
     0
  0
ENDTAB
  0
TABLE
  2
UCS
  5
7
330
0
100
AcDbSymbolTable
 70
     0
  0
ENDTAB
  0
TABLE
  2
APPID
  5
9
330
0
100
AcDbSymbolTable
 70
     1
  0
APPID
  5
12
330
9
100
AcDbSymbolTableRecord
100
AcDbRegAppTableRecord
  2
ACAD
 70
     0
  0
ENDTAB
  0
TABLE
  2
DIMSTYLE
  5
A
330
0
100
AcDbSymbolTable
 70
     1
100
AcDbDimStyleTable
 71
     1
340
9D
  0
DIMSTYLE
105
9D
102
{ACAD_REACTORS
330
2C1
330
2BD
330
2BC
330
2BB
330
2BA
102
}
330
A
100
AcDbSymbolTableRecord
100
AcDbDimStyleTableRecord
  2
Standard
 70
     0
340
11
  0
ENDTAB
  0
TABLE
  2
BLOCK_RECORD
  5
1
330
0
100
AcDbSymbolTable
 70
     8
  0
BLOCK_RECORD
  5
1E
102
{ACAD_XDICTIONARY
360
A0
102
}
330
1
100
AcDbSymbolTableRecord
100
AcDbBlockTableRecord
  2
*Model_Space
340
21
  0
BLOCK_RECORD
  5
1A
102
{ACAD_XDICTIONARY
360
A2
102
}
330
1
100
AcDbSymbolTableRecord
100
AcDbBlockTableRecord
  2
*Paper_Space
340
1D
  0
BLOCK_RECORD
  5
22
330
1
100
AcDbSymbolTableRecord
100
AcDbBlockTableRecord
  2
LOGO
340
0
102
{BLKREFS
331
9B
102
}
  0
BLOCK_RECORD
  5
2E6
330
1
100
AcDbSymbolTableRecord
100
AcDbBlockTableRecord
  2
*D1
340
0
  0
BLOCK_RECORD
  5
2F3
330
1
100
AcDbSymbolTableRecord
100
AcDbBlockTableRecord
  2
*D2
340
0
  0
BLOCK_RECORD
  5
300
330
1
100
AcDbSymbolTableRecord
100
AcDbBlockTableRecord
  2
*D3
340
0
  0
BLOCK_RECORD
  5
30D
330
1
100
AcDbSymbolTableRecord
100
AcDbBlockTableRecord
  2
*D4
340
0
  0
BLOCK_RECORD
  5
341
330
1
100
AcDbSymbolTableRecord
100
AcDbBlockTableRecord
  2
*D7
340
0
  0
ENDTAB
  0
ENDSEC
  0
SECTION
  2
BLOCKS
  0
BLOCK
  5
35
330
1E
100
AcDbEntity
  8
0
100
AcDbBlockBegin
  2
*Model_Space
 70
     0
 10
0.0
 20
0.0
 30
0.0
  3
*Model_Space
  1

  0
ENDBLK
  5
36
330
1E
100
AcDbEntity
  8
0
100
AcDbBlockEnd
  0
BLOCK
  5
33
330
1A
100
AcDbEntity
 67
     1
  8
0
100
AcDbBlockBegin
  2
*Paper_Space
 70
     0
 10
0.0
 20
0.0
 30
0.0
  3
*Paper_Space
  1

  0
ENDBLK
  5
34
330
1A
100
AcDbEntity
 67
     1
  8
0
100
AcDbBlockEnd
  0
BLOCK
  5
37
330
22
100
AcDbEntity
  8
0
100
AcDbBlockBegin
  2
LOGO
 70
     0
 10
0.0
 20
0.0
 30
0.0
  3
LOGO
  1

  0
ARC
  5
38
330
22
100
AcDbEntity
  8
0
100
AcDbCircle
 10
11.59973089678112
 20
-9.271599258481501
 30
0.0
 40
4.5
100
AcDbArc
 50
270.0
 51
231.0575587310159
  0
LINE
  5
39
330
22
100
AcDbEntity
  8
0
100
AcDbLine
 10
3.599730896781125
 20
-4.771599258481529
 30
0.0
 11
3.599730896781153
 21
-11.77159925848133
 31
0.0
  0
LINE
  5
3A
330
22
100
AcDbEntity
  8
0
100
AcDbLine
 10
2.599730896781125
 20
-4.771599258481529
 30
0.0
 11
2.599730896781153
 21
-11.77159925848133
 31
0.0
  0
CIRCLE
  5
3B
330
22
100
AcDbEntity
  8
0
100
AcDbCircle
 10
11.59973089678112
 20
-9.271599258481501
 30
0.0
 40
3.5
  0
ARC
  5
3C
330
22
100
AcDbEntity
  8
0
100
AcDbCircle
 10
31.59973089678115
 20
-9.271599258481472
 30
0.0
 40
4.5
100
AcDbArc
 50
270.0
 51
231.0575587310182
  0
LINE
  5
3D
330
22
100
AcDbEntity
  8
0
100
AcDbLine
 10
17.59973089678112
 20
-4.771599258481472
 30
0.0
 11
17.59973089678115
 21
-13.77159925848147
 31
0.0
  0
ARC
  5
3E
330
22
100
AcDbEntity
  8
0
100
AcDbCircle
 10
22.59973089678116
 20
-7.271599258481472
 30
0.0
 40
2.5
100
AcDbArc
 50
293.1161887722295
 51
90.0
  0
CIRCLE
  5
3F
330
22
100
AcDbEntity
  8
0
100
AcDbCircle
 10
31.59973089678115
 20
-9.271599258481472
 30
0.0
 40
3.5
  0
ARC
  5
40
330
22
100
AcDbEntity
  8
0
100
AcDbCircle
 10
4.599730896781153
 20
-11.77159925848133
 30
0.0
 40
1.0
100
AcDbArc
 50
180.0
 51
270.0
  0
ARC
  5
41
330
22
100
AcDbEntity
  8
0
100
AcDbCircle
 10
4.599730896781153
 20
-11.77159925848133
 30
0.0
 40
2.0
100
AcDbArc
 50
179.9999999999992
 51
270.0
  0
LINE
  5
42
330
22
100
AcDbEntity
  8
0
100
AcDbLine
 10
11.59973089678115
 20
-13.77159925848144
 30
0.0
 11
4.599730896781153
 21
-13.77159925848147
 31
0.0
  0
LINE
  5
43
330
22
100
AcDbEntity
  8
0
100
AcDbLine
 10
8.771303772034769
 20
-12.77159925848136
 30
0.0
 11
4.599730896781153
 21
-12.77159925848133
 31
0.0
  0
LINE
  5
44
330
22
100
AcDbEntity
  8
0
100
AcDbLine
 10
31.59973089678115
 20
-13.77159925848147
 30
0.0
 11
23.6715276665056
 21
-13.77159925848144
 31
0.0
  0
LINE
  5
45
330
22
100
AcDbEntity
  8
0
100
AcDbLine
 10
23.56565672307022
 20
-9.51278021337896
 30
0.0
 11
24.4388546544846
 21
-12.77159925848144
 31
0.0
  0
LINE
  5
46
330
22
100
AcDbEntity
  8
0
100
AcDbLine
 10
22.59973089678116
 20
-9.771599258481472
 30
0.0
 11
18.59973089678112
 21
-9.771599258481472
 31
0.0
  0
LINE
  5
47
330
22
100
AcDbEntity
  8
0
100
AcDbLine
 10
18.59973089678115
 20
-13.77159925848144
 30
0.0
 11
17.59973089678115
 21
-13.77159925848144
 31
0.0
  0
LINE
  5
48
330
22
100
AcDbEntity
  8
0
100
AcDbLine
 10
18.59973089678115
 20
-9.771599258481472
 30
0.0
 11
18.59973089678115
 21
-13.77159925848144
 31
0.0
  0
LINE
  5
49
330
22
100
AcDbEntity
  8
0
100
AcDbLine
 10
22.59973089678116
 20
-9.771599258481472
 30
0.0
 11
23.67152766650562
 21
-13.77159925848147
 31
0.0
  0
ARC
  5
4A
330
22
100
AcDbEntity
  8
0
100
AcDbCircle
 10
22.59973089678116
 20
-7.271599258481472
 30
0.0
 40
2.5
100
AcDbArc
 50
270.0
 51
270.0000000000007
  0
LINE
  5
4B
330
22
100
AcDbEntity
  8
0
100
AcDbLine
 10
28.77130377203494
 20
-12.77159925848147
 30
0.0
 11
24.43885465448463
 21
-12.77159925848144
 31
0.0
  0
LINE
  5
4C
330
22
100
AcDbEntity
  8
0
100
AcDbLine
 10
3.599730896781125
 20
-4.771599258481472
 30
0.0
 11
2.599730896781125
 21
-4.771599258481472
 31
0.0
  0
LINE
  5
4D
330
22
100
AcDbEntity
  8
0
100
AcDbLine
 10
22.59973089678116
 20
-8.771599258481472
 30
0.0
 11
18.59973089678115
 21
-8.771599258481472
 31
0.0
  0
LINE
  5
4E
330
22
100
AcDbEntity
  8
0
100
AcDbLine
 10
22.59973089678116
 20
-5.771599258481472
 30
0.0
 11
18.59973089678115
 21
-5.771599258481472
 31
0.0
  0
LINE
  5
4F
330
22
100
AcDbEntity
  8
0
100
AcDbLine
 10
22.59973089678116
 20
-4.771599258481472
 30
0.0
 11
17.59973089678115
 21
-4.771599258481472
 31
0.0
  0
LINE
  5
50
330
22
100
AcDbEntity
  8
0
100
AcDbLine
 10
18.59973089678115
 20
-5.771599258481472
 30
0.0
 11
18.59973089678115
 21
-8.771599258481472
 31
0.0
  0
ARC
  5
51
330
22
100
AcDbEntity
  8
0
100
AcDbCircle
 10
22.59973089678116
 20
-7.271599258481472
 30
0.0
 40
1.5
100
AcDbArc
 50
270.0
 51
90.0
  0
ENDBLK
  5
52
330
22
100
AcDbEntity
  8
0
100
AcDbBlockEnd
  0
BLOCK
  5
2F1
330
2E6
100
AcDbEntity
  8
0
100
AcDbBlockBegin
  2
*D1
 70
     1
 10
0.0
 20
0.0
 30
0.0
  3
*D1
  1

  0
LINE
  5
56A
330
2E6
100
AcDbEntity
  8
BEM
 62
     0
370
    -2
100
AcDbLine
 10
85.74999999999997
 20
251.4551836073138
 30
0.0
 11
65.72927525759975
 21
251.4551836073138
 31
0.0
  0
LINE
  5
56B
330
2E6
100
AcDbEntity
  8
BEM
 62
     0
370
    -2
100
AcDbLine
 10
91.11242064468143
 20
111.4551836073137
 30
0.0
 11
65.72927525759972
 21
111.4551836073137
 31
0.0
  0
LINE
  5
56C
330
2E6
100
AcDbEntity
  8
BEM
 62
     0
370
    -2
100
AcDbLine
 10
66.72927525759975
 20
247.9551836073138
 30
0.0
 11
66.72927525759972
 21
114.9551836073137
 31
0.0
  0
SOLID
  5
56D
330
2E6
100
AcDbEntity
  8
BEM
 62
     0
100
AcDbTrace
 10
66.14594192426642
 20
247.9551836073138
 30
0.0
 11
67.31260859093308
 21
247.9551836073138
 31
0.0
 12
66.72927525759975
 22
251.4551836073138
 32
0.0
 13
66.72927525759975
 23
251.4551836073138
 33
0.0
  0
SOLID
  5
56E
330
2E6
100
AcDbEntity
  8
BEM
 62
     0
100
AcDbTrace
 10
66.1459419242664
 20
114.9551836073137
 30
0.0
 11
67.31260859093305
 21
114.9551836073137
 31
0.0
 12
66.72927525759972
 22
111.4551836073137
 32
0.0
 13
66.72927525759972
 23
111.4551836073137
 33
0.0
  0
MTEXT
  5
56F
330
2E6
100
AcDbEntity
  8
BEM
 62
     1
100
AcDbMText
 10
63.4792752575997
 20
181.4551836073137
 30
0.0
 40
3.5
 41
0.0
 71
     5
 72
     1
  1
\A1;140
 11
0.0000000000000001
 21
1.0
 31
0.0
 73
     1
 44
1.0
  0
POINT
  5
570
330
2E6
100
AcDbEntity
  8
Defpoints
 62
     0
100
AcDbPoint
 10
86.74999999999997
 20
251.4551836073138
 30
0.0
  0
POINT
  5
571
330
2E6
100
AcDbEntity
  8
Defpoints
 62
     0
100
AcDbPoint
 10
92.11242064468143
 20
111.4551836073137
 30
0.0
  0
POINT
  5
572
330
2E6
100
AcDbEntity
  8
Defpoints
 62
     0
100
AcDbPoint
 10
66.72927525759972
 20
111.4551836073137
 30
0.0
  0
ENDBLK
  5
2F2
330
2E6
100
AcDbEntity
  8
0
100
AcDbBlockEnd
  0
BLOCK
  5
2FE
330
2F3
100
AcDbEntity
  8
0
100
AcDbBlockBegin
  2
*D2
 70
     1
 10
0.0
 20
0.0
 30
0.0
  3
*D2
  1

  0
LINE
  5
558
330
2F3
100
AcDbEntity
  8
BEM
 62
     0
370
    -2
100
AcDbLine
 10
85.74202324331919
 20
216.4551836073138
 30
0.0
 11
73.98865415848399
 21
216.4551836073138
 31
0.0
  0
LINE
  5
559
330
2F3
100
AcDbEntity
  8
BEM
 62
     0
370
    -2
100
AcDbLine
 10
91.11242064468143
 20
111.4551836073137
 30
0.0
 11
73.98865415848398
 21
111.4551836073137
 31
0.0
  0
LINE
  5
55A
330
2F3
100
AcDbEntity
  8
BEM
 62
     0
370
    -2
100
AcDbLine
 10
74.98865415848399
 20
212.9551836073138
 30
0.0
 11
74.98865415848398
 21
114.9551836073137
 31
0.0
  0
SOLID
  5
55B
330
2F3
100
AcDbEntity
  8
BEM
 62
     0
100
AcDbTrace
 10
74.40532082515066
 20
212.9551836073138
 30
0.0
 11
75.57198749181733
 21
212.9551836073138
 31
0.0
 12
74.98865415848399
 22
216.4551836073138
 32
0.0
 13
74.98865415848399
 23
216.4551836073138
 33
0.0
  0
SOLID
  5
55C
330
2F3
100
AcDbEntity
  8
BEM
 62
     0
100
AcDbTrace
 10
74.40532082515066
 20
114.9551836073137
 30
0.0
 11
75.57198749181731
 21
114.9551836073137
 31
0.0
 12
74.98865415848398
 22
111.4551836073137
 32
0.0
 13
74.98865415848398
 23
111.4551836073137
 33
0.0
  0
MTEXT
  5
55D
330
2F3
100
AcDbEntity
  8
BEM
 62
     1
100
AcDbMText
 10
71.73865415848396
 20
163.9551836073137
 30
0.0
 40
3.5
 41
0.0
 71
     5
 72
     1
  1
\A1;105
 11
0.0000000000000001
 21
1.0
 31
0.0
 73
     1
 44
1.0
  0
POINT
  5
55E
330
2F3
100
AcDbEntity
  8
Defpoints
 62
     0
100
AcDbPoint
 10
86.74202324331918
 20
216.4551836073138
 30
0.0
  0
POINT
  5
55F
330
2F3
100
AcDbEntity
  8
Defpoints
 62
     0
100
AcDbPoint
 10
92.11242064468143
 20
111.4551836073137
 30
0.0
  0
POINT
  5
560
330
2F3
100
AcDbEntity
  8
Defpoints
 62
     0
100
AcDbPoint
 10
74.98865415848398
 20
111.4551836073137
 30
0.0
  0
ENDBLK
  5
2FF
330
2F3
100
AcDbEntity
  8
0
100
AcDbBlockEnd
  0
BLOCK
  5
30B
330
300
100
AcDbEntity
  8
0
100
AcDbBlockBegin
  2
*D3
 70
     1
 10
0.0
 20
0.0
 30
0.0
  3
*D3
  1

  0
LINE
  5
561
330
300
100
AcDbEntity
  8
BEM
 62
     0
370
    -2
100
AcDbLine
 10
85.74999999999997
 20
251.4551836073138
 30
0.0
 11
73.98865415848399
 21
251.4551836073138
 31
0.0
  0
LINE
  5
562
330
300
100
AcDbEntity
  8
BEM
 62
     0
370
    -2
100
AcDbLine
 10
85.74202324331919
 20
216.4551836073138
 30
0.0
 11
73.98865415848398
 21
216.4551836073138
 31
0.0
  0
LINE
  5
563
330
300
100
AcDbEntity
  8
BEM
 62
     0
370
    -2
100
AcDbLine
 10
74.98865415848399
 20
247.9551836073138
 30
0.0
 11
74.98865415848398
 21
219.9551836073138
 31
0.0
  0
SOLID
  5
564
330
300
100
AcDbEntity
  8
BEM
 62
     0
100
AcDbTrace
 10
74.40532082515066
 20
247.9551836073138
 30
0.0
 11
75.57198749181733
 21
247.9551836073138
 31
0.0
 12
74.98865415848399
 22
251.4551836073138
 32
0.0
 13
74.98865415848399
 23
251.4551836073138
 33
0.0
  0
SOLID
  5
565
330
300
100
AcDbEntity
  8
BEM
 62
     0
100
AcDbTrace
 10
74.40532082515066
 20
219.9551836073138
 30
0.0
 11
75.57198749181731
 21
219.9551836073138
 31
0.0
 12
74.98865415848398
 22
216.4551836073138
 32
0.0
 13
74.98865415848398
 23
216.4551836073138
 33
0.0
  0
MTEXT
  5
566
330
300
100
AcDbEntity
  8
BEM
 62
     1
100
AcDbMText
 10
71.73865415848395
 20
233.9551836073138
 30
0.0
 40
3.5
 41
0.0
 71
     5
 72
     1
  1
\A1;35
 11
0.0000000000000001
 21
1.0
 31
0.0
 73
     1
 44
1.0
  0
POINT
  5
567
330
300
100
AcDbEntity
  8
Defpoints
 62
     0
100
AcDbPoint
 10
86.74999999999997
 20
251.4551836073138
 30
0.0
  0
POINT
  5
568
330
300
100
AcDbEntity
  8
Defpoints
 62
     0
100
AcDbPoint
 10
86.74202324331918
 20
216.4551836073138
 30
0.0
  0
POINT
  5
569
330
300
100
AcDbEntity
  8
Defpoints
 62
     0
100
AcDbPoint
 10
74.98865415848398
 20
216.4551836073138
 30
0.0
  0
ENDBLK
  5
30C
330
300
100
AcDbEntity
  8
0
100
AcDbBlockEnd
  0
BLOCK
  5
318
330
30D
100
AcDbEntity
  8
0
100
AcDbBlockBegin
  2
*D4
 70
     1
 10
0.0
 20
0.0
 30
0.0
  3
*D4
  1

  0
LINE
  5
473
330
30D
100
AcDbEntity
  8
BEM
 62
     0
370
    -2
100
AcDbLine
 10
91.49999999999996
 20
117.4551836073137
 30
0.0
 11
91.49999999999996
 21
96.34287260057613
 31
0.0
  0
LINE
  5
474
330
30D
100
AcDbEntity
  8
BEM
 62
     0
370
    -2
100
AcDbLine
 10
133.5
 20
117.4551836073137
 30
0.0
 11
133.5
 21
96.34287260057613
 31
0.0
  0
LINE
  5
475
330
30D
100
AcDbEntity
  8
BEM
 62
     0
370
    -2
100
AcDbLine
 10
94.99999999999998
 20
97.34287260057612
 30
0.0
 11
130.0
 21
97.34287260057612
 31
0.0
  0
SOLID
  5
476
330
30D
100
AcDbEntity
  8
BEM
 62
     0
100
AcDbTrace
 10
94.99999999999998
 20
97.92620593390946
 30
0.0
 11
94.99999999999998
 21
96.75953926724281
 31
0.0
 12
91.49999999999996
 22
97.34287260057612
 32
0.0
 13
91.49999999999996
 23
97.34287260057612
 33
0.0
  0
SOLID
  5
477
330
30D
100
AcDbEntity
  8
BEM
 62
     0
100
AcDbTrace
 10
130.0
 20
97.92620593390946
 30
0.0
 11
130.0
 21
96.75953926724281
 31
0.0
 12
133.5
 22
97.34287260057612
 32
0.0
 13
133.5
 23
97.34287260057612
 33
0.0
  0
MTEXT
  5
478
330
30D
100
AcDbEntity
  8
BEM
 62
     1
100
AcDbMText
 10
112.5
 20
100.5928726005761
 30
0.0
 40
3.5
 41
0.0
 71
     5
 72
     1
  1
\A1;%%c42
 73
     1
 44
1.0
  0
POINT
  5
479
330
30D
100
AcDbEntity
  8
Defpoints
 62
     0
100
AcDbPoint
 10
91.49999999999996
 20
118.4551836073137
 30
0.0
  0
POINT
  5
47A
330
30D
100
AcDbEntity
  8
Defpoints
 62
     0
100
AcDbPoint
 10
133.5
 20
118.4551836073137
 30
0.0
  0
POINT
  5
47B
330
30D
100
AcDbEntity
  8
Defpoints
 62
     0
100
AcDbPoint
 10
133.5
 20
97.34287260057612
 30
0.0
  0
ENDBLK
  5
319
330
30D
100
AcDbEntity
  8
0
100
AcDbBlockEnd
  0
BLOCK
  5
34C
330
341
100
AcDbEntity
  8
0
100
AcDbBlockBegin
  2
*D7
 70
     1
 10
0.0
 20
0.0
 30
0.0
  3
*D7
  1

  0
LINE
  5
5FE
330
341
100
AcDbEntity
  8
BEM
 62
     0
370
    -2
100
AcDbLine
 10
136.4
 20
252.4551836073138
 30
0.0
 11
136.4
 21
260.1785702470976
 31
0.0
  0
LINE
  5
5FF
330
341
100
AcDbEntity
  8
BEM
 62
     0
370
    -2
100
AcDbLine
 10
132.8999999999999
 20
259.1785702470976
 30
0.0
 11
102.5333333333333
 21
259.1785702470976
 31
0.0
  0
SOLID
  5
600
330
341
100
AcDbEntity
  8
BEM
 62
     0
100
AcDbTrace
 10
132.8999999999999
 20
259.7619035804309
 30
0.0
 11
132.8999999999999
 21
258.5952369137643
 31
0.0
 12
136.4
 22
259.1785702470976
 32
0.0
 13
136.4
 23
259.1785702470976
 33
0.0
  0
MTEXT
  5
601
330
341
100
AcDbEntity
  8
BEM
 62
     1
100
AcDbMText
 10
112.5
 20
263.3452369137643
 30
0.0
 40
3.5
 41
0.0
 71
     5
 72
     1
  1
\A1;Rp1 1/2
 73
     1
 44
1.0
  0
POINT
  5
602
330
341
100
AcDbEntity
  8
Defpoints
 62
     0
100
AcDbPoint
 10
88.59999999999997
 20
251.4551836073138
 30
0.0
  0
POINT
  5
603
330
341
100
AcDbEntity
  8
Defpoints
 62
     0
100
AcDbPoint
 10
136.4
 20
251.4551836073138
 30
0.0
  0
POINT
  5
604
330
341
100
AcDbEntity
  8
Defpoints
 62
     0
100
AcDbPoint
 10
136.4
 20
259.1785702470976
 30
0.0
  0
ENDBLK
  5
34D
330
341
100
AcDbEntity
  8
0
100
AcDbBlockEnd
  0
ENDSEC
  0
SECTION
  2
ENTITIES
  0
LINE
  5
57
330
1E
100
AcDbEntity
  8
STEMPEL
100
AcDbLine
 10
205.0
 20
55.00000000000003
 30
0.0
 11
19.99999999999998
 21
55.0
 31
0.0
  0
LINE
  5
58
330
1E
100
AcDbEntity
  8
STEMPEL
100
AcDbLine
 10
68.00000000000006
 20
54.99999999999997
 30
0.0
 11
68.0
 21
4.999999999999985
 31
0.0
  0
LINE
  5
59
330
1E
100
AcDbEntity
  8
STEMPEL
100
AcDbLine
 10
110.0
 20
55.00000000000003
 30
0.0
 11
110.0
 21
4.999999999999985
 31
0.0
  0
LINE
  5
5A
330
1E
100
AcDbEntity
  8
STEMPEL
100
AcDbLine
 10
166.0
 20
54.99999999999989
 30
0.0
 11
166.0
 21
20.0
 31
0.0
  0
LINE
  5
5B
330
1E
100
AcDbEntity
  8
STEMPEL
100
AcDbLine
 10
67.99999999999994
 20
14.99999999999998
 30
0.0
 11
19.99999999999998
 21
14.99999999999998
 31
0.0
  0
LINE
  5
5C
330
1E
100
AcDbEntity
  8
STEMPEL
100
AcDbLine
 10
205.0
 20
20.0
 30
0.0
 11
68.00000000000006
 21
19.99999999999998
 31
0.0
  0
LINE
  5
5D
330
1E
100
AcDbEntity
  8
STEMPEL
100
AcDbLine
 10
205.0
 20
40.0
 30
0.0
 11
68.00000000000006
 21
39.99999999999997
 31
0.0
  0
LINE
  5
5E
330
1E
100
AcDbEntity
  8
VOLL
100
AcDbLine
 10
27.00000000000005
 20
55.00000000000003
 30
0.0
 11
26.99999999999999
 21
4.999999999999985
 31
0.0
  0
LINE
  5
5F
330
1E
100
AcDbEntity
  8
VOLL
100
AcDbLine
 10
47.00000000000005
 20
54.99999999999997
 30
0.0
 11
47.0
 21
4.999999999999985
 31
0.0
  0
LINE
  5
60
330
1E
100
AcDbEntity
  8
VOLL
100
AcDbLine
 10
57.00000000000006
 20
54.99999999999997
 30
0.0
 11
57.0
 21
4.999999999999985
 31
0.0
  0
LINE
  5
61
330
1E
100
AcDbEntity
  8
VOLL
100
AcDbLine
 10
77.00000000000006
 20
39.99999999999997
 30
0.0
 11
77.00000000000006
 21
19.99999999999998
 31
0.0
  0
LINE
  5
62
330
1E
100
AcDbEntity
  8
VOLL
100
AcDbLine
 10
90.00000000000005
 20
54.99999999999992
 30
0.0
 11
90.0
 21
19.99999999999998
 31
0.0
  0
LINE
  5
63
330
1E
100
AcDbEntity
  8
HILF
100
AcDbLine
 10
20.00000000000004
 20
50.00000000000003
 30
0.0
 11
68.00000000000006
 21
50.00000000000003
 31
0.0
  0
LINE
  5
64
330
1E
100
AcDbEntity
  8
HILF
100
AcDbLine
 10
20.00000000000004
 20
45.00000000000002
 30
0.0
 11
68.00000000000006
 21
45.00000000000002
 31
0.0
  0
LINE
  5
65
330
1E
100
AcDbEntity
  8
HILF
100
AcDbLine
 10
20.00000000000004
 20
39.99999999999997
 30
0.0
 11
68.00000000000006
 21
39.99999999999997
 31
0.0
  0
LINE
  5
66
330
1E
100
AcDbEntity
  8
HILF
100
AcDbLine
 10
20.00000000000004
 20
34.99999999999997
 30
0.0
 11
68.00000000000006
 21
34.99999999999997
 31
0.0
  0
LINE
  5
67
330
1E
100
AcDbEntity
  8
HILF
100
AcDbLine
 10
20.00000000000004
 20
29.99999999999999
 30
0.0
 11
68.00000000000006
 21
29.99999999999999
 31
0.0
  0
LINE
  5
68
330
1E
100
AcDbEntity
  8
HILF
100
AcDbLine
 10
20.00000000000004
 20
24.99999999999999
 30
0.0
 11
68.00000000000006
 21
24.99999999999999
 31
0.0
  0
LINE
  5
69
330
1E
100
AcDbEntity
  8
HILF
100
AcDbLine
 10
20.00000000000004
 20
19.99999999999998
 30
0.0
 11
68.00000000000006
 21
19.99999999999998
 31
0.0
  0
LINE
  5
6A
330
1E
100
AcDbEntity
  8
HILF
100
AcDbLine
 10
68.00000000000006
 20
34.99999999999997
 30
0.0
 11
110.0
 21
34.99999999999997
 31
0.0
  0
LINE
  5
6B
330
1E
100
AcDbEntity
  8
HILF
100
AcDbLine
 10
68.00000000000006
 20
29.99999999999999
 30
0.0
 11
110.0
 21
29.99999999999999
 31
0.0
  0
LINE
  5
6C
330
1E
100
AcDbEntity
  8
HILF
100
AcDbLine
 10
68.00000000000006
 20
24.99999999999999
 30
0.0
 11
110.0
 21
24.99999999999999
 31
0.0
  0
LINE
  5
6D
330
1E
100
AcDbEntity
  8
HILF
100
AcDbLine
 10
112.3868400548474
 20
42.01879123782069
 30
0.0
 11
162.4176958278155
 21
42.01879123782069
 31
0.0
  0
LINE
  5
6E
330
1E
100
AcDbEntity
  8
HILF
100
AcDbLine
 10
112.3868400548474
 20
34.99999999999997
 30
0.0
 11
162.4176958278155
 21
34.99999999999997
 31
0.0
  0
LINE
  5
6F
330
1E
100
AcDbEntity
  8
HILF
100
AcDbLine
 10
112.3868400548474
 20
29.99999999999999
 30
0.0
 11
162.4176958278155
 21
29.99999999999999
 31
0.0
  0
LINE
  5
70
330
1E
100
AcDbEntity
  8
HILF
100
AcDbLine
 10
112.3868400548474
 20
24.99999999999999
 30
0.0
 11
162.4176958278155
 21
24.99999999999999
 31
0.0
  0
LINE
  5
71
330
1E
100
AcDbEntity
  8
VOLL
100
AcDbLine
 10
166.0
 20
30.0
 30
0.0
 11
205.0
 21
30.0
 31
0.0
  0
LINE
  5
72
330
1E
100
AcDbEntity
  8
HILF
100
AcDbLine
 10
168.3619308148496
 20
41.88991818477913
 30
0.0
 11
202.4294419663364
 21
41.88991818477913
 31
0.0
  0
LINE
  5
73
330
1E
100
AcDbEntity
  8
HILF
100
AcDbLine
 10
111.7454849644942
 20
7.446991290141568
 30
0.0
 11
202.4294419663364
 21
7.446991290141568
 31
0.0
  0
TEXT
  5
74
330
1E
100
AcDbEntity
  8
TEXT
100
AcDbText
 10
31.8145876563128
 20
9.336909474920659
 30
0.0
 40
2.0
  1
Änderung
 41
0.8
  7
GREEKS
 72
     1
 11
37.18601622774138
 21
9.336909474920659
 31
0.0
100
AcDbText
  0
TEXT
  5
75
330
1E
100
AcDbEntity
  8
TEXT
100
AcDbText
 10
71.75817860751886
 20
51.23104475435443
 30
0.0
 40
2.5
  1
Maßstab
 41
0.8
  7
GREEKS
100
AcDbText
  0
TEXT
  5
76
330
1E
100
AcDbEntity
  8
TEXT
100
AcDbText
 10
92.14294773670257
 20
51.20920842174095
 30
0.0
 40
2.5
  1
Zul. Abw.
 41
0.8
  7
GREEKS
100
AcDbText
  0
TEXT
  5
77
330
1E
100
AcDbEntity
  8
TEXT
100
AcDbText
 10
112.4389701904505
 20
51.27446640058898
 30
0.0
 40
2.5
  1
Benennung
 41
0.8
  7
GREEKS
100
AcDbText
  0
TEXT
  5
78
330
1E
100
AcDbEntity
  8
TEXT
100
AcDbText
 10
168.089377478817
 20
51.15660172685682
 30
0.0
 40
2.5
  1
Zeichnungs Nr.
 41
0.8
  7
GREEKS
100
AcDbText
  0
TEXT
  5
79
330
1E
100
AcDbEntity
  8
TEXT
100
AcDbText
 10
112.371119195568
 20
15.42280285096528
 30
0.0
 40
2.5
  1
Bauvorhaben
 41
0.8
  7
GREEKS
100
AcDbText
  0
TEXT
  5
7A
330
1E
100
AcDbEntity
  8
TEXT
100
AcDbText
 10
168.3619308148496
 20
36.59059118549985
 30
0.0
 40
2.5
  1
Ersatz für:
 41
0.8
  7
GREEKS
100
AcDbText
  0
TEXT
  5
7B
330
1E
100
AcDbEntity
  8
TEXT
100
AcDbText
 10
24.13320553522878
 20
6.827329230135958
 30
0.0
 40
2.0
  1
Index
 50
90.0
 41
0.8
  7
GREEKS
100
AcDbText
  0
TEXT
  5
7C
330
1E
100
AcDbEntity
  8
TEXT
100
AcDbText
 10
49.79989095693829
 20
9.33578134669905
 30
0.0
 40
2.0
  1
Tag
 41
0.8
  7
GREEKS
 72
     1
 11
51.66655762360496
 21
9.33578134669905
 31
0.0
100
AcDbText
  0
TEXT
  5
7D
330
1E
100
AcDbEntity
  8
TEXT
100
AcDbText
 10
59.50613721932963
 20
9.29662108483204
 30
0.0
 40
2.0
  1
Name
 41
0.8
  7
GREEKS
 72
     1
 11
62.66804198123439
 21
9.29662108483204
 31
0.0
100
AcDbText
  0
TEXT
  5
7E
330
1E
100
AcDbEntity
  8
TEXT
100
AcDbText
 10
81.16558365768254
 20
36.65940250614963
 30
0.0
 40
2.0
  1
Tag
 41
0.8
  7
GREEKS
100
AcDbText
  0
TEXT
  5
7F
330
1E
100
AcDbEntity
  8
TEXT
100
AcDbText
 10
96.23132921131475
 20
36.65480545957612
 30
0.0
 40
2.0
  1
Name
 41
0.8
  7
GREEKS
100
AcDbText
  0
TEXT
  5
80
330
1E
100
AcDbEntity
  8
TEXT
100
AcDbText
 10
68.79180635838077
 20
31.81495184808982
 30
0.0
 40
2.0
  1
Gez.
 41
0.8
  7
GREEKS
100
AcDbText
  0
TEXT
  5
81
330
1E
100
AcDbEntity
  8
TEXT
100
AcDbText
 10
68.77575432858361
 20
26.84463145714189
 30
0.0
 40
2.0
  1
Gepr.
 41
0.8
  7
GREEKS
100
AcDbText
  0
TEXT
  5
82
330
1E
100
AcDbEntity
  8
TEXT
100
AcDbText
 10
68.80033886936519
 20
21.76473194824904
 30
0.0
 40
2.0
  1
Norm.
 41
0.8
  7
GREEKS
100
AcDbText
  0
LINE
  5
83
330
1E
100
AcDbEntity
  8
STEMPEL
100
AcDbLine
 10
24.99999999999995
 20
5.0
 30
0.0
 11
205.0
 21
5.0
 31
0.0
  0
TEXT
  5
84
330
1E
100
AcDbEntity
  8
TEXT
100
AcDbText
 10
168.6200430748503
 20
26.03708088939301
 30
0.0
 40
2.5
  1
ersetzt durch:
 41
0.8
  7
GREEKS
100
AcDbText
  0
LINE
  5
85
330
1E
100
AcDbEntity
  8
STEMPEL
100
AcDbLine
 10
205.0
 20
5.0
 30
0.0
 11
19.99999999999994
 21
5.0
 31
0.0
  0
LINE
  5
86
330
1E
100
AcDbEntity
  8
STEMPEL
100
AcDbLine
 10
205.0
 20
5.0
 30
0.0
 11
205.0
 21
292.0
 31
0.0
  0
LINE
  5
87
330
1E
100
AcDbEntity
  8
STEMPEL
100
AcDbLine
 10
20.0
 20
5.0
 30
0.0
 11
19.99999999999994
 21
292.0
 31
0.0
  0
LINE
  5
88
330
1E
100
AcDbEntity
  8
STEMPEL
100
AcDbLine
 10
205.0
 20
292.0
 30
0.0
 11
19.99999999999994
 21
292.0
 31
0.0
  0
LINE
  5
89
330
1E
100
AcDbEntity
  8
HILF
100
AcDbLine
 10
0.0
 20
0.0
 30
0.0
 11
-0.0000000000000568
 21
297.0
 31
0.0
  0
LINE
  5
8A
330
1E
100
AcDbEntity
  8
HILF
100
AcDbLine
 10
210.0
 20
297.0000000000001
 30
0.0
 11
0.0
 21
297.0
 31
0.0
  0
LINE
  5
8B
330
1E
100
AcDbEntity
  8
HILF
100
AcDbLine
 10
210.0
 20
0.0
 30
0.0
 11
0.0
 21
0.0
 31
0.0
  0
LINE
  5
8C
330
1E
100
AcDbEntity
  8
HILF
100
AcDbLine
 10
15.54383567856928
 20
148.5
 30
0.0
 11
0.0000000000000568
 21
148.5
 31
0.0
  0
TEXT
  5
8D
330
1E
100
AcDbEntity
  8
TEXT
100
AcDbText
 10
69.31105491105199
 20
36.57012735575833
 30
0.0
 40
2.0
  1
2011
 41
0.8
  7
GREEKS
100
AcDbText
  0
LINE
  5
8E
330
1E
100
AcDbEntity
  8
HILF
100
AcDbLine
 10
210.0
 20
-0.0000000000000568
 30
0.0
 11
210.0
 21
297.0
 31
0.0
  0
TEXT
  5
8F
330
1E
100
AcDbEntity
  8
VOLL
100
AcDbText
 10
78.07675471698113
 20
31.02594776470585
 30
0.0
 40
1.8
  1

  7
GREEKS
100
AcDbText
  0
TEXT
  5
90
330
1E
100
AcDbEntity
  8
TEXT
100
AcDbText
 10
20.92754975488837
 20
55.83599999999997
 30
0.0
 40
2.5
  1
Erstellt mit AUTOCAD 2004
 41
0.8
  7
GREEKS
100
AcDbText
  0
TEXT
  5
91
330
1E
100
AcDbEntity
  8
TEXT
100
AcDbText
 10
97.21080242906285
 20
31.54481959861755
 30
0.0
 40
2.0
  1
Koeh
 41
0.8
  7
GREEKS
 72
     1
 11
99.83937385763429
 21
31.54481959861755
 31
0.0
100
AcDbText
  0
TEXT
  5
92
330
1E
100
AcDbEntity
  8
TEXT
 62
     1
100
AcDbText
 10
173.2721026169866
 20
44.07450714456979
 30
0.0
 40
3.5
  1
00720040W
 41
0.8
  7
GREEKS
 72
     1
 11
185.2721026169866
 21
44.07450714456979
 31
0.0
100
AcDbText
  0
TEXT
  5
93
330
1E
100
AcDbEntity
  8
TEXT
 62
     1
100
AcDbText
 10
75.25031532409435
 20
44.07450714456979
 30
0.0
 40
3.5
  1
1:1
 41
0.8
  7
GREEKS
100
AcDbText
  0
TEXT
  5
94
330
1E
100
AcDbEntity
  8
TEXT
100
AcDbText
 10
80.35187950649897
 20
31.55382520412866
 30
0.0
 40
2.0
  1
01.04.
 41
0.8
  7
GREEKS
 72
     1
 11
83.70426045887993
 21
31.55382520412866
 31
0.0
100
AcDbText
  0
TEXT
  5
95
330
1E
100
AcDbEntity
  8
TEXT
 62
     1
100
AcDbText
 10
113.4467865528701
 20
43.70874394626889
 30
0.0
 40
3.5
  1
Anschlußstück DN40
 41
0.8
  7
GREEKS
100
AcDbText
  0
TEXT
  5
96
330
1E
100
AcDbEntity
  8
TEXT
100
AcDbText
 10
112.5648195562657
 20
35.75167208792644
 30
0.0
 40
2.5
  1
mit Gewinde Rp1 1/2
 41
0.8
  7
GREEKS
100
AcDbText
  0
TEXT
  5
98
330
1E
100
AcDbEntity
  8
TEXT
100
AcDbText
 10
112.5648195562657
 20
25.82005971521079
 30
0.0
 40
2.5
  1
EDV-Art.Nr. 00720.040X
 41
0.8
  7
GREEKS
100
AcDbText
  0
TEXT
  5
99
330
1E
100
AcDbEntity
  8
TEXT
100
AcDbText
 10
112.4918750788913
 20
21.31487076511316
 30
0.0
 40
2.0
  1
00720040W.DWG
 41
0.8
  7
GREEKS
100
AcDbText
  0
TEXT
  5
9A
330
1E
100
AcDbEntity
  8
TEXT
100
AcDbText
 10
91.31306610404202
 20
45.38181920511511
 30
0.0
 40
2.0
  1
DIN EN1123-2
 41
0.8
  7
GREEKS
 72
     1
 11
99.80830419928011
 21
45.38181920511511
 31
0.0
100
AcDbText
  0
INSERT
  5
9B
330
1E
100
AcDbEntity
  8
STEMPEL
100
AcDbBlockReference
  2
LOGO
 10
70.4977742728897
 20
22.51052638224161
 30
0.0
  0
TEXT
  5
118
330
1E
100
AcDbEntity
  8
BEM
100
AcDbText
 10
208.6511461928583
 20
5.083950539994247
 30
0.0
 40
2.0
  1
Diese Zeichnung ist urheberrechtlich geschützt und bleibt unser Eigentum. Sie darf weder ganz noch teilweise verfielfältigt und nicht an Dritte weitergegeben werden.
 50
90.0
 41
0.8
  7
GREEKS
100
AcDbText
  0
LINE
  5
2B0
330
1E
100
AcDbEntity
  8
STEMPEL
100
AcDbLine
 10
90.09999999999998
 20
249.9551836073138
 30
0.0
 11
134.8999999999999
 21
249.9551836073138
 31
0.0
  0
LINE
  5
2B1
102
{ACAD_REACTORS
330
622
102
}
330
1E
100
AcDbEntity
  8
STEMPEL
100
AcDbLine
 10
136.4
 20
251.4551836073138
 30
0.0
 11
134.8999999999999
 21
249.9551836073138
 31
0.0
  0
TEXT
  5
2B3
330
1E
100
AcDbEntity
  8
TEXT
 62
     1
100
AcDbText
 10
110.9027292597081
 20
164.0740736203923
 30
0.0
 40
3.5
  1
DN40
 50
90.0
 41
0.8
  7
GREEKS
100
AcDbText
  0
TEXT
  5
2B4
330
1E
100
AcDbEntity
  8
TEXT
 62
     1
100
AcDbText
 10
138.1725262906716
 20
83.34804688148429
 30
0.0
 40
3.5
  1
Rohrende leicht eingezogen
 41
0.8
  7
GREEKS
100
AcDbText
  0
ARC
  5
2B7
102
{ACAD_REACTORS
330
5A7
102
}
330
1E
100
AcDbEntity
  8
SCHRAFF
100
AcDbCircle
 10
89.20550003644272
 20
216.1233449596574
 30
0.0
 40
2.47782108253375
100
AcDbArc
 50
172.3036201692881
 51
260.3582552609193
  0
ARC
  5
2B8
102
{ACAD_REACTORS
330
5A7
102
}
330
1E
100
AcDbEntity
  8
SCHRAFF
100
AcDbCircle
 10
135.7944999635571
 20
216.1233449596574
 30
0.0
 40
2.477821082533798
100
AcDbArc
 50
279.6417447390808
 51
7.696379830711019
  0
LINE
  5
2B9
330
1E
100
AcDbEntity
  8
MITTEL
100
AcDbLine
 10
112.4999999999999
 20
256.4551836073139
 30
0.0
 11
112.5
 21
106.4551836073137
 31
0.0
  0
DIMENSION
  5
2BA
330
1E
100
AcDbEntity
  8
BEM
100
AcDbDimension
  2
*D1
 10
66.72927525759972
 20
111.4551836073137
 30
0.0
 11
63.4792752575997
 21
181.4551836073137
 31
0.0
 70
    32
 71
     5
 42
140.0
  3
Standard
100
AcDbAlignedDimension
 13
86.74999999999997
 23
251.4551836073138
 33
0.0
 14
92.11242064468143
 24
111.4551836073137
 34
0.0
 50
90.0
100
AcDbRotatedDimension
1001
ACAD
1000
DSTYLE
1002
{
1070
    41
1040
3.5
1070
    42
1040
1.0
1070
    43
1040
7.0
1070
    44
1040
1.0
1070
    73
1070
     0
1070
    74
1070
     0
1070
    77
1070
     1
1070
    78
1070
     8
1070
    79
1070
     2
1070
   140
1040
3.5
1070
   141
1040
1.5
1070
   146
1040
0.5142857142857144
1070
   147
1040
1.5
1070
   172
1070
     1
1070
   178
1070
     1
1070
   179
1070
     2
1070
   271
1070
     2
1070
   272
1070
     2
1070
   284
1070
     8
1070
   285
1070
     8
1070
   286
1070
     8
1002
}
  0
DIMENSION
  5
2BB
330
1E
100
AcDbEntity
  8
BEM
100
AcDbDimension
  2
*D2
 10
74.98865415848398
 20
111.4551836073137
 30
0.0
 11
71.73865415848396
 21
163.9551836073137
 31
0.0
 70
    32
 71
     5
 42
105.0
  3
Standard
100
AcDbAlignedDimension
 13
86.74202324331918
 23
216.4551836073138
 33
0.0
 14
92.11242064468143
 24
111.4551836073137
 34
0.0
 50
90.0
100
AcDbRotatedDimension
1001
ACAD
1000
DSTYLE
1002
{
1070
    41
1040
3.5
1070
    42
1040
1.0
1070
    43
1040
7.0
1070
    44
1040
1.0
1070
    73
1070
     0
1070
    74
1070
     0
1070
    77
1070
     1
1070
    78
1070
     8
1070
    79
1070
     2
1070
   140
1040
3.5
1070
   141
1040
1.5
1070
   146
1040
0.5142857142857144
1070
   147
1040
1.5
1070
   172
1070
     1
1070
   178
1070
     1
1070
   179
1070
     2
1070
   271
1070
     2
1070
   272
1070
     2
1070
   284
1070
     8
1070
   285
1070
     8
1070
   286
1070
     8
1002
}
  0
DIMENSION
  5
2BC
330
1E
100
AcDbEntity
  8
BEM
100
AcDbDimension
  2
*D3
 10
74.98865415848398
 20
216.4551836073138
 30
0.0
 11
71.73865415848395
 21
233.9551836073138
 31
0.0
 70
    32
 71
     5
 42
34.99999999999997
  3
Standard
100
AcDbAlignedDimension
 13
86.74999999999997
 23
251.4551836073138
 33
0.0
 14
86.74202324331918
 24
216.4551836073138
 34
0.0
 50
90.0
100
AcDbRotatedDimension
1001
ACAD
1000
DSTYLE
1002
{
1070
    41
1040
3.5
1070
    42
1040
1.0
1070
    43
1040
7.0
1070
    44
1040
1.0
1070
    73
1070
     0
1070
    74
1070
     0
1070
    77
1070
     1
1070
    78
1070
     8
1070
    79
1070
     2
1070
   140
1040
3.5
1070
   141
1040
1.5
1070
   146
1040
0.5142857142857144
1070
   147
1040
1.5
1070
   172
1070
     1
1070
   178
1070
     1
1070
   179
1070
     2
1070
   271
1070
     2
1070
   272
1070
     2
1070
   284
1070
     8
1070
   285
1070
     8
1070
   286
1070
     8
1002
}
  0
DIMENSION
  5
2BD
330
1E
100
AcDbEntity
  8
BEM
100
AcDbDimension
  2
*D4
 10
133.5
 20
97.34287260057612
 30
0.0
 11
112.5
 21
100.5928726005761
 31
0.0
 70
    32
  1
%%c<>
 71
     5
 42
42.00000000000002
  3
Standard
100
AcDbAlignedDimension
 13
91.49999999999996
 23
118.4551836073137
 33
0.0
 14
133.5
 24
118.4551836073137
 34
0.0
100
AcDbRotatedDimension
1001
ACAD
1000
DSTYLE
1002
{
1070
    41
1040
3.5
1070
    42
1040
1.0
1070
    43
1040
7.0
1070
    44
1040
1.0
1070
    73
1070
     0
1070
    74
1070
     0
1070
    77
1070
     1
1070
    78
1070
     8
1070
    79
1070
     2
1070
   140
1040
3.5
1070
   141
1040
1.5
1070
   146
1040
0.5142857142857144
1070
   147
1040
1.5
1070
   172
1070
     1
1070
   178
1070
     1
1070
   179
1070
     2
1070
   271
1070
     2
1070
   272
1070
     2
1070
   284
1070
     8
1070
   285
1070
     8
1070
   286
1070
     8
1002
}
  0
DIMENSION
  5
2C1
330
1E
100
AcDbEntity
  8
BEM
100
AcDbDimension
  2
*D7
 10
136.4
 20
259.1785702470976
 30
0.0
 11
112.5
 21
263.3452369137643
 31
0.0
 70
    32
  1
Rp1 1/2
 71
     5
 42
47.80000000000001
  3
Standard
100
AcDbAlignedDimension
 13
88.59999999999997
 23
251.4551836073138
 33
0.0
 14
136.4
 24
251.4551836073138
 34
0.0
100
AcDbRotatedDimension
1001
ACAD
1000
DSTYLE
1002
{
1070
    75
1070
     1
1070
   281
1070
     1
1070
    41
1040
3.5
1070
    42
1040
1.0
1070
    43
1040
7.0
1070
    44
1040
1.0
1070
    73
1070
     0
1070
    74
1070
     0
1070
    77
1070
     1
1070
    78
1070
     8
1070
    79
1070
     2
1070
   140
1040
3.5
1070
   141
1040
1.5
1070
   146
1040
0.5142857142857144
1070
   147
1040
1.5
1070
   172
1070
     1
1070
   178
1070
     1
1070
   179
1070
     2
1070
   271
1070
     2
1070
   272
1070
     2
1070
   284
1070
     8
1070
   285
1070
     8
1070
   286
1070
     8
1002
}
  0
LINE
  5
2D3
102
{ACAD_REACTORS
330
5A7
102
}
330
1E
100
AcDbEntity
  8
STEMPEL
100
AcDbLine
 10
90.99063342055231
 20
207.8134944858409
 30
0.0
 11
87.74999999999998
 21
216.4551836073138
 31
0.0
  0
LINE
  5
2D4
102
{ACAD_REACTORS
330
5A7
102
}
330
1E
100
AcDbEntity
  8
STEMPEL
100
AcDbLine
 10
137.25
 20
216.4551836073138
 30
0.0
 11
134.0093665794476
 21
207.8134944858409
 31
0.0
  0
LINE
  5
2D6
102
{ACAD_REACTORS
330
622
102
}
330
1E
100
AcDbEntity
  8
STEMPEL
100
AcDbLine
 10
134.8999999999999
 20
249.9551836073138
 30
0.0
 11
134.8999999999999
 21
231.6290829192438
 31
0.0
  0
LINE
  5
2D8
102
{ACAD_REACTORS
330
622
102
}
330
1E
100
AcDbEntity
  8
HILF
100
AcDbLine
 10
136.4
 20
251.4551836073138
 30
0.0
 11
136.4
 21
232.4662475541435
 31
0.0
  0
LINE
  5
2DC
330
1E
100
AcDbEntity
  8
STEMPEL
100
AcDbLine
 10
133.5
 20
118.4551836073137
 30
0.0
 11
132.8875793553185
 21
111.4551836073137
 31
0.0
  0
LINE
  5
2DD
330
1E
100
AcDbEntity
  8
STEMPEL
100
AcDbLine
 10
91.49999999999996
 20
118.4551836073137
 30
0.0
 11
92.11242064468143
 21
111.4551836073137
 31
0.0
  0
LINE
  5
2DE
330
1E
100
AcDbEntity
  8
HILF
100
AcDbLine
 10
92.99999999999997
 20
118.4551836073137
 30
0.0
 11
132.0
 21
118.4551836073137
 31
0.0
  0
LINE
  5
2DF
330
1E
100
AcDbEntity
  8
STEMPEL
100
AcDbLine
 10
133.5
 20
205.0045069531338
 30
0.0
 11
133.5
 21
118.4551836073137
 31
0.0
  0
LINE
  5
2E0
330
1E
100
AcDbEntity
  8
STEMPEL
100
AcDbLine
 10
91.49999999999996
 20
205.0045069531337
 30
0.0
 11
91.49999999999996
 21
118.4551836073137
 31
0.0
  0
LINE
  5
2E1
102
{ACAD_REACTORS
330
5A7
102
}
330
1E
100
AcDbEntity
  8
STEMPEL
100
AcDbLine
 10
86.74999999999998
 20
216.4551836073138
 30
0.0
 11
138.25
 21
216.4551836073138
 31
0.0
  0
LINE
  5
2E2
102
{ACAD_REACTORS
330
622
102
}
330
1E
100
AcDbEntity
  8
STEMPEL
100
AcDbLine
 10
86.74999999999997
 20
251.4551836073138
 30
0.0
 11
138.2499999999999
 21
251.4551836073138
 31
0.0
  0
LINE
  5
2E3
330
1E
100
AcDbEntity
  8
STEMPEL
100
AcDbLine
 10
92.11242064468143
 20
111.4551836073137
 30
0.0
 11
132.8875793553185
 21
111.4551836073137
 31
0.0
  0
ARC
  5
41A
330
1E
100
AcDbEntity
  8
STEMPEL
100
AcDbCircle
 10
141.5
 20
205.0045069531338
 30
0.0
 40
8.0
100
AcDbArc
 50
159.4439547804165
 51
180.0
  0
ARC
  5
41B
330
1E
100
AcDbEntity
  8
STEMPEL
100
AcDbCircle
 10
83.49999999999996
 20
205.0045069531337
 30
0.0
 40
8.0
100
AcDbArc
 50
0.0
 51
20.5560452195835
  0
LINE
  5
420
330
1E
100
AcDbEntity
  8
HILF
100
AcDbLine
 10
92.8475587260954
 20
206.6995426053243
 30
0.0
 11
132.1524412739045
 21
206.6995426053243
 31
0.0
  0
TEXT
  5
44C
330
1E
100
AcDbEntity
  8
TEXT
 62
     1
100
AcDbText
 10
93.32802422862448
 20
69.90022919477588
 30
0.0
 40
3.5
  1
Werkstoff: E195 EN10305 galvanisch verzinkt
 41
0.8
  7
GREEKS
100
AcDbText
  0
LINE
  5
545
102
{ACAD_REACTORS
330
622
102
}
330
1E
100
AcDbEntity
  8
STEMPEL
100
AcDbLine
 10
86.74999999999997
 20
251.4551836073138
 30
0.0
 11
86.74999999999998
 21
216.4551836073138
 31
0.0
  0
LINE
  5
546
102
{ACAD_REACTORS
330
622
102
}
330
1E
100
AcDbEntity
  8
STEMPEL
100
AcDbLine
 10
138.2499999999999
 20
251.4551836073138
 30
0.0
 11
138.25
 21
216.4551836073138
 31
0.0
  0
HATCH
  5
5A7
330
1E
100
AcDbEntity
  8
SCHRAFF
100
AcDbHatch
 10
0.0
 20
0.0
 30
0.0
210
0.0
220
0.0
230
1.0
  2
_USER
 70
     0
 71
     1
 91
        2
 92
        7
 72
     1
 73
     1
 93
        3
 10
138.25
 20
216.4551836073138
 42
0.0
 10
137.25
 20
216.4551836073138
 42
0.0
 10
136.2095029875791
 20
213.6805249075247
 42
0.404303557316153
 97
        3
330
2E1
330
2D4
330
2B8
 92
        7
 72
     1
 73
     1
 93
        3
 10
87.74999999999996
 20
216.4551836073138
 42
0.0
 10
86.74999999999998
 20
216.4551836073138
 42
0.4043035573161684
 10
88.79049701242088
 20
213.6805249075247
 42
0.0
 97
        3
330
2E1
330
2B7
330
2D3
 75
     0
 76
     0
 52
0.0
 41
0.1
 77
     0
 78
     1
 53
0.0
 43
0.0
 44
0.0
 45
0.0
 46
0.1
 79
     0
 47
0.1044444765324321
 98
        2
 10
137.7045080062873
 20
215.5754135440791
 10
87.43646750093853
 20
215.8887471462431
  0
SPLINE
  5
608
102
{ACAD_REACTORS
330
622
102
}
330
1E
100
AcDbEntity
  8
HILF
100
AcDbSpline
210
0.0
220
0.0
230
1.0
 70
     8
 71
     3
 72
    11
 73
     7
 74
     5
 42
0.0000000001
 43
0.0000000001
 44
0.0000000001
 40
0.0
 40
0.0
 40
0.0
 40
0.0
 40
13.81179296832964
 40
27.62358593665928
 40
41.4353789049889
 40
55.24717187331853
 40
55.24717187331853
 40
55.24717187331853
 40
55.24717187331853
 10
86.74999999999997
 20
233.5365007097807
 30
0.0
 10
91.04166666666662
 20
236.0365007097807
 30
0.0
 10
99.62499999999995
 20
241.0365007097807
 30
0.0
 10
112.5
 20
233.5365007097807
 30
0.0
 10
125.3749999999999
 20
226.0365007097806
 30
0.0
 10
133.9583333333333
 20
231.0365007097807
 30
0.0
 10
138.2499999999999
 20
233.5365007097807
 30
0.0
 11
86.74999999999997
 21
233.5365007097807
 31
0.0
 11
99.62499999999998
 21
238.5365007097807
 31
0.0
 11
112.5
 21
233.5365007097807
 31
0.0
 11
125.3749999999999
 21
228.5365007097807
 31
0.0
 11
138.2499999999999
 21
233.5365007097807
 31
0.0
  0
LINE
  5
609
102
{ACAD_REACTORS
330
622
102
}
330
1E
100
AcDbEntity
  8
STEMPEL
100
AcDbLine
 10
88.59999999999997
 20
251.4551836073138
 30
0.0
 11
90.09999999999996
 21
249.9551836073138
 31
0.0
  0
LINE
  5
60A
102
{ACAD_REACTORS
330
622
102
}
330
1E
100
AcDbEntity
  8
HILF
100
AcDbLine
 10
88.59999999999997
 20
251.4551836073138
 30
0.0
 11
88.59999999999997
 21
234.606753865418
 31
0.0
  0
LINE
  5
60B
102
{ACAD_REACTORS
330
622
102
}
330
1E
100
AcDbEntity
  8
STEMPEL
100
AcDbLine
 10
90.09999999999996
 20
249.9551836073138
 30
0.0
 11
90.09999999999996
 21
235.4439185003176
 31
0.0
  0
HATCH
  5
622
330
1E
100
AcDbEntity
  8
SCHRAFF
100
AcDbHatch
 10
0.0
 20
0.0
 30
0.0
210
0.0
220
0.0
230
1.0
  2
_USER
 70
     0
 71
     1
 91
        4
 92
        5
 93
        4
 72
     1
 10
88.59999999999995
 20
251.4551836073137
 11
86.74999999999998
 21
251.4551836073138
 72
     1
 10
86.74999999999998
 20
251.4551836073138
 11
86.74999999999998
 21
233.5365007097808
 72
     4
 94
        3
 73
     0
 74
     0
 95
        8
 96
        4
 40
0.0
 40
0.0
 40
0.0
 40
0.0
 40
1.984607144963895
 40
1.984607144963895
 40
1.984607144963895
 40
1.984607144963895
 10
86.74999999999997
 20
233.5365007097807
 10
87.36666666666664
 20
233.8957240107516
 10
87.98333333333332
 20
234.2549473117225
 10
88.59999999999999
 20
234.606753865418
 72
     1
 10
88.59999999999997
 20
234.6067538654179
 11
88.59999999999995
 21
251.4551836073137
 97
        4
330
2E2
330
545
330
608
330
60A
 92
        5
 93
        4
 72
     1
 10
90.09999999999996
 20
249.9551836073138
 11
88.59999999999995
 21
251.4551836073138
 72
     1
 10
88.59999999999995
 20
251.4551836073138
 11
88.59999999999997
 21
234.6067538654179
 72
     4
 94
        3
 73
     0
 74
     0
 95
        8
 96
        4
 40
1.984607144963895
 40
1.984607144963895
 40
1.984607144963895
 40
1.984607144963895
 40
3.593748073312976
 40
3.593748073312976
 40
3.593748073312976
 40
3.593748073312976
 10
88.59999999999999
 20
234.606753865418
 10
89.1
 20
234.8920024224684
 10
89.59999999999999
 20
235.1723751047577
 10
90.09999999999999
 20
235.4439185003176
 72
     1
 10
90.09999999999996
 20
235.4439185003175
 11
90.09999999999996
 21
249.9551836073138
 97
        4
330
609
330
60A
330
608
330
60B
 92
        5
 93
        4
 72
     4
 94
        3
 73
     0
 74
     0
 95
        8
 96
        4
 40
51.65342380000559
 40
51.65342380000559
 40
51.65342380000559
 40
51.65342380000559
 40
53.26256472835467
 40
53.26256472835467
 40
53.26256472835467
 40
53.26256472835467
 10
134.8999999999999
 20
231.6290829192438
 10
135.4
 20
231.9006263148037
 10
135.8999999999999
 20
232.1809989970931
 10
136.4
 20
232.4662475541435
 72
     1
 10
136.4
 20
232.4662475541435
 11
136.4
 21
251.4551836073138
 72
     1
 10
136.4
 20
251.4551836073138
 11
134.8999999999999
 21
249.9551836073138
 72
     1
 10
134.8999999999999
 20
249.9551836073138
 11
134.8999999999999
 21
231.6290829192437
 97
        4
330
2B1
330
2D6
330
608
330
2D8
 92
        5
 93
        4
 72
     1
 10
138.25
 20
251.4551836073138
 11
136.4
 21
251.4551836073138
 72
     1
 10
136.4
 20
251.4551836073138
 11
136.4
 21
232.4662475541435
 72
     4
 94
        3
 73
     0
 74
     0
 95
        8
 96
        4
 40
53.26256472835467
 40
53.26256472835467
 40
53.26256472835467
 40
53.26256472835467
 40
55.24717187331853
 40
55.24717187331853
 40
55.24717187331853
 40
55.24717187331853
 10
136.3999999999999
 20
232.4662475541435
 10
137.0166666666666
 20
232.8180541078389
 10
137.6333333333332
 20
233.1772774088098
 10
138.2499999999999
 20
233.5365007097807
 72
     1
 10
138.25
 20
233.5365007097807
 11
138.25
 21
251.4551836073138
 97
        4
330
2E2
330
2D8
330
608
330
546
 75
     0
 76
     0
 52
45.0
 41
2.0
 77
     0
 78
     1
 53
45.0
 43
0.0
 44
0.0
 45
-1.414213562373094
 46
1.414213562373095
 79
     0
 47
0.2149698705543578
 98
        4
 10
87.99943346554778
 20
248.3694217112226
 10
89.71977263892586
 20
246.4346932387538
 10
135.5237985157337
 20
246.004753487788
 10
137.6742219395878
 20
246.004753487788
  0
ARC
  5
632
330
1E
100
AcDbEntity
  8
SCHRAFF
100
AcDbCircle
 10
84.88098653750215
 20
215.0701836073138
 30
0.0
 40
5.0
100
AcDbArc
 50
343.8631968063679
 51
16.08123663021208
  0
ARC
  5
633
330
1E
100
AcDbEntity
  8
SCHRAFF
100
AcDbCircle
 10
89.88098653750215
 20
215.0701836073138
 30
0.0
 40
5.0
100
AcDbArc
 50
343.8631968063679
 51
16.08123663021208
  0
ARC
  5
634
330
1E
100
AcDbEntity
  8
SCHRAFF
100
AcDbCircle
 10
99.88098653750215
 20
215.0701836073138
 30
0.0
 40
5.0
100
AcDbArc
 50
343.8631968063679
 51
16.08123663021208
  0
ARC
  5
635
330
1E
100
AcDbEntity
  8
SCHRAFF
100
AcDbCircle
 10
94.88098653750215
 20
215.0701836073138
 30
0.0
 40
5.0
100
AcDbArc
 50
343.8631968063679
 51
16.08123663021208
  0
ARC
  5
636
330
1E
100
AcDbEntity
  8
SCHRAFF
100
AcDbCircle
 10
114.8809865375021
 20
215.0701836073138
 30
0.0
 40
5.0
100
AcDbArc
 50
343.8631968063679
 51
16.08123663021208
  0
ARC
  5
637
330
1E
100
AcDbEntity
  8
SCHRAFF
100
AcDbCircle
 10
119.8809865375021
 20
215.0701836073138
 30
0.0
 40
5.0
100
AcDbArc
 50
343.8631968063679
 51
16.08123663021208
  0
ARC
  5
638
330
1E
100
AcDbEntity
  8
SCHRAFF
100
AcDbCircle
 10
109.8809865375021
 20
215.0701836073138
 30
0.0
 40
5.0
100
AcDbArc
 50
343.8631968063679
 51
16.08123663021208
  0
ARC
  5
639
330
1E
100
AcDbEntity
  8
SCHRAFF
100
AcDbCircle
 10
104.8809865375021
 20
215.0701836073138
 30
0.0
 40
5.0
100
AcDbArc
 50
343.8631968063679
 51
16.08123663021208
  0
ARC
  5
63A
330
1E
100
AcDbEntity
  8
SCHRAFF
100
AcDbCircle
 10
129.8809865375021
 20
215.0701836073138
 30
0.0
 40
5.0
100
AcDbArc
 50
343.8631968063679
 51
16.08123663021208
  0
ARC
  5
63B
330
1E
100
AcDbEntity
  8
SCHRAFF
100
AcDbCircle
 10
124.8809865375021
 20
215.0701836073138
 30
0.0
 40
5.0
100
AcDbArc
 50
343.8631968063679
 51
16.08123663021208
  0
ENDSEC
  0
SECTION
  2
OBJECTS
  0
DICTIONARY
  5
C
330
0
100
AcDbDictionary
281
     1
  3
ACAD_COLOR
350
DF
  3
ACAD_GROUP
350
D
  3
ACAD_LAYOUT
350
19
  3
ACAD_MATERIAL
350
DE
  3
ACAD_MLINESTYLE
350
16
  3
ACAD_PLOTSETTINGS
350
18
  3
ACAD_PLOTSTYLENAME
350
E
  3
AcDbVariableDictionary
350
EA
  0
DICTIONARY
  5
A0
330
1E
100
AcDbDictionary
280
     1
281
     1
  3
ACAD_LAYOUTSELFREF
360
D4
  0
DICTIONARY
  5
A2
330
1A
100
AcDbDictionary
280
     1
281
     1
  3
ACAD_LAYOUTSELFREF
360
D3
  0
DICTIONARY
  5
DF
102
{ACAD_REACTORS
330
C
102
}
330
C
100
AcDbDictionary
281
     1
  0
DICTIONARY
  5
D
102
{ACAD_REACTORS
330
C
102
}
330
C
100
AcDbDictionary
281
     1
  0
DICTIONARY
  5
19
102
{ACAD_REACTORS
330
C
102
}
330
C
100
AcDbDictionary
281
     1
  3
Layout1
350
1D
  3
Model
350
21
  0
DICTIONARY
  5
DE
102
{ACAD_REACTORS
330
C
102
}
330
C
100
AcDbDictionary
281
     1
  0
DICTIONARY
  5
16
102
{ACAD_REACTORS
330
C
102
}
330
C
100
AcDbDictionary
281
     1
  3
Standard
350
17
  0
DICTIONARY
  5
18
102
{ACAD_REACTORS
330
C
102
}
330
C
100
AcDbDictionary
281
     1
  0
ACDBDICTIONARYWDFLT
  5
E
102
{ACAD_REACTORS
330
C
102
}
330
C
100
AcDbDictionary
281
     1
  3
Normal
350
F
100
AcDbDictionaryWithDefault
340
F
  0
DICTIONARY
  5
EA
102
{ACAD_REACTORS
330
C
102
}
330
C
100
AcDbDictionary
281
     1
  3
DIMASSOC
350
EB
  3
PROJECTNAME
350
EC
  0
XRECORD
  5
D4
102
{ACAD_REACTORS
330
A0
102
}
330
A0
100
AcDbXrecord
280
     1
340
1E
  0
XRECORD
  5
D3
102
{ACAD_REACTORS
330
A2
102
}
330
A2
100
AcDbXrecord
280
     1
340
1A
  0
LAYOUT
  5
1D
102
{ACAD_REACTORS
330
19
102
}
330
19
100
AcDbPlotSettings
  1

  2
\\NT_WORK01\HP LaserJet 5000 PCL 6
  4

  6

 40
0.0
 41
0.0
 42
0.0
 43
0.0
 44
0.0
 45
0.0
 46
0.0
 47
0.0
 48
0.0
 49
0.0
140
0.0
141
0.0
142
1.0
143
1.0
 70
   688
 72
     0
 73
     0
 74
     5
  7

 75
    16
147
1.0
 76
     0
 77
     2
 78
   300
148
0.0
149
0.0
100
AcDbLayout
  1
Layout1
 70
     0
 71
     1
 10
0.0
 20
0.0
 11
12.0
 21
9.0
 12
0.0
 22
0.0
 32
0.0
 14
1.000000000000000E+20
 24
1.000000000000000E+20
 34
1.000000000000000E+20
 15
-1.000000000000000E+20
 25
-1.000000000000000E+20
 35
-1.000000000000000E+20
146
0.0
 13
0.0
 23
0.0
 33
0.0
 16
1.0
 26
0.0
 36
0.0
 17
0.0
 27
1.0
 37
0.0
 76
     0
330
1A
  0
LAYOUT
  5
21
102
{ACAD_REACTORS
330
19
102
}
330
19
100
AcDbPlotSettings
  1

  2
none_device
  4
Letter_(8.50_x_11.00_Inches)
  6

 40
6.349999904632568
 41
6.349999904632568
 42
6.350006103515625
 43
6.350006103515625
 44
215.8999938964844
 45
279.3999938964844
 46
0.0
 47
0.0
 48
0.0
 49
0.0
140
0.0
141
0.0
142
1.0
143
1.0
 70
 11952
 72
     0
 73
     1
 74
     0
  7

 75
     0
147
1.0
 76
     0
 77
     2
 78
   300
148
-104.9980050966159
149
47.27120666360439
100
AcDbLayout
  1
Model
 70
     1
 71
     0
 10
0.0
 20
0.0
 11
12.0
 21
9.0
 12
0.0
 22
0.0
 32
0.0
 14
0.0
 24
0.0
 34
0.0
 15
0.0
 25
0.0
 35
0.0
146
0.0
 13
0.0
 23
0.0
 33
0.0
 16
1.0
 26
0.0
 36
0.0
 17
0.0
 27
1.0
 37
0.0
 76
     0
330
1E
  0
MLINESTYLE
  5
17
102
{ACAD_REACTORS
330
16
102
}
330
16
100
AcDbMlineStyle
  2
STANDARD
 70
     0
  3

 62
   256
 51
90.0
 52
90.0
 71
     2
 49
0.5
 62
   256
  6
BYLAYER
 49
-0.5
 62
   256
  6
BYLAYER
  0
ACDBPLACEHOLDER
  5
F
102
{ACAD_REACTORS
330
E
102
}
330
E
  0
DICTIONARYVAR
  5
EB
102
{ACAD_REACTORS
330
EA
102
}
330
EA
100
DictionaryVariables
280
     0
  1
1
  0
DICTIONARYVAR
  5
EC
102
{ACAD_REACTORS
330
EA
102
}
330
EA
100
DictionaryVariables
280
     0
  1

  0
ENDSEC
  0
EOF
