  0
SECTION
  2
HEADER
  9
$ACADVER
  1
AC1018
  9
$ACADMAINTVER
 70
     2
  9
$DWGCODEPAGE
  3
ANSI_1252
  9
$INSBASE
 10
0.0
 20
0.0
 30
0.0
  9
$EXTMIN
 10
-0.012810439205964
 20
-0.0181176211630145
 30
-0.0000000000000053
  9
$EXTMAX
 10
210.012821685687
 20
297.0181335269
 30
0.0000000000000099
  9
$LIMMIN
 10
0.0
 20
0.0
  9
$LIMMAX
 10
210.0
 20
297.0
  9
$ORTHOMODE
 70
     1
  9
$REGENMODE
 70
     1
  9
$FILLMODE
 70
     1
  9
$QTEXTMODE
 70
     0
  9
$MIRRTEXT
 70
     1
  9
$LTSCALE
 40
10.0
  9
$ATTMODE
 70
     1
  9
$TEXTSIZE
 40
3.5
  9
$TRACEWID
 40
0.5
  9
$TEXTSTYLE
  7
STANDARD
  9
$CLAYER
  8
SCHRAFF
  9
$CELTYPE
  6
ByLayer
  9
$CECOLOR
 62
   256
  9
$CELTSCALE
 40
1.0
  9
$DISPSILH
 70
     0
  9
$DIMSCALE
 40
1.0
  9
$DIMASZ
 40
3.5
  9
$DIMEXO
 40
1.0
  9
$DIMDLI
 40
7.0
  9
$DIMRND
 40
0.0
  9
$DIMDLE
 40
0.0
  9
$DIMEXE
 40
1.0
  9
$DIMTP
 40
0.0
  9
$DIMTM
 40
0.0
  9
$DIMTXT
 40
3.5
  9
$DIMCEN
 40
1.5
  9
$DIMTSZ
 40
0.0
  9
$DIMTOL
 70
     0
  9
$DIMLIM
 70
     0
  9
$DIMTIH
 70
     0
  9
$DIMTOH
 70
     0
  9
$DIMSE1
 70
     0
  9
$DIMSE2
 70
     0
  9
$DIMTAD
 70
     1
  9
$DIMZIN
 70
     8
  9
$DIMBLK
  1

  9
$DIMASO
 70
     1
  9
$DIMSHO
 70
     0
  9
$DIMPOST
  1

  9
$DIMAPOST
  1

  9
$DIMALT
 70
     0
  9
$DIMALTD
 70
     2
  9
$DIMALTF
 40
25.4
  9
$DIMLFAC
 40
1.0
  9
$DIMTOFL
 70
     1
  9
$DIMTVP
 40
0.0
  9
$DIMTIX
 70
     0
  9
$DIMSOXD
 70
     0
  9
$DIMSAH
 70
     0
  9
$DIMBLK1
  1

  9
$DIMBLK2
  1

  9
$DIMSTYLE
  2
Standard
  9
$DIMCLRD
 70
     0
  9
$DIMCLRE
 70
     0
  9
$DIMCLRT
 70
     1
  9
$DIMTFAC
 40
0.5142857142857144
  9
$DIMGAP
 40
1.5
  9
$DIMJUST
 70
     0
  9
$DIMSD1
 70
     0
  9
$DIMSD2
 70
     0
  9
$DIMTOLJ
 70
     1
  9
$DIMTZIN
 70
     8
  9
$DIMALTZ
 70
     8
  9
$DIMALTTZ
 70
     8
  9
$DIMUPT
 70
     0
  9
$DIMDEC
 70
     2
  9
$DIMTDEC
 70
     2
  9
$DIMALTU
 70
     2
  9
$DIMALTTD
 70
     2
  9
$DIMTXSTY
  7
STANDARD
  9
$DIMAUNIT
 70
     0
  9
$DIMADEC
 70
     2
  9
$DIMALTRND
 40
0.0
  9
$DIMAZIN
 70
     2
  9
$DIMDSEP
 70
    46
  9
$DIMATFIT
 70
     3
  9
$DIMFRAC
 70
     0
  9
$DIMLDRBLK
  1

  9
$DIMLUNIT
 70
     2
  9
$DIMLWD
 70
    -2
  9
$DIMLWE
 70
    -2
  9
$DIMTMOVE
 70
     0
  9
$LUNITS
 70
     2
  9
$LUPREC
 70
     2
  9
$SKETCHINC
 40
1.0
  9
$FILLETRAD
 40
8.0
  9
$AUNITS
 70
     0
  9
$AUPREC
 70
     0
  9
$MENU
  1
ACAD
  9
$ELEVATION
 40
0.0
  9
$PELEVATION
 40
0.0
  9
$THICKNESS
 40
0.0
  9
$LIMCHECK
 70
     0
  9
$CHAMFERA
 40
0.0
  9
$CHAMFERB
 40
0.0
  9
$CHAMFERC
 40
0.0
  9
$CHAMFERD
 40
0.0
  9
$SKPOLY
 70
     0
  9
$TDCREATE
 40
2455397.864709028
  9
$TDUCREATE
 40
2455397.781375695
  9
$TDUPDATE
 40
2455653.579636737
  9
$TDUUPDATE
 40
2455653.496303403
  9
$TDINDWG
 40
0.1237797801
  9
$TDUSRTIMER
 40
0.1237797801
  9
$USRTIMER
 70
     1
  9
$ANGBASE
 50
0.0
  9
$ANGDIR
 70
     0
  9
$PDMODE
 70
     0
  9
$PDSIZE
 40
0.0
  9
$PLINEWID
 40
0.0
  9
$SPLFRAME
 70
     0
  9
$SPLINETYPE
 70
     6
  9
$SPLINESEGS
 70
     8
  9
$HANDSEED
  5
12D9
  9
$SURFTAB1
 70
     6
  9
$SURFTAB2
 70
     6
  9
$SURFTYPE
 70
     6
  9
$SURFU
 70
     6
  9
$SURFV
 70
     6
  9
$UCSBASE
  2

  9
$UCSNAME
  2

  9
$UCSORG
 10
0.0
 20
0.0
 30
0.0
  9
$UCSXDIR
 10
1.0
 20
0.0
 30
0.0
  9
$UCSYDIR
 10
0.0
 20
1.0
 30
0.0
  9
$UCSORTHOREF
  2

  9
$UCSORTHOVIEW
 70
     0
  9
$UCSORGTOP
 10
0.0
 20
0.0
 30
0.0
  9
$UCSORGBOTTOM
 10
0.0
 20
0.0
 30
0.0
  9
$UCSORGLEFT
 10
0.0
 20
0.0
 30
0.0
  9
$UCSORGRIGHT
 10
0.0
 20
0.0
 30
0.0
  9
$UCSORGFRONT
 10
0.0
 20
0.0
 30
0.0
  9
$UCSORGBACK
 10
0.0
 20
0.0
 30
0.0
  9
$PUCSBASE
  2

  9
$PUCSNAME
  2

  9
$PUCSORG
 10
0.0
 20
0.0
 30
0.0
  9
$PUCSXDIR
 10
1.0
 20
0.0
 30
0.0
  9
$PUCSYDIR
 10
0.0
 20
1.0
 30
0.0
  9
$PUCSORTHOREF
  2

  9
$PUCSORTHOVIEW
 70
     0
  9
$PUCSORGTOP
 10
0.0
 20
0.0
 30
0.0
  9
$PUCSORGBOTTOM
 10
0.0
 20
0.0
 30
0.0
  9
$PUCSORGLEFT
 10
0.0
 20
0.0
 30
0.0
  9
$PUCSORGRIGHT
 10
0.0
 20
0.0
 30
0.0
  9
$PUCSORGFRONT
 10
0.0
 20
0.0
 30
0.0
  9
$PUCSORGBACK
 10
0.0
 20
0.0
 30
0.0
  9
$USERI1
 70
     0
  9
$USERI2
 70
     0
  9
$USERI3
 70
     0
  9
$USERI4
 70
     0
  9
$USERI5
 70
     0
  9
$USERR1
 40
0.0
  9
$USERR2
 40
0.0
  9
$USERR3
 40
0.0
  9
$USERR4
 40
0.0
  9
$USERR5
 40
0.0
  9
$WORLDVIEW
 70
     1
  9
$SHADEDGE
 70
     3
  9
$SHADEDIF
 70
    70
  9
$TILEMODE
 70
     1
  9
$MAXACTVP
 70
    16
  9
$PINSBASE
 10
0.0
 20
0.0
 30
0.0
  9
$PLIMCHECK
 70
     0
  9
$PEXTMIN
 10
1.000000000000000E+20
 20
1.000000000000000E+20
 30
1.000000000000000E+20
  9
$PEXTMAX
 10
-1.000000000000000E+20
 20
-1.000000000000000E+20
 30
-1.000000000000000E+20
  9
$PLIMMIN
 10
0.0
 20
0.0
  9
$PLIMMAX
 10
12.0
 20
9.0
  9
$UNITMODE
 70
     0
  9
$VISRETAIN
 70
     0
  9
$PLINEGEN
 70
     0
  9
$PSLTSCALE
 70
     0
  9
$TREEDEPTH
 70
  3020
  9
$CMLSTYLE
  2
Standard
  9
$CMLJUST
 70
     0
  9
$CMLSCALE
 40
1.0
  9
$PROXYGRAPHICS
 70
     1
  9
$MEASUREMENT
 70
     0
  9
$CELWEIGHT
370
    -1
  9
$ENDCAPS
280
     0
  9
$JOINSTYLE
280
     0
  9
$LWDISPLAY
290
     0
  9
$INSUNITS
 70
     0
  9
$HYPERLINKBASE
  1

  9
$STYLESHEET
  1
monochrome 1.ctb
  9
$XEDIT
290
     1
  9
$CEPSNTYPE
380
     0
  9
$PSTYLEMODE
290
     1
  9
$FINGERPRINTGUID
  2
{D68B0D02-A558-11D7-B632-000102183313}
  9
$VERSIONGUID
  2
{04D59D50-203C-473A-BA2E-1CD12E80FE63}
  9
$EXTNAMES
290
     1
  9
$PSVPSCALE
 40
0.0
  9
$OLESTARTUP
290
     0
  9
$SORTENTS
280
   127
  9
$INDEXCTL
280
     0
  9
$HIDETEXT
280
     0
  9
$XCLIPFRAME
290
     0
  9
$HALOGAP
280
     0
  9
$OBSCOLOR
 70
   257
  9
$OBSLTYPE
280
     0
  9
$INTERSECTIONDISPLAY
280
     0
  9
$INTERSECTIONCOLOR
 70
   257
  9
$DIMASSOC
280
     1
  9
$PROJECTNAME
  1

  0
ENDSEC
  0
SECTION
  2
CLASSES
  0
CLASS
  1
ACDBDICTIONARYWDFLT
  2
AcDbDictionaryWithDefault
  3
ObjectDBX Classes
 90
        0
 91
        1
280
     0
281
     0
  0
CLASS
  1
DICTIONARYVAR
  2
AcDbDictionaryVar
  3
ObjectDBX Classes
 90
        0
 91
        2
280
     0
281
     0
  0
ENDSEC
  0
SECTION
  2
TABLES
  0
TABLE
  2
VPORT
  5
8
330
0
100
AcDbSymbolTable
 70
     3
  0
VPORT
  5
12D8
330
8
100
AcDbSymbolTableRecord
100
AcDbViewportTableRecord
  2
*Active
 70
     0
 10
0.0
 20
0.0
 11
1.0
 21
1.0
 12
105.0
 22
148.5
 13
0.0
 23
0.0
 14
1.0
 24
1.0
 15
10.0
 25
10.0
 16
0.0
 26
0.0
 36
1.0
 17
0.0
 27
0.0
 37
0.0
 40
297.0
 41
1.334231805929919
 42
50.0
 43
0.0
 44
0.0
 50
0.0
 51
0.0
 71
     0
 72
  1500
 73
     1
 74
     0
 75
     0
 76
     0
 77
     0
 78
     0
281
     0
 65
     1
110
0.0
120
0.0
130
0.0
111
1.0
121
0.0
131
0.0
112
0.0
122
1.0
132
0.0
 79
     0
146
0.0
  0
ENDTAB
  0
TABLE
  2
LTYPE
  5
5
330
0
100
AcDbSymbolTable
 70
     3
  0
LTYPE
  5
13
330
5
100
AcDbSymbolTableRecord
100
AcDbLinetypeTableRecord
  2
ByBlock
 70
     0
  3

 72
    65
 73
     0
 40
0.0
  0
LTYPE
  5
14
330
5
100
AcDbSymbolTableRecord
100
AcDbLinetypeTableRecord
  2
ByLayer
 70
     0
  3

 72
    65
 73
     0
 40
0.0
  0
LTYPE
  5
15
330
5
100
AcDbSymbolTableRecord
100
AcDbLinetypeTableRecord
  2
Continuous
 70
     0
  3
Solid line
 72
    65
 73
     0
 40
0.0
  0
LTYPE
  5
25
330
5
100
AcDbSymbolTableRecord
100
AcDbLinetypeTableRecord
  2
STRICHPUNKT
 70
     0
  3
__ . __ . __ . __ . __ . __ . __ . __ . __ . __
 72
    65
 73
     4
 40
1.0
 49
0.5
 74
     0
 49
-0.25
 74
     0
 49
0.0
 74
     0
 49
-0.25
 74
     0
  0
LTYPE
  5
32
330
5
100
AcDbSymbolTableRecord
100
AcDbLinetypeTableRecord
  2
AUSGEZOGEN
 70
     0
  3
Ausgezogene Linie
 72
    65
 73
     0
 40
0.0
  0
ENDTAB
  0
TABLE
  2
LAYER
  5
2
330
0
100
AcDbSymbolTable
 70
     9
  0
LAYER
  5
10
330
2
100
AcDbSymbolTableRecord
100
AcDbLayerTableRecord
  2
0
 70
     0
 62
     7
  6
Continuous
370
    -3
390
F
  0
LAYER
  5
2A
330
2
100
AcDbSymbolTableRecord
100
AcDbLayerTableRecord
  2
VOLL
 70
     0
 62
     1
  6
Continuous
370
    -3
390
F
  0
LAYER
  5
2B
330
2
100
AcDbSymbolTableRecord
100
AcDbLayerTableRecord
  2
HILF
 70
     0
 62
     2
  6
Continuous
370
    -3
390
F
  0
LAYER
  5
2C
330
2
100
AcDbSymbolTableRecord
100
AcDbLayerTableRecord
  2
MITTEL
 70
     0
 62
     2
  6
STRICHPUNKT
370
    -3
390
F
  0
LAYER
  5
2F
330
2
100
AcDbSymbolTableRecord
100
AcDbLayerTableRecord
  2
BEM
 70
     0
 62
     7
  6
Continuous
370
    -3
390
F
  0
LAYER
  5
30
330
2
100
AcDbSymbolTableRecord
100
AcDbLayerTableRecord
  2
STEMPEL
 70
     0
 62
     3
  6
Continuous
370
    -3
390
F
  0
LAYER
  5
31
330
2
100
AcDbSymbolTableRecord
100
AcDbLayerTableRecord
  2
TEXT
 70
     0
 62
     7
  6
Continuous
370
    -3
390
F
  0
LAYER
  5
274
330
2
100
AcDbSymbolTableRecord
100
AcDbLayerTableRecord
  2
SCHRAFF
 70
     0
 62
     7
  6
AUSGEZOGEN
370
    -3
390
F
  0
LAYER
  5
2E5
330
2
100
AcDbSymbolTableRecord
100
AcDbLayerTableRecord
  2
Defpoints
 70
     0
 62
     7
  6
Continuous
290
     0
370
    -3
390
F
  0
ENDTAB
  0
TABLE
  2
STYLE
  5
3
330
0
100
AcDbSymbolTable
 70
     2
  0
STYLE
  5
11
330
3
100
AcDbSymbolTableRecord
100
AcDbTextStyleTableRecord
  2
STANDARD
 70
     0
 40
0.0
 41
0.8
 50
0.0
 71
     0
 42
3.5
  3
simplex.shx
  4

  0
STYLE
  5
24
330
3
100
AcDbSymbolTableRecord
100
AcDbTextStyleTableRecord
  2
GREEKS
 70
     0
 40
0.0
 41
0.8
 50
0.0
 71
     0
 42
2.5
  3
SIMPLEX.shx
  4

  0
ENDTAB
  0
TABLE
  2
VIEW
  5
6
330
0
100
AcDbSymbolTable
 70
     0
  0
ENDTAB
  0
TABLE
  2
UCS
  5
7
330
0
100
AcDbSymbolTable
 70
     0
  0
ENDTAB
  0
TABLE
  2
APPID
  5
9
330
0
100
AcDbSymbolTable
 70
     1
  0
APPID
  5
12
330
9
100
AcDbSymbolTableRecord
100
AcDbRegAppTableRecord
  2
ACAD
 70
     0
  0
ENDTAB
  0
TABLE
  2
DIMSTYLE
  5
A
330
0
100
AcDbSymbolTable
 70
     1
100
AcDbDimStyleTable
 71
     1
340
9D
  0
DIMSTYLE
105
9D
102
{ACAD_REACTORS
330
D33
330
D32
330
D31
330
D30
330
D27
330
D26
330
D2F
102
}
330
A
100
AcDbSymbolTableRecord
100
AcDbDimStyleTableRecord
  2
Standard
 70
     0
340
11
  0
ENDTAB
  0
TABLE
  2
BLOCK_RECORD
  5
1
330
0
100
AcDbSymbolTable
 70
    11
  0
BLOCK_RECORD
  5
1E
102
{ACAD_XDICTIONARY
360
A0
102
}
330
1
100
AcDbSymbolTableRecord
100
AcDbBlockTableRecord
  2
*Model_Space
340
21
  0
BLOCK_RECORD
  5
1A
102
{ACAD_XDICTIONARY
360
A2
102
}
330
1
100
AcDbSymbolTableRecord
100
AcDbBlockTableRecord
  2
*Paper_Space
340
1D
  0
BLOCK_RECORD
  5
22
330
1
100
AcDbSymbolTableRecord
100
AcDbBlockTableRecord
  2
LOGO
340
0
102
{BLKREFS
331
9B
102
}
  0
BLOCK_RECORD
  5
D78
330
1
100
AcDbSymbolTableRecord
100
AcDbBlockTableRecord
  2
*D2
340
0
  0
BLOCK_RECORD
  5
D85
330
1
100
AcDbSymbolTableRecord
100
AcDbBlockTableRecord
  2
*D3
340
0
  0
BLOCK_RECORD
  5
DB9
330
1
100
AcDbSymbolTableRecord
100
AcDbBlockTableRecord
  2
*D4
340
0
  0
BLOCK_RECORD
  5
DC6
330
1
100
AcDbSymbolTableRecord
100
AcDbBlockTableRecord
  2
*D5
340
0
  0
BLOCK_RECORD
  5
DD3
330
1
100
AcDbSymbolTableRecord
100
AcDbBlockTableRecord
  2
*D6
340
0
  0
BLOCK_RECORD
  5
DE0
330
1
100
AcDbSymbolTableRecord
100
AcDbBlockTableRecord
  2
*D7
340
0
  0
BLOCK_RECORD
  5
DED
330
1
100
AcDbSymbolTableRecord
100
AcDbBlockTableRecord
  2
*D8
340
0
  0
ENDTAB
  0
ENDSEC
  0
SECTION
  2
BLOCKS
  0
BLOCK
  5
35
330
1E
100
AcDbEntity
  8
0
100
AcDbBlockBegin
  2
*Model_Space
 70
     0
 10
0.0
 20
0.0
 30
0.0
  3
*Model_Space
  1

  0
ENDBLK
  5
36
330
1E
100
AcDbEntity
  8
0
100
AcDbBlockEnd
  0
BLOCK
  5
33
330
1A
100
AcDbEntity
 67
     1
  8
0
100
AcDbBlockBegin
  2
*Paper_Space
 70
     0
 10
0.0
 20
0.0
 30
0.0
  3
*Paper_Space
  1

  0
ENDBLK
  5
34
330
1A
100
AcDbEntity
 67
     1
  8
0
100
AcDbBlockEnd
  0
BLOCK
  5
37
330
22
100
AcDbEntity
  8
0
100
AcDbBlockBegin
  2
LOGO
 70
     0
 10
0.0
 20
0.0
 30
0.0
  3
LOGO
  1

  0
ARC
  5
38
330
22
100
AcDbEntity
  8
0
100
AcDbCircle
 10
11.59973089678112
 20
-9.271599258481501
 30
0.0
 40
4.5
100
AcDbArc
 50
270.0
 51
231.0575587310159
  0
LINE
  5
39
330
22
100
AcDbEntity
  8
0
100
AcDbLine
 10
3.599730896781125
 20
-4.771599258481529
 30
0.0
 11
3.599730896781153
 21
-11.77159925848133
 31
0.0
  0
LINE
  5
3A
330
22
100
AcDbEntity
  8
0
100
AcDbLine
 10
2.599730896781125
 20
-4.771599258481529
 30
0.0
 11
2.599730896781153
 21
-11.77159925848133
 31
0.0
  0
CIRCLE
  5
3B
330
22
100
AcDbEntity
  8
0
100
AcDbCircle
 10
11.59973089678112
 20
-9.271599258481501
 30
0.0
 40
3.5
  0
ARC
  5
3C
330
22
100
AcDbEntity
  8
0
100
AcDbCircle
 10
31.59973089678115
 20
-9.271599258481472
 30
0.0
 40
4.5
100
AcDbArc
 50
270.0
 51
231.0575587310182
  0
LINE
  5
3D
330
22
100
AcDbEntity
  8
0
100
AcDbLine
 10
17.59973089678112
 20
-4.771599258481472
 30
0.0
 11
17.59973089678115
 21
-13.77159925848147
 31
0.0
  0
ARC
  5
3E
330
22
100
AcDbEntity
  8
0
100
AcDbCircle
 10
22.59973089678116
 20
-7.271599258481472
 30
0.0
 40
2.5
100
AcDbArc
 50
293.1161887722295
 51
90.0
  0
CIRCLE
  5
3F
330
22
100
AcDbEntity
  8
0
100
AcDbCircle
 10
31.59973089678115
 20
-9.271599258481472
 30
0.0
 40
3.5
  0
ARC
  5
40
330
22
100
AcDbEntity
  8
0
100
AcDbCircle
 10
4.599730896781153
 20
-11.77159925848133
 30
0.0
 40
1.0
100
AcDbArc
 50
180.0
 51
270.0
  0
ARC
  5
41
330
22
100
AcDbEntity
  8
0
100
AcDbCircle
 10
4.599730896781153
 20
-11.77159925848133
 30
0.0
 40
2.0
100
AcDbArc
 50
179.9999999999992
 51
270.0
  0
LINE
  5
42
330
22
100
AcDbEntity
  8
0
100
AcDbLine
 10
11.59973089678115
 20
-13.77159925848144
 30
0.0
 11
4.599730896781153
 21
-13.77159925848147
 31
0.0
  0
LINE
  5
43
330
22
100
AcDbEntity
  8
0
100
AcDbLine
 10
8.771303772034769
 20
-12.77159925848136
 30
0.0
 11
4.599730896781153
 21
-12.77159925848133
 31
0.0
  0
LINE
  5
44
330
22
100
AcDbEntity
  8
0
100
AcDbLine
 10
31.59973089678115
 20
-13.77159925848147
 30
0.0
 11
23.6715276665056
 21
-13.77159925848144
 31
0.0
  0
LINE
  5
45
330
22
100
AcDbEntity
  8
0
100
AcDbLine
 10
23.56565672307022
 20
-9.51278021337896
 30
0.0
 11
24.4388546544846
 21
-12.77159925848144
 31
0.0
  0
LINE
  5
46
330
22
100
AcDbEntity
  8
0
100
AcDbLine
 10
22.59973089678116
 20
-9.771599258481472
 30
0.0
 11
18.59973089678112
 21
-9.771599258481472
 31
0.0
  0
LINE
  5
47
330
22
100
AcDbEntity
  8
0
100
AcDbLine
 10
18.59973089678115
 20
-13.77159925848144
 30
0.0
 11
17.59973089678115
 21
-13.77159925848144
 31
0.0
  0
LINE
  5
48
330
22
100
AcDbEntity
  8
0
100
AcDbLine
 10
18.59973089678115
 20
-9.771599258481472
 30
0.0
 11
18.59973089678115
 21
-13.77159925848144
 31
0.0
  0
LINE
  5
49
330
22
100
AcDbEntity
  8
0
100
AcDbLine
 10
22.59973089678116
 20
-9.771599258481472
 30
0.0
 11
23.67152766650562
 21
-13.77159925848147
 31
0.0
  0
ARC
  5
4A
330
22
100
AcDbEntity
  8
0
100
AcDbCircle
 10
22.59973089678116
 20
-7.271599258481472
 30
0.0
 40
2.5
100
AcDbArc
 50
270.0
 51
270.0000000000007
  0
LINE
  5
4B
330
22
100
AcDbEntity
  8
0
100
AcDbLine
 10
28.77130377203494
 20
-12.77159925848147
 30
0.0
 11
24.43885465448463
 21
-12.77159925848144
 31
0.0
  0
LINE
  5
4C
330
22
100
AcDbEntity
  8
0
100
AcDbLine
 10
3.599730896781125
 20
-4.771599258481472
 30
0.0
 11
2.599730896781125
 21
-4.771599258481472
 31
0.0
  0
LINE
  5
4D
330
22
100
AcDbEntity
  8
0
100
AcDbLine
 10
22.59973089678116
 20
-8.771599258481472
 30
0.0
 11
18.59973089678115
 21
-8.771599258481472
 31
0.0
  0
LINE
  5
4E
330
22
100
AcDbEntity
  8
0
100
AcDbLine
 10
22.59973089678116
 20
-5.771599258481472
 30
0.0
 11
18.59973089678115
 21
-5.771599258481472
 31
0.0
  0
LINE
  5
4F
330
22
100
AcDbEntity
  8
0
100
AcDbLine
 10
22.59973089678116
 20
-4.771599258481472
 30
0.0
 11
17.59973089678115
 21
-4.771599258481472
 31
0.0
  0
LINE
  5
50
330
22
100
AcDbEntity
  8
0
100
AcDbLine
 10
18.59973089678115
 20
-5.771599258481472
 30
0.0
 11
18.59973089678115
 21
-8.771599258481472
 31
0.0
  0
ARC
  5
51
330
22
100
AcDbEntity
  8
0
100
AcDbCircle
 10
22.59973089678116
 20
-7.271599258481472
 30
0.0
 40
1.5
100
AcDbArc
 50
270.0
 51
90.0
  0
ENDBLK
  5
52
330
22
100
AcDbEntity
  8
0
100
AcDbBlockEnd
  0
BLOCK
  5
D83
330
D78
100
AcDbEntity
  8
0
100
AcDbBlockBegin
  2
*D2
 70
     1
 10
0.0
 20
0.0
 30
0.0
  3
*D2
  1

  0
LINE
  5
12CE
330
D78
100
AcDbEntity
  8
BEM
 62
     0
370
    -2
100
AcDbLine
 10
91.0
 20
136.3482387183619
 30
0.0
 11
61.89947694083738
 21
136.3482387183619
 31
0.0
  0
LINE
  5
12CF
330
D78
100
AcDbEntity
  8
BEM
 62
     0
370
    -2
100
AcDbLine
 10
90.50000000000004
 20
171.3482387183618
 30
0.0
 11
61.89947694083739
 21
171.3482387183619
 31
0.0
  0
LINE
  5
12D0
330
D78
100
AcDbEntity
  8
BEM
 62
     0
370
    -2
100
AcDbLine
 10
62.89947694083738
 20
139.8482387183619
 30
0.0
 11
62.89947694083739
 21
167.8482387183619
 31
0.0
  0
SOLID
  5
12D1
330
D78
100
AcDbEntity
  8
BEM
 62
     0
100
AcDbTrace
 10
62.31614360750405
 20
139.8482387183619
 30
0.0
 11
63.48281027417072
 21
139.8482387183619
 31
0.0
 12
62.89947694083738
 22
136.3482387183619
 32
0.0
 13
62.89947694083738
 23
136.3482387183619
 33
0.0
  0
SOLID
  5
12D2
330
D78
100
AcDbEntity
  8
BEM
 62
     0
100
AcDbTrace
 10
62.31614360750405
 20
167.8482387183619
 30
0.0
 11
63.48281027417073
 21
167.8482387183619
 31
0.0
 12
62.89947694083739
 22
171.3482387183619
 32
0.0
 13
62.89947694083739
 23
171.3482387183619
 33
0.0
  0
MTEXT
  5
12D3
330
D78
100
AcDbEntity
  8
BEM
 62
     1
100
AcDbMText
 10
59.64947694083736
 20
153.8482387183619
 30
0.0
 40
3.5
 41
0.0
 71
     5
 72
     1
  1
\A1;35
 11
0.0000000000000001
 21
1.0
 31
0.0
 73
     1
 44
1.0
  0
POINT
  5
12D4
330
D78
100
AcDbEntity
  8
Defpoints
 62
     0
100
AcDbPoint
 10
92.0
 20
136.3482387183619
 30
0.0
  0
POINT
  5
12D5
330
D78
100
AcDbEntity
  8
Defpoints
 62
     0
100
AcDbPoint
 10
91.50000000000003
 20
171.3482387183618
 30
0.0
  0
POINT
  5
12D6
330
D78
100
AcDbEntity
  8
Defpoints
 62
     0
100
AcDbPoint
 10
62.89947694083739
 20
171.3482387183619
 30
0.0
  0
ENDBLK
  5
D84
330
D78
100
AcDbEntity
  8
0
100
AcDbBlockEnd
  0
BLOCK
  5
D90
330
D85
100
AcDbEntity
  8
0
100
AcDbBlockBegin
  2
*D3
 70
     1
 10
0.0
 20
0.0
 30
0.0
  3
*D3
  1

  0
LINE
  5
12C5
330
D85
100
AcDbEntity
  8
BEM
 62
     0
370
    -2
100
AcDbLine
 10
91.0
 20
136.3482387183619
 30
0.0
 11
70.51303113538224
 21
136.3482387183619
 31
0.0
  0
LINE
  5
12C6
330
D85
100
AcDbEntity
  8
BEM
 62
     0
370
    -2
100
AcDbLine
 10
91.00000000000001
 20
155.3482387183618
 30
0.0
 11
70.51303113538224
 21
155.3482387183618
 31
0.0
  0
LINE
  5
12C7
330
D85
100
AcDbEntity
  8
BEM
 62
     0
370
    -2
100
AcDbLine
 10
71.51303113538225
 20
139.8482387183618
 30
0.0
 11
71.51303113538225
 21
151.8482387183618
 31
0.0
  0
SOLID
  5
12C8
330
D85
100
AcDbEntity
  8
BEM
 62
     0
100
AcDbTrace
 10
70.92969780204892
 20
139.8482387183618
 30
0.0
 11
72.09636446871558
 21
139.8482387183618
 31
0.0
 12
71.51303113538225
 22
136.3482387183619
 32
0.0
 13
71.51303113538225
 23
136.3482387183619
 33
0.0
  0
SOLID
  5
12C9
330
D85
100
AcDbEntity
  8
BEM
 62
     0
100
AcDbTrace
 10
70.92969780204892
 20
151.8482387183618
 30
0.0
 11
72.09636446871558
 21
151.8482387183618
 31
0.0
 12
71.51303113538225
 22
155.3482387183618
 32
0.0
 13
71.51303113538225
 23
155.3482387183618
 33
0.0
  0
MTEXT
  5
12CA
330
D85
100
AcDbEntity
  8
BEM
 62
     1
100
AcDbMText
 10
68.26303113538223
 20
145.8482387183619
 30
0.0
 40
3.5
 41
0.0
 71
     5
 72
     1
  1
\A1;19
 11
0.0000000000000001
 21
1.0
 31
0.0
 73
     1
 44
1.0
  0
POINT
  5
12CB
330
D85
100
AcDbEntity
  8
Defpoints
 62
     0
100
AcDbPoint
 10
92.0
 20
136.3482387183619
 30
0.0
  0
POINT
  5
12CC
330
D85
100
AcDbEntity
  8
Defpoints
 62
     0
100
AcDbPoint
 10
92.00000000000001
 20
155.3482387183618
 30
0.0
  0
POINT
  5
12CD
330
D85
100
AcDbEntity
  8
Defpoints
 62
     0
100
AcDbPoint
 10
71.51303113538225
 20
155.3482387183618
 30
0.0
  0
ENDBLK
  5
D91
330
D85
100
AcDbEntity
  8
0
100
AcDbBlockEnd
  0
BLOCK
  5
DC4
330
DB9
100
AcDbEntity
  8
0
100
AcDbBlockBegin
  2
*D4
 70
     1
 10
0.0
 20
0.0
 30
0.0
  3
*D4
  1

  0
LINE
  5
12BC
330
DB9
100
AcDbEntity
  8
BEM
 62
     0
370
    -2
100
AcDbLine
 10
92.0
 20
135.3482387183619
 30
0.0
 11
92.0
 21
120.7978384636501
 31
0.0
  0
LINE
  5
12BD
330
DB9
100
AcDbEntity
  8
BEM
 62
     0
370
    -2
100
AcDbLine
 10
133.0
 20
135.3482387183619
 30
0.0
 11
133.0
 21
120.7978384636501
 31
0.0
  0
LINE
  5
12BE
330
DB9
100
AcDbEntity
  8
BEM
 62
     0
370
    -2
100
AcDbLine
 10
95.5
 20
121.7978384636501
 30
0.0
 11
129.5
 21
121.7978384636501
 31
0.0
  0
SOLID
  5
12BF
330
DB9
100
AcDbEntity
  8
BEM
 62
     0
100
AcDbTrace
 10
95.5
 20
122.3811717969834
 30
0.0
 11
95.5
 21
121.2145051303167
 31
0.0
 12
92.0
 22
121.7978384636501
 32
0.0
 13
92.0
 23
121.7978384636501
 33
0.0
  0
SOLID
  5
12C0
330
DB9
100
AcDbEntity
  8
BEM
 62
     0
100
AcDbTrace
 10
129.5
 20
122.3811717969834
 30
0.0
 11
129.5
 21
121.2145051303167
 31
0.0
 12
133.0
 22
121.7978384636501
 32
0.0
 13
133.0
 23
121.7978384636501
 33
0.0
  0
MTEXT
  5
12C1
330
DB9
100
AcDbEntity
  8
BEM
 62
     1
100
AcDbMText
 10
112.5
 20
125.9645051303168
 30
0.0
 40
3.5
 41
0.0
 71
     5
 72
     1
  1
\A1;R1 1/4
 73
     1
 44
1.0
  0
POINT
  5
12C2
330
DB9
100
AcDbEntity
  8
Defpoints
 62
     0
100
AcDbPoint
 10
92.0
 20
136.3482387183619
 30
0.0
  0
POINT
  5
12C3
330
DB9
100
AcDbEntity
  8
Defpoints
 62
     0
100
AcDbPoint
 10
133.0
 20
136.3482387183619
 30
0.0
  0
POINT
  5
12C4
330
DB9
100
AcDbEntity
  8
Defpoints
 62
     0
100
AcDbPoint
 10
133.0
 20
121.7978384636501
 30
0.0
  0
ENDBLK
  5
DC5
330
DB9
100
AcDbEntity
  8
0
100
AcDbBlockEnd
  0
BLOCK
  5
DD1
330
DC6
100
AcDbEntity
  8
0
100
AcDbBlockBegin
  2
*D5
 70
     1
 10
0.0
 20
0.0
 30
0.0
  3
*D5
  1

  0
LINE
  5
12B3
330
DC6
100
AcDbEntity
  8
BEM
 62
     0
370
    -2
100
AcDbLine
 10
87.35239699968156
 20
236.3482387183619
 30
0.0
 11
53.12483730226331
 21
236.3482387183619
 31
0.0
  0
LINE
  5
12B4
330
DC6
100
AcDbEntity
  8
BEM
 62
     0
370
    -2
100
AcDbLine
 10
91.0
 20
136.3482387183619
 30
0.0
 11
53.12483730226329
 21
136.3482387183619
 31
0.0
  0
LINE
  5
12B5
330
DC6
100
AcDbEntity
  8
BEM
 62
     0
370
    -2
100
AcDbLine
 10
54.1248373022633
 20
232.8482387183619
 30
0.0
 11
54.12483730226329
 21
139.8482387183619
 31
0.0
  0
SOLID
  5
12B6
330
DC6
100
AcDbEntity
  8
BEM
 62
     0
100
AcDbTrace
 10
53.54150396892997
 20
232.8482387183619
 30
0.0
 11
54.70817063559664
 21
232.8482387183619
 31
0.0
 12
54.1248373022633
 22
236.3482387183619
 32
0.0
 13
54.1248373022633
 23
236.3482387183619
 33
0.0
  0
SOLID
  5
12B7
330
DC6
100
AcDbEntity
  8
BEM
 62
     0
100
AcDbTrace
 10
53.54150396892995
 20
139.8482387183619
 30
0.0
 11
54.70817063559662
 21
139.8482387183619
 31
0.0
 12
54.12483730226329
 22
136.3482387183619
 32
0.0
 13
54.12483730226329
 23
136.3482387183619
 33
0.0
  0
MTEXT
  5
12B8
330
DC6
100
AcDbEntity
  8
BEM
 62
     1
100
AcDbMText
 10
50.87483730226328
 20
186.3482387183619
 30
0.0
 40
3.5
 41
0.0
 71
     5
 72
     1
  1
\A1;100
 11
0.0000000000000001
 21
1.0
 31
0.0
 73
     1
 44
1.0
  0
POINT
  5
12B9
330
DC6
100
AcDbEntity
  8
Defpoints
 62
     0
100
AcDbPoint
 10
88.35239699968155
 20
236.3482387183619
 30
0.0
  0
POINT
  5
12BA
330
DC6
100
AcDbEntity
  8
Defpoints
 62
     0
100
AcDbPoint
 10
92.0
 20
136.3482387183619
 30
0.0
  0
POINT
  5
12BB
330
DC6
100
AcDbEntity
  8
Defpoints
 62
     0
100
AcDbPoint
 10
54.12483730226329
 20
136.3482387183619
 30
0.0
  0
ENDBLK
  5
DD2
330
DC6
100
AcDbEntity
  8
0
100
AcDbBlockEnd
  0
BLOCK
  5
DDE
330
DD3
100
AcDbEntity
  8
0
100
AcDbBlockBegin
  2
*D6
 70
     1
 10
0.0
 20
0.0
 30
0.0
  3
*D6
  1

  0
LINE
  5
12AA
330
DD3
100
AcDbEntity
  8
BEM
 62
     0
370
    -2
100
AcDbLine
 10
87.35239699968156
 20
236.3482387183619
 30
0.0
 11
61.84554123994752
 21
236.3482387183619
 31
0.0
  0
LINE
  5
12AB
330
DD3
100
AcDbEntity
  8
BEM
 62
     0
370
    -2
100
AcDbLine
 10
90.50000000000004
 20
171.3482387183618
 30
0.0
 11
61.8455412399475
 21
171.3482387183619
 31
0.0
  0
LINE
  5
12AC
330
DD3
100
AcDbEntity
  8
BEM
 62
     0
370
    -2
100
AcDbLine
 10
62.84554123994752
 20
232.8482387183619
 30
0.0
 11
62.84554123994751
 21
174.8482387183619
 31
0.0
  0
SOLID
  5
12AD
330
DD3
100
AcDbEntity
  8
BEM
 62
     0
100
AcDbTrace
 10
62.26220790661418
 20
232.8482387183619
 30
0.0
 11
63.42887457328085
 21
232.8482387183619
 31
0.0
 12
62.84554123994752
 22
236.3482387183619
 32
0.0
 13
62.84554123994752
 23
236.3482387183619
 33
0.0
  0
SOLID
  5
12AE
330
DD3
100
AcDbEntity
  8
BEM
 62
     0
100
AcDbTrace
 10
62.26220790661417
 20
174.8482387183619
 30
0.0
 11
63.42887457328084
 21
174.8482387183619
 31
0.0
 12
62.84554123994751
 22
171.3482387183619
 32
0.0
 13
62.84554123994751
 23
171.3482387183619
 33
0.0
  0
MTEXT
  5
12AF
330
DD3
100
AcDbEntity
  8
BEM
 62
     1
100
AcDbMText
 10
59.59554123994749
 20
203.8482387183619
 30
0.0
 40
3.5
 41
0.0
 71
     5
 72
     1
  1
\A1;65
 11
0.0000000000000001
 21
1.0
 31
0.0
 73
     1
 44
1.0
  0
POINT
  5
12B0
330
DD3
100
AcDbEntity
  8
Defpoints
 62
     0
100
AcDbPoint
 10
88.35239699968155
 20
236.3482387183619
 30
0.0
  0
POINT
  5
12B1
330
DD3
100
AcDbEntity
  8
Defpoints
 62
     0
100
AcDbPoint
 10
91.50000000000003
 20
171.3482387183618
 30
0.0
  0
POINT
  5
12B2
330
DD3
100
AcDbEntity
  8
Defpoints
 62
     0
100
AcDbPoint
 10
62.84554123994751
 20
171.3482387183619
 30
0.0
  0
ENDBLK
  5
DDF
330
DD3
100
AcDbEntity
  8
0
100
AcDbBlockEnd
  0
BLOCK
  5
DEB
330
DE0
100
AcDbEntity
  8
0
100
AcDbBlockBegin
  2
*D7
 70
     1
 10
0.0
 20
0.0
 30
0.0
  3
*D7
  1

  0
LINE
  5
12A1
330
DE0
100
AcDbEntity
  8
BEM
 62
     0
370
    -2
100
AcDbLine
 10
87.35239699968156
 20
236.3482387183619
 30
0.0
 11
70.56624517763174
 21
236.3482387183619
 31
0.0
  0
LINE
  5
12A2
330
DE0
100
AcDbEntity
  8
BEM
 62
     0
370
    -2
100
AcDbLine
 10
88.73929226603236
 20
176.3482387183618
 30
0.0
 11
70.56624517763173
 21
176.3482387183618
 31
0.0
  0
LINE
  5
12A3
330
DE0
100
AcDbEntity
  8
BEM
 62
     0
370
    -2
100
AcDbLine
 10
71.56624517763174
 20
232.8482387183619
 30
0.0
 11
71.56624517763173
 21
179.8482387183618
 31
0.0
  0
SOLID
  5
12A4
330
DE0
100
AcDbEntity
  8
BEM
 62
     0
100
AcDbTrace
 10
70.98291184429841
 20
232.8482387183619
 30
0.0
 11
72.14957851096507
 21
232.8482387183619
 31
0.0
 12
71.56624517763174
 22
236.3482387183619
 32
0.0
 13
71.56624517763174
 23
236.3482387183619
 33
0.0
  0
SOLID
  5
12A5
330
DE0
100
AcDbEntity
  8
BEM
 62
     0
100
AcDbTrace
 10
70.98291184429839
 20
179.8482387183618
 30
0.0
 11
72.14957851096506
 21
179.8482387183618
 31
0.0
 12
71.56624517763173
 22
176.3482387183618
 32
0.0
 13
71.56624517763173
 23
176.3482387183618
 33
0.0
  0
MTEXT
  5
12A6
330
DE0
100
AcDbEntity
  8
BEM
 62
     1
100
AcDbMText
 10
68.3162451776317
 20
206.3482387183619
 30
0.0
 40
3.5
 41
0.0
 71
     5
 72
     1
  1
\A1;60
 11
0.0000000000000001
 21
1.0
 31
0.0
 73
     1
 44
1.0
  0
POINT
  5
12A7
330
DE0
100
AcDbEntity
  8
Defpoints
 62
     0
100
AcDbPoint
 10
88.35239699968155
 20
236.3482387183619
 30
0.0
  0
POINT
  5
12A8
330
DE0
100
AcDbEntity
  8
Defpoints
 62
     0
100
AcDbPoint
 10
89.73929226603237
 20
176.3482387183618
 30
0.0
  0
POINT
  5
12A9
330
DE0
100
AcDbEntity
  8
Defpoints
 62
     0
100
AcDbPoint
 10
71.56624517763173
 20
176.3482387183618
 30
0.0
  0
ENDBLK
  5
DEC
330
DE0
100
AcDbEntity
  8
0
100
AcDbBlockEnd
  0
BLOCK
  5
DF8
330
DED
100
AcDbEntity
  8
0
100
AcDbBlockBegin
  2
*D8
 70
     1
 10
0.0
 20
0.0
 30
0.0
  3
*D8
  1

  0
LINE
  5
1298
330
DED
100
AcDbEntity
  8
BEM
 62
     0
370
    -2
100
AcDbLine
 10
87.35239699968156
 20
236.3482387183619
 30
0.0
 11
79.28694911531597
 21
236.3482387183619
 31
0.0
  0
LINE
  5
1299
330
DED
100
AcDbEntity
  8
BEM
 62
     0
370
    -2
100
AcDbLine
 10
86.48274856249758
 20
220.3482387183619
 30
0.0
 11
79.28694911531595
 21
220.3482387183619
 31
0.0
  0
LINE
  5
129A
330
DED
100
AcDbEntity
  8
BEM
 62
     0
370
    -2
100
AcDbLine
 10
80.28694911531596
 20
232.8482387183619
 30
0.0
 11
80.28694911531594
 21
223.8482387183619
 31
0.0
  0
SOLID
  5
129B
330
DED
100
AcDbEntity
  8
BEM
 62
     0
100
AcDbTrace
 10
79.70361578198263
 20
232.8482387183619
 30
0.0
 11
80.8702824486493
 21
232.8482387183619
 31
0.0
 12
80.28694911531596
 22
236.3482387183619
 32
0.0
 13
80.28694911531596
 23
236.3482387183619
 33
0.0
  0
SOLID
  5
129C
330
DED
100
AcDbEntity
  8
BEM
 62
     0
100
AcDbTrace
 10
79.70361578198262
 20
223.8482387183619
 30
0.0
 11
80.87028244864928
 21
223.8482387183619
 31
0.0
 12
80.28694911531594
 22
220.3482387183619
 32
0.0
 13
80.28694911531594
 23
220.3482387183619
 33
0.0
  0
MTEXT
  5
129D
330
DED
100
AcDbEntity
  8
BEM
 62
     1
100
AcDbMText
 10
77.03694911531592
 20
228.3482387183619
 30
0.0
 40
3.5
 41
0.0
 71
     5
 72
     1
  1
\A1;16
 11
0.0000000000000001
 21
1.0
 31
0.0
 73
     1
 44
1.0
  0
POINT
  5
129E
330
DED
100
AcDbEntity
  8
Defpoints
 62
     0
100
AcDbPoint
 10
88.35239699968155
 20
236.3482387183619
 30
0.0
  0
POINT
  5
129F
330
DED
100
AcDbEntity
  8
Defpoints
 62
     0
100
AcDbPoint
 10
87.48274856249757
 20
220.3482387183619
 30
0.0
  0
POINT
  5
12A0
330
DED
100
AcDbEntity
  8
Defpoints
 62
     0
100
AcDbPoint
 10
80.28694911531594
 20
220.3482387183619
 30
0.0
  0
ENDBLK
  5
DF9
330
DED
100
AcDbEntity
  8
0
100
AcDbBlockEnd
  0
ENDSEC
  0
SECTION
  2
ENTITIES
  0
LINE
  5
57
330
1E
100
AcDbEntity
  8
STEMPEL
100
AcDbLine
 10
205.0
 20
55.00000000000003
 30
0.0
 11
19.99999999999998
 21
55.0
 31
0.0
  0
LINE
  5
58
330
1E
100
AcDbEntity
  8
STEMPEL
100
AcDbLine
 10
68.00000000000006
 20
54.99999999999997
 30
0.0
 11
68.0
 21
4.999999999999985
 31
0.0
  0
LINE
  5
59
330
1E
100
AcDbEntity
  8
STEMPEL
100
AcDbLine
 10
110.0
 20
55.00000000000003
 30
0.0
 11
110.0
 21
4.999999999999985
 31
0.0
  0
LINE
  5
5A
330
1E
100
AcDbEntity
  8
STEMPEL
100
AcDbLine
 10
166.0
 20
54.99999999999989
 30
0.0
 11
166.0
 21
20.0
 31
0.0
  0
LINE
  5
5B
330
1E
100
AcDbEntity
  8
STEMPEL
100
AcDbLine
 10
67.99999999999994
 20
14.99999999999998
 30
0.0
 11
19.99999999999998
 21
14.99999999999998
 31
0.0
  0
LINE
  5
5C
330
1E
100
AcDbEntity
  8
STEMPEL
100
AcDbLine
 10
205.0
 20
20.0
 30
0.0
 11
68.00000000000006
 21
19.99999999999998
 31
0.0
  0
LINE
  5
5D
330
1E
100
AcDbEntity
  8
STEMPEL
100
AcDbLine
 10
205.0
 20
40.0
 30
0.0
 11
68.00000000000006
 21
39.99999999999997
 31
0.0
  0
LINE
  5
5E
330
1E
100
AcDbEntity
  8
VOLL
100
AcDbLine
 10
27.00000000000005
 20
55.00000000000003
 30
0.0
 11
26.99999999999999
 21
4.999999999999985
 31
0.0
  0
LINE
  5
5F
330
1E
100
AcDbEntity
  8
VOLL
100
AcDbLine
 10
47.00000000000005
 20
54.99999999999997
 30
0.0
 11
47.0
 21
4.999999999999985
 31
0.0
  0
LINE
  5
60
330
1E
100
AcDbEntity
  8
VOLL
100
AcDbLine
 10
57.00000000000006
 20
54.99999999999997
 30
0.0
 11
57.0
 21
4.999999999999985
 31
0.0
  0
LINE
  5
61
330
1E
100
AcDbEntity
  8
VOLL
100
AcDbLine
 10
77.00000000000006
 20
39.99999999999997
 30
0.0
 11
77.00000000000006
 21
19.99999999999998
 31
0.0
  0
LINE
  5
62
330
1E
100
AcDbEntity
  8
VOLL
100
AcDbLine
 10
90.00000000000005
 20
54.99999999999992
 30
0.0
 11
90.0
 21
19.99999999999998
 31
0.0
  0
LINE
  5
63
330
1E
100
AcDbEntity
  8
HILF
100
AcDbLine
 10
20.00000000000004
 20
50.00000000000003
 30
0.0
 11
68.00000000000006
 21
50.00000000000003
 31
0.0
  0
LINE
  5
64
330
1E
100
AcDbEntity
  8
HILF
100
AcDbLine
 10
20.00000000000004
 20
45.00000000000002
 30
0.0
 11
68.00000000000006
 21
45.00000000000002
 31
0.0
  0
LINE
  5
65
330
1E
100
AcDbEntity
  8
HILF
100
AcDbLine
 10
20.00000000000004
 20
39.99999999999997
 30
0.0
 11
68.00000000000006
 21
39.99999999999997
 31
0.0
  0
LINE
  5
66
330
1E
100
AcDbEntity
  8
HILF
100
AcDbLine
 10
20.00000000000004
 20
34.99999999999997
 30
0.0
 11
68.00000000000006
 21
34.99999999999997
 31
0.0
  0
LINE
  5
67
330
1E
100
AcDbEntity
  8
HILF
100
AcDbLine
 10
20.00000000000004
 20
29.99999999999999
 30
0.0
 11
68.00000000000006
 21
29.99999999999999
 31
0.0
  0
LINE
  5
68
330
1E
100
AcDbEntity
  8
HILF
100
AcDbLine
 10
20.00000000000004
 20
24.99999999999999
 30
0.0
 11
68.00000000000006
 21
24.99999999999999
 31
0.0
  0
LINE
  5
69
330
1E
100
AcDbEntity
  8
HILF
100
AcDbLine
 10
20.00000000000004
 20
19.99999999999998
 30
0.0
 11
68.00000000000006
 21
19.99999999999998
 31
0.0
  0
LINE
  5
6A
330
1E
100
AcDbEntity
  8
HILF
100
AcDbLine
 10
68.00000000000006
 20
34.99999999999997
 30
0.0
 11
110.0
 21
34.99999999999997
 31
0.0
  0
LINE
  5
6B
330
1E
100
AcDbEntity
  8
HILF
100
AcDbLine
 10
68.00000000000006
 20
29.99999999999999
 30
0.0
 11
110.0
 21
29.99999999999999
 31
0.0
  0
LINE
  5
6C
330
1E
100
AcDbEntity
  8
HILF
100
AcDbLine
 10
68.00000000000006
 20
24.99999999999999
 30
0.0
 11
110.0
 21
24.99999999999999
 31
0.0
  0
LINE
  5
6D
330
1E
100
AcDbEntity
  8
HILF
100
AcDbLine
 10
112.3868400548474
 20
42.01879123782069
 30
0.0
 11
162.4176958278155
 21
42.01879123782069
 31
0.0
  0
LINE
  5
6E
330
1E
100
AcDbEntity
  8
HILF
100
AcDbLine
 10
112.3868400548474
 20
34.99999999999997
 30
0.0
 11
162.4176958278155
 21
34.99999999999997
 31
0.0
  0
LINE
  5
6F
330
1E
100
AcDbEntity
  8
HILF
100
AcDbLine
 10
112.3868400548474
 20
29.99999999999999
 30
0.0
 11
162.4176958278155
 21
29.99999999999999
 31
0.0
  0
LINE
  5
70
330
1E
100
AcDbEntity
  8
HILF
100
AcDbLine
 10
112.3868400548474
 20
24.99999999999999
 30
0.0
 11
162.4176958278155
 21
24.99999999999999
 31
0.0
  0
LINE
  5
71
330
1E
100
AcDbEntity
  8
VOLL
100
AcDbLine
 10
166.0
 20
30.0
 30
0.0
 11
205.0
 21
30.0
 31
0.0
  0
LINE
  5
72
330
1E
100
AcDbEntity
  8
HILF
100
AcDbLine
 10
168.3619308148496
 20
41.88991818477913
 30
0.0
 11
202.4294419663364
 21
41.88991818477913
 31
0.0
  0
LINE
  5
73
330
1E
100
AcDbEntity
  8
HILF
100
AcDbLine
 10
111.7454849644942
 20
7.446991290141568
 30
0.0
 11
202.4294419663364
 21
7.446991290141568
 31
0.0
  0
TEXT
  5
74
330
1E
100
AcDbEntity
  8
TEXT
100
AcDbText
 10
31.67819108391266
 20
9.336909474920659
 30
0.0
 40
2.0
  1
Änderung
 41
0.8
  7
GREEKS
 72
     1
 11
37.04961965534123
 21
9.336909474920659
 31
0.0
100
AcDbText
  0
TEXT
  5
75
330
1E
100
AcDbEntity
  8
TEXT
100
AcDbText
 10
71.75817860751886
 20
51.23104475435443
 30
0.0
 40
2.5
  1
Maßstab
 41
0.8
  7
GREEKS
100
AcDbText
  0
TEXT
  5
76
330
1E
100
AcDbEntity
  8
TEXT
100
AcDbText
 10
92.14294773670257
 20
51.20920842174095
 30
0.0
 40
2.5
  1
Zul. Abw.
 41
0.8
  7
GREEKS
100
AcDbText
  0
TEXT
  5
77
330
1E
100
AcDbEntity
  8
TEXT
100
AcDbText
 10
112.4389701904505
 20
51.27446640058898
 30
0.0
 40
2.5
  1
Benennung
 41
0.8
  7
GREEKS
100
AcDbText
  0
TEXT
  5
78
330
1E
100
AcDbEntity
  8
TEXT
100
AcDbText
 10
168.089377478817
 20
51.15660172685682
 30
0.0
 40
2.5
  1
Zeichnungs Nr.
 41
0.8
  7
GREEKS
100
AcDbText
  0
TEXT
  5
79
330
1E
100
AcDbEntity
  8
TEXT
100
AcDbText
 10
112.371119195568
 20
15.42280285096528
 30
0.0
 40
2.5
  1
Bauvorhaben
 41
0.8
  7
GREEKS
100
AcDbText
  0
TEXT
  5
7A
330
1E
100
AcDbEntity
  8
TEXT
100
AcDbText
 10
168.3619308148496
 20
36.59059118549985
 30
0.0
 40
2.5
  1
Ersatz für:
 41
0.8
  7
GREEKS
100
AcDbText
  0
TEXT
  5
7B
330
1E
100
AcDbEntity
  8
TEXT
100
AcDbText
 10
24.13320553522878
 20
6.827329230135958
 30
0.0
 40
2.0
  1
Index
 50
90.0
 41
0.8
  7
GREEKS
100
AcDbText
  0
TEXT
  5
7C
330
1E
100
AcDbEntity
  8
TEXT
100
AcDbText
 10
49.79989095693829
 20
9.33578134669905
 30
0.0
 40
2.0
  1
Tag
 41
0.8
  7
GREEKS
 72
     1
 11
51.66655762360496
 21
9.33578134669905
 31
0.0
100
AcDbText
  0
TEXT
  5
7D
330
1E
100
AcDbEntity
  8
TEXT
100
AcDbText
 10
59.50613721932963
 20
9.29662108483204
 30
0.0
 40
2.0
  1
Name
 41
0.8
  7
GREEKS
 72
     1
 11
62.66804198123439
 21
9.29662108483204
 31
0.0
100
AcDbText
  0
TEXT
  5
7E
330
1E
100
AcDbEntity
  8
TEXT
100
AcDbText
 10
81.16558365768254
 20
36.65940250614963
 30
0.0
 40
2.0
  1
Tag
 41
0.8
  7
GREEKS
100
AcDbText
  0
TEXT
  5
7F
330
1E
100
AcDbEntity
  8
TEXT
100
AcDbText
 10
96.23132921131475
 20
36.65480545957612
 30
0.0
 40
2.0
  1
Name
 41
0.8
  7
GREEKS
100
AcDbText
  0
TEXT
  5
80
330
1E
100
AcDbEntity
  8
TEXT
100
AcDbText
 10
68.79180635838077
 20
31.81495184808982
 30
0.0
 40
2.0
  1
Gez.
 41
0.8
  7
GREEKS
100
AcDbText
  0
TEXT
  5
81
330
1E
100
AcDbEntity
  8
TEXT
100
AcDbText
 10
68.77575432858361
 20
26.84463145714189
 30
0.0
 40
2.0
  1
Gepr.
 41
0.8
  7
GREEKS
100
AcDbText
  0
TEXT
  5
82
330
1E
100
AcDbEntity
  8
TEXT
100
AcDbText
 10
68.80033886936519
 20
21.76473194824904
 30
0.0
 40
2.0
  1
Norm.
 41
0.8
  7
GREEKS
100
AcDbText
  0
LINE
  5
83
330
1E
100
AcDbEntity
  8
STEMPEL
100
AcDbLine
 10
24.99999999999995
 20
5.0
 30
0.0
 11
205.0
 21
5.0
 31
0.0
  0
TEXT
  5
84
330
1E
100
AcDbEntity
  8
TEXT
100
AcDbText
 10
168.6200430748503
 20
26.03708088939301
 30
0.0
 40
2.5
  1
ersetzt durch:
 41
0.8
  7
GREEKS
100
AcDbText
  0
LINE
  5
85
330
1E
100
AcDbEntity
  8
STEMPEL
100
AcDbLine
 10
205.0
 20
5.0
 30
0.0
 11
19.99999999999994
 21
5.0
 31
0.0
  0
LINE
  5
86
330
1E
100
AcDbEntity
  8
STEMPEL
100
AcDbLine
 10
205.0
 20
5.0
 30
0.0
 11
205.0
 21
292.0
 31
0.0
  0
LINE
  5
87
330
1E
100
AcDbEntity
  8
STEMPEL
100
AcDbLine
 10
20.0
 20
5.0
 30
0.0
 11
19.99999999999994
 21
292.0
 31
0.0
  0
LINE
  5
88
330
1E
100
AcDbEntity
  8
STEMPEL
100
AcDbLine
 10
205.0
 20
292.0
 30
0.0
 11
19.99999999999994
 21
292.0
 31
0.0
  0
LINE
  5
89
330
1E
100
AcDbEntity
  8
HILF
100
AcDbLine
 10
0.0
 20
0.0
 30
0.0
 11
-0.0000000000000568
 21
297.0
 31
0.0
  0
LINE
  5
8A
330
1E
100
AcDbEntity
  8
HILF
100
AcDbLine
 10
210.0
 20
297.0000000000001
 30
0.0
 11
0.0
 21
297.0
 31
0.0
  0
LINE
  5
8B
330
1E
100
AcDbEntity
  8
HILF
100
AcDbLine
 10
210.0
 20
0.0
 30
0.0
 11
0.0
 21
0.0
 31
0.0
  0
LINE
  5
8C
330
1E
100
AcDbEntity
  8
HILF
100
AcDbLine
 10
15.54383567856928
 20
148.5
 30
0.0
 11
0.0000000000000568
 21
148.5
 31
0.0
  0
TEXT
  5
8D
330
1E
100
AcDbEntity
  8
TEXT
100
AcDbText
 10
69.31105491105199
 20
36.57012735575833
 30
0.0
 40
2.0
  1
2011
 41
0.8
  7
GREEKS
100
AcDbText
  0
LINE
  5
8E
330
1E
100
AcDbEntity
  8
HILF
100
AcDbLine
 10
210.0
 20
-0.0000000000000568
 30
0.0
 11
210.0
 21
297.0
 31
0.0
  0
TEXT
  5
8F
330
1E
100
AcDbEntity
  8
VOLL
100
AcDbText
 10
78.07675471698113
 20
31.02594776470585
 30
0.0
 40
1.8
  1

  7
GREEKS
100
AcDbText
  0
TEXT
  5
90
330
1E
100
AcDbEntity
  8
TEXT
100
AcDbText
 10
20.92754975488837
 20
55.83599999999997
 30
0.0
 40
2.5
  1
Erstellt mit AUTOCAD 2004
 41
0.8
  7
GREEKS
100
AcDbText
  0
TEXT
  5
91
330
1E
100
AcDbEntity
  8
TEXT
100
AcDbText
 10
97.21080242906285
 20
31.54481959861755
 30
0.0
 40
2.0
  1
Koeh
 41
0.8
  7
GREEKS
 72
     1
 11
99.83937385763429
 21
31.54481959861755
 31
0.0
100
AcDbText
  0
TEXT
  5
92
330
1E
100
AcDbEntity
  8
TEXT
 62
     1
100
AcDbText
 10
173.2721026169866
 20
44.07450714456979
 30
0.0
 40
3.5
  1
00705040W
 41
0.8
  7
GREEKS
 72
     1
 11
185.2721026169866
 21
44.07450714456979
 31
0.0
100
AcDbText
  0
TEXT
  5
93
330
1E
100
AcDbEntity
  8
TEXT
 62
     1
100
AcDbText
 10
75.25031532409435
 20
44.07450714456979
 30
0.0
 40
3.5
  1
1:1
 41
0.8
  7
GREEKS
100
AcDbText
  0
TEXT
  5
94
330
1E
100
AcDbEntity
  8
TEXT
100
AcDbText
 10
80.35187950649897
 20
31.55382520412866
 30
0.0
 40
2.0
  1
01.04.
 41
0.8
  7
GREEKS
 72
     1
 11
83.70426045887993
 21
31.55382520412866
 31
0.0
100
AcDbText
  0
TEXT
  5
95
330
1E
100
AcDbEntity
  8
TEXT
 62
     1
100
AcDbText
 10
113.4467865528701
 20
43.70874394626889
 30
0.0
 40
3.5
  1
Anschlußstück DN40
 41
0.8
  7
GREEKS
100
AcDbText
  0
TEXT
  5
96
330
1E
100
AcDbEntity
  8
TEXT
100
AcDbText
 10
112.5648195562657
 20
35.75167208792644
 30
0.0
 40
2.5
  1
mit Gewinde R1 1/4
 41
0.8
  7
GREEKS
100
AcDbText
  0
TEXT
  5
98
330
1E
100
AcDbEntity
  8
TEXT
100
AcDbText
 10
112.5648195562657
 20
25.82005971521079
 30
0.0
 40
2.5
  1
EDV-Art.Nr. 00705.040X
 41
0.8
  7
GREEKS
100
AcDbText
  0
TEXT
  5
99
330
1E
100
AcDbEntity
  8
TEXT
100
AcDbText
 10
112.4918750788913
 20
21.31487076511316
 30
0.0
 40
2.0
  1
00705040W.DWG
 41
0.8
  7
GREEKS
100
AcDbText
  0
TEXT
  5
9A
330
1E
100
AcDbEntity
  8
TEXT
100
AcDbText
 10
91.31306610404202
 20
45.38181920511511
 30
0.0
 40
2.0
  1
DIN EN1123-2
 41
0.8
  7
GREEKS
 72
     1
 11
99.80830419928011
 21
45.38181920511511
 31
0.0
100
AcDbText
  0
INSERT
  5
9B
330
1E
100
AcDbEntity
  8
STEMPEL
100
AcDbBlockReference
  2
LOGO
 10
70.4977742728897
 20
22.51052638224161
 30
0.0
  0
TEXT
  5
118
330
1E
100
AcDbEntity
  8
TEXT
100
AcDbText
 10
208.6511461928583
 20
5.083950539994247
 30
0.0
 40
2.0
  1
Diese Zeichnung ist urheberrechtlich geschützt und bleibt unser Eigentum. Sie darf weder ganz noch teilweise verfielfältigt und nicht an Dritte weitergegeben werden.
 50
90.0
 41
0.8
  7
GREEKS
100
AcDbText
  0
TEXT
  5
AC4
330
1E
100
AcDbEntity
  8
TEXT
100
AcDbText
 10
112.5648195562657
 20
30.75167208792646
 30
0.0
 40
2.5
  1
und Muffe DN40
 41
0.8
  7
GREEKS
100
AcDbText
  0
LINE
  5
D21
330
1E
100
AcDbEntity
  8
STEMPEL
100
AcDbLine
 10
90.00185654783372
 20
236.3482387183619
 30
0.0
 11
88.35239699968155
 21
236.3482387183619
 31
0.0
  0
LINE
  5
D23
102
{ACAD_REACTORS
330
124B
102
}
330
1E
100
AcDbEntity
  8
STEMPEL
100
AcDbLine
 10
133.7
 20
171.3482387183618
 30
0.0
 11
91.29999999999999
 21
171.3482387183618
 31
0.0
  0
LINE
  5
D24
330
1E
100
AcDbEntity
  8
STEMPEL
100
AcDbLine
 10
134.9981434521664
 20
236.3482387183619
 30
0.0
 11
90.00185654783372
 21
236.3482387183619
 31
0.0
  0
DIMENSION
  5
D26
330
1E
100
AcDbEntity
  8
BEM
100
AcDbDimension
  2
*D2
 10
62.89947694083739
 20
171.3482387183619
 30
0.0
 11
59.64947694083736
 21
153.8482387183619
 31
0.0
 70
    32
 71
     5
 42
35.0
  3
Standard
100
AcDbAlignedDimension
 13
92.0
 23
136.3482387183619
 33
0.0
 14
91.50000000000003
 24
171.3482387183618
 34
0.0
 50
90.0
100
AcDbRotatedDimension
1001
ACAD
1000
DSTYLE
1002
{
1070
    41
1040
3.5
1070
    42
1040
1.0
1070
    43
1040
7.0
1070
    44
1040
1.0
1070
    73
1070
     0
1070
    74
1070
     0
1070
    77
1070
     1
1070
    78
1070
     8
1070
    79
1070
     2
1070
   140
1040
3.5
1070
   141
1040
1.5
1070
   146
1040
0.5142857142857144
1070
   147
1040
1.5
1070
   172
1070
     1
1070
   178
1070
     1
1070
   179
1070
     2
1070
   271
1070
     2
1070
   272
1070
     2
1070
   284
1070
     8
1070
   285
1070
     8
1070
   286
1070
     8
1002
}
  0
DIMENSION
  5
D27
330
1E
100
AcDbEntity
  8
BEM
100
AcDbDimension
  2
*D3
 10
71.51303113538225
 20
155.3482387183618
 30
0.0
 11
68.26303113538223
 21
145.8482387183619
 31
0.0
 70
    32
 71
     5
 42
18.99999999999997
  3
Standard
100
AcDbAlignedDimension
 13
92.0
 23
136.3482387183619
 33
0.0
 14
92.00000000000001
 24
155.3482387183618
 34
0.0
 50
90.0
100
AcDbRotatedDimension
1001
ACAD
1000
DSTYLE
1002
{
1070
    41
1040
3.5
1070
    42
1040
1.0
1070
    43
1040
7.0
1070
    44
1040
1.0
1070
    73
1070
     0
1070
    74
1070
     0
1070
    77
1070
     1
1070
    78
1070
     8
1070
    79
1070
     2
1070
   140
1040
3.5
1070
   141
1040
1.5
1070
   146
1040
0.5142857142857144
1070
   147
1040
1.5
1070
   172
1070
     1
1070
   178
1070
     1
1070
   179
1070
     2
1070
   271
1070
     2
1070
   272
1070
     2
1070
   284
1070
     8
1070
   285
1070
     8
1070
   286
1070
     8
1002
}
  0
LINE
  5
D28
330
1E
100
AcDbEntity
  8
HILF
  6
Continuous
100
AcDbLine
 10
133.0
 20
155.348238718363
 30
0.0
 11
91.99999999999999
 21
155.3482387183618
 31
0.0
  0
LINE
  5
D29
330
1E
100
AcDbEntity
  8
HILF
100
AcDbLine
 10
131.975
 20
155.3482387183619
 30
0.0
 11
131.975
 21
136.3482387183619
 31
0.0
  0
LINE
  5
D2A
330
1E
100
AcDbEntity
  8
HILF
100
AcDbLine
 10
93.02500000000001
 20
155.3482387183619
 30
0.0
 11
93.02500000000001
 21
136.3482387183618
 31
0.0
  0
DIMENSION
  5
D2F
330
1E
100
AcDbEntity
  8
BEM
100
AcDbDimension
  2
*D4
 10
133.0
 20
121.7978384636501
 30
0.0
 11
112.5
 21
125.9645051303168
 31
0.0
 70
    32
  1
R1 1/4
 71
     5
 42
41.0
  3
Standard
100
AcDbAlignedDimension
 13
92.0
 23
136.3482387183619
 33
0.0
 14
133.0
 24
136.3482387183619
 34
0.0
100
AcDbRotatedDimension
1001
ACAD
1000
DSTYLE
1002
{
1070
    41
1040
3.5
1070
    42
1040
1.0
1070
    43
1040
7.0
1070
    44
1040
1.0
1070
    73
1070
     0
1070
    74
1070
     0
1070
    77
1070
     1
1070
    78
1070
     8
1070
    79
1070
     2
1070
   140
1040
3.5
1070
   141
1040
1.5
1070
   146
1040
0.5142857142857144
1070
   147
1040
1.5
1070
   172
1070
     1
1070
   178
1070
     1
1070
   179
1070
     2
1070
   271
1070
     2
1070
   272
1070
     2
1070
   284
1070
     8
1070
   285
1070
     8
1070
   286
1070
     8
1002
}
  0
DIMENSION
  5
D30
330
1E
100
AcDbEntity
  8
BEM
100
AcDbDimension
  2
*D5
 10
54.12483730226329
 20
136.3482387183619
 30
0.0
 11
50.87483730226328
 21
186.3482387183619
 31
0.0
 70
    32
 71
     5
 42
100.0
  3
Standard
100
AcDbAlignedDimension
 13
88.35239699968155
 23
236.3482387183619
 33
0.0
 14
92.0
 24
136.3482387183619
 34
0.0
 50
90.0
100
AcDbRotatedDimension
1001
ACAD
1000
DSTYLE
1002
{
1070
    41
1040
3.5
1070
    42
1040
1.0
1070
    43
1040
7.0
1070
    44
1040
1.0
1070
    73
1070
     0
1070
    74
1070
     0
1070
    77
1070
     1
1070
    78
1070
     8
1070
    79
1070
     2
1070
   140
1040
3.5
1070
   141
1040
1.5
1070
   146
1040
0.5142857142857144
1070
   147
1040
1.5
1070
   172
1070
     1
1070
   178
1070
     1
1070
   179
1070
     2
1070
   271
1070
     2
1070
   272
1070
     2
1070
   284
1070
     8
1070
   285
1070
     8
1070
   286
1070
     8
1002
}
  0
DIMENSION
  5
D31
330
1E
100
AcDbEntity
  8
BEM
100
AcDbDimension
  2
*D6
 10
62.84554123994751
 20
171.3482387183619
 30
0.0
 11
59.59554123994749
 21
203.8482387183619
 31
0.0
 70
    32
 71
     5
 42
65.0
  3
Standard
100
AcDbAlignedDimension
 13
88.35239699968155
 23
236.3482387183619
 33
0.0
 14
91.50000000000003
 24
171.3482387183618
 34
0.0
 50
90.0
100
AcDbRotatedDimension
1001
ACAD
1000
DSTYLE
1002
{
1070
    41
1040
3.5
1070
    42
1040
1.0
1070
    43
1040
7.0
1070
    44
1040
1.0
1070
    73
1070
     0
1070
    74
1070
     0
1070
    77
1070
     1
1070
    78
1070
     8
1070
    79
1070
     2
1070
   140
1040
3.5
1070
   141
1040
1.5
1070
   146
1040
0.5142857142857144
1070
   147
1040
1.5
1070
   172
1070
     1
1070
   178
1070
     1
1070
   179
1070
     2
1070
   271
1070
     2
1070
   272
1070
     2
1070
   284
1070
     8
1070
   285
1070
     8
1070
   286
1070
     8
1002
}
  0
DIMENSION
  5
D32
330
1E
100
AcDbEntity
  8
BEM
100
AcDbDimension
  2
*D7
 10
71.56624517763173
 20
176.3482387183618
 30
0.0
 11
68.3162451776317
 21
206.3482387183619
 31
0.0
 70
    32
 71
     5
 42
60.0
  3
Standard
100
AcDbAlignedDimension
 13
88.35239699968155
 23
236.3482387183619
 33
0.0
 14
89.73929226603237
 24
176.3482387183618
 34
0.0
 50
90.0
100
AcDbRotatedDimension
1001
ACAD
1000
DSTYLE
1002
{
1070
    41
1040
3.5
1070
    42
1040
1.0
1070
    43
1040
7.0
1070
    44
1040
1.0
1070
    73
1070
     0
1070
    74
1070
     0
1070
    77
1070
     1
1070
    78
1070
     8
1070
    79
1070
     2
1070
   140
1040
3.5
1070
   141
1040
1.5
1070
   146
1040
0.5142857142857144
1070
   147
1040
1.5
1070
   172
1070
     1
1070
   178
1070
     1
1070
   179
1070
     2
1070
   271
1070
     2
1070
   272
1070
     2
1070
   284
1070
     8
1070
   285
1070
     8
1070
   286
1070
     8
1002
}
  0
DIMENSION
  5
D33
330
1E
100
AcDbEntity
  8
BEM
100
AcDbDimension
  2
*D8
 10
80.28694911531594
 20
220.3482387183619
 30
0.0
 11
77.03694911531592
 21
228.3482387183619
 31
0.0
 70
    32
 71
     5
 42
16.0
  3
Standard
100
AcDbAlignedDimension
 13
88.35239699968155
 23
236.3482387183619
 33
0.0
 14
87.48274856249757
 24
220.3482387183619
 34
0.0
 50
90.0
100
AcDbRotatedDimension
1001
ACAD
1000
DSTYLE
1002
{
1070
    41
1040
3.5
1070
    42
1040
1.0
1070
    43
1040
7.0
1070
    44
1040
1.0
1070
    73
1070
     0
1070
    74
1070
     0
1070
    77
1070
     1
1070
    78
1070
     8
1070
    79
1070
     2
1070
   140
1040
3.5
1070
   141
1040
1.5
1070
   146
1040
0.5142857142857144
1070
   147
1040
1.5
1070
   172
1070
     1
1070
   178
1070
     1
1070
   179
1070
     2
1070
   271
1070
     2
1070
   272
1070
     2
1070
   284
1070
     8
1070
   285
1070
     8
1070
   286
1070
     8
1002
}
  0
LINE
  5
D49
330
1E
100
AcDbEntity
  8
STEMPEL
100
AcDbLine
 10
133.0
 20
136.3482387183619
 30
0.0
 11
92.0
 21
136.3482387183619
 31
0.0
  0
ARC
  5
D4A
330
1E
100
AcDbEntity
  8
STEMPEL
100
AcDbCircle
 10
121.5000000000001
 20
229.8060583979534
 30
0.0
 40
16.5
100
AcDbArc
 50
0.0
 51
23.35929454464026
  0
LINE
  5
D4B
330
1E
100
AcDbEntity
  8
STEMPEL
100
AcDbLine
 10
137.9998448162654
 20
224.7152387183618
 30
0.0
 11
138.0000000000001
 21
224.7152387183618
 31
0.0
  0
ARC
  5
D4C
330
1E
100
AcDbEntity
  8
STEMPEL
100
AcDbCircle
 10
118.0
 20
224.7152387183619
 30
0.0
 40
19.99984481626531
100
AcDbArc
 50
341.8060294016151
 51
0.0
  0
LINE
  5
D4D
330
1E
100
AcDbEntity
  8
STEMPEL
100
AcDbLine
 10
138.0000000000001
 20
229.8060583979534
 30
0.0
 11
138.0
 21
224.7152387183618
 31
0.0
  0
LINE
  5
D4E
330
1E
100
AcDbEntity
  8
STEMPEL
100
AcDbLine
 10
136.5000000000001
 20
215.3482387183618
 30
0.0
 11
136.5000000000001
 21
181.1700640988583
 31
0.0
  0
ARC
  5
D4F
330
1E
100
AcDbEntity
  8
STEMPEL
100
AcDbCircle
 10
126.5000000000001
 20
181.1700640988583
 30
0.0
 40
10.0
100
AcDbArc
 50
324.3409123038619
 51
0.0
  0
ARC
  5
D50
102
{ACAD_REACTORS
330
124B
102
}
330
1E
100
AcDbEntity
  8
STEMPEL
100
AcDbCircle
 10
139.5000000000001
 20
171.8426850457695
 30
0.0
 40
6.0
100
AcDbArc
 50
144.3409123038611
 51
180.0
  0
ARC
  5
D51
330
1E
100
AcDbEntity
  8
STEMPEL
100
AcDbCircle
 10
146.5000000000001
 20
215.3482387183618
 30
0.0
 40
10.0
100
AcDbArc
 50
161.8060294016151
 51
180.0
  0
LINE
  5
D52
102
{ACAD_REACTORS
330
124B
102
}
330
1E
100
AcDbEntity
  8
STEMPEL
100
AcDbLine
 10
133.5000000000001
 20
171.8426850457695
 30
0.0
 11
133.5000000000001
 21
171.3482387183618
 31
0.0
  0
ARC
  5
D53
330
1E
100
AcDbEntity
  8
STEMPEL
100
AcDbCircle
 10
103.5
 20
229.8060583979534
 30
0.0
 40
16.5
100
AcDbArc
 50
156.6407054553596
 51
180.0
  0
LINE
  5
D54
330
1E
100
AcDbEntity
  8
STEMPEL
100
AcDbLine
 10
87.00015518373474
 20
224.7152387183618
 30
0.0
 11
87.00000000000002
 21
224.7152387183618
 31
0.0
  0
ARC
  5
D55
330
1E
100
AcDbEntity
  8
STEMPEL
100
AcDbCircle
 10
107.0
 20
224.7152387183619
 30
0.0
 40
19.99984481626531
100
AcDbArc
 50
180.0
 51
198.1939705983848
  0
LINE
  5
D56
330
1E
100
AcDbEntity
  8
STEMPEL
100
AcDbLine
 10
87.00000000000002
 20
229.8060583979534
 30
0.0
 11
87.00000000000006
 21
224.7152387183618
 31
0.0
  0
LINE
  5
D57
330
1E
100
AcDbEntity
  8
STEMPEL
100
AcDbLine
 10
88.50000000000003
 20
215.3482387183618
 30
0.0
 11
88.49999999999999
 21
181.1700640988583
 31
0.0
  0
ARC
  5
D58
330
1E
100
AcDbEntity
  8
STEMPEL
100
AcDbCircle
 10
98.50000000000003
 20
181.1700640988583
 30
0.0
 40
10.0
100
AcDbArc
 50
180.0
 51
215.659087696138
  0
ARC
  5
D59
102
{ACAD_REACTORS
330
124B
102
}
330
1E
100
AcDbEntity
  8
STEMPEL
100
AcDbCircle
 10
85.49999999999997
 20
171.8426850457695
 30
0.0
 40
6.0
100
AcDbArc
 50
0.0
 51
35.6590876961389
  0
ARC
  5
D5A
330
1E
100
AcDbEntity
  8
STEMPEL
100
AcDbCircle
 10
78.50000000000003
 20
215.3482387183618
 30
0.0
 40
10.0
100
AcDbArc
 50
0.0
 51
18.19397059838486
  0
LINE
  5
D5B
330
1E
100
AcDbEntity
  8
STEMPEL
100
AcDbLine
 10
136.6476030003186
 20
236.3482387183619
 30
0.0
 11
134.9981434521664
 21
236.3482387183619
 31
0.0
  0
LINE
  5
D5C
102
{ACAD_REACTORS
330
124B
102
}
330
1E
100
AcDbEntity
  8
STEMPEL
100
AcDbLine
 10
91.50000000000003
 20
171.8426850457695
 30
0.0
 11
91.50000000000003
 21
171.3482387183618
 31
0.0
  0
TEXT
  5
EEB
330
1E
100
AcDbEntity
  8
TEXT
 62
     1
100
AcDbText
 10
109.8036402763127
 20
201.4666293474712
 30
0.0
 40
3.5
  1
DN40
 50
90.0
 41
0.8
  7
GREEKS
100
AcDbText
  0
TEXT
  5
EFE
330
1E
100
AcDbEntity
  8
TEXT
 62
     1
100
AcDbText
 10
93.32802422862448
 20
69.90022919477588
 30
0.0
 40
3.5
  1
Werkstoff: E195 EN10305 feuerverzinkt
 41
0.8
  7
GREEKS
100
AcDbText
  0
LINE
  5
F3F
330
1E
100
AcDbEntity
  8
HILF
100
AcDbLine
 10
89.89079653531092
 20
216.9292998465758
 30
0.0
 11
135.1092034646892
 21
216.9292998465757
 31
0.0
  0
LINE
  5
F40
330
1E
100
AcDbEntity
  8
HILF
100
AcDbLine
 10
90.57062423642316
 20
178.1082019203793
 30
0.0
 11
134.4293757635769
 21
178.1082019203793
 31
0.0
  0
LINE
  5
F41
330
1E
100
AcDbEntity
  8
HILF
100
AcDbLine
 10
92.77151978612446
 20
173.6798023528569
 30
0.0
 11
132.2284802138756
 21
173.6798023528569
 31
0.0
  0
LINE
  5
1118
330
1E
100
AcDbEntity
  8
MITTEL
100
AcDbLine
 10
112.5
 20
241.3482387183622
 30
0.0
 11
112.5
 21
131.3482387183618
 31
0.0
  0
ARC
  5
1137
102
{ACAD_REACTORS
330
124B
102
}
330
1E
100
AcDbEntity
  8
SCHRAFF
100
AcDbCircle
 10
93.05136442912836
 20
171.2931932373909
 30
0.0
 40
3.426373371768694
100
AcDbArc
 50
125.427637143505
 51
252.1308214551661
  0
ARC
  5
1142
102
{ACAD_REACTORS
330
124B
102
}
330
1E
100
AcDbEntity
  8
SCHRAFF
100
AcDbCircle
 10
131.9486355708716
 20
171.2931932373909
 30
0.0
 40
3.426373371768694
100
AcDbArc
 50
287.8691785448339
 51
54.57236285649368
  0
LINE
  5
11BF
102
{ACAD_REACTORS
330
124B
102
}
330
1E
100
AcDbEntity
  8
STEMPEL
100
AcDbLine
 10
92.00000000000001
 20
171.3482387183619
 30
0.0
 11
92.0
 21
136.3482387183619
 31
0.0
  0
LINE
  5
11C0
102
{ACAD_REACTORS
330
124B
102
}
330
1E
100
AcDbEntity
  8
STEMPEL
100
AcDbLine
 10
133.0
 20
171.3482387183618
 30
0.0
 11
133.0
 21
136.3482387183619
 31
0.0
  0
HATCH
  5
124B
330
1E
100
AcDbEntity
  8
SCHRAFF
100
AcDbHatch
 10
0.0
 20
0.0
 30
0.0
210
0.0
220
0.0
230
1.0
  2
_USER
 70
     0
 71
     1
 91
        2
 92
        7
 72
     1
 73
     1
 93
        5
 10
133.0
 20
171.3482387183618
 42
0.0
 10
133.0
 20
168.0321094727616
 42
0.6170291648671192
 10
133.9348161199848
 20
174.0851676837442
 42
0.0960552018317794
 10
133.5000000000001
 20
171.8426850457696
 42
0.0
 10
133.5000000000001
 20
171.3482387183618
 42
0.0
 97
        5
330
D50
330
D52
330
D23
330
11C0
330
1142
 92
        7
 72
     1
 73
     1
 93
        5
 10
91.50000000000005
 20
171.3482387183618
 42
0.0
 10
91.50000000000003
 20
171.8426850457695
 42
0.0960552018317871
 10
91.06518388001523
 20
174.0851676837443
 42
0.6170291648671405
 10
92.00000000000001
 20
168.0321094727615
 42
0.0
 10
92.00000000000001
 20
171.3482387183618
 42
0.0
 97
        5
330
D59
330
1137
330
11BF
330
D23
330
D5C
 75
     0
 76
     0
 52
0.0
 41
0.1
 77
     0
 78
     1
 53
0.0
 43
-6.53685461277837
 44
0.0
 45
0.0
 46
0.1
 79
     0
 47
0.2011809593495284
 98
        2
 10
134.2478097062344
 20
171.245013166351
 10
91.16916304427105
 20
171.6473751277038
  0
ARC
  5
128F
330
1E
100
AcDbEntity
  8
SCHRAFF
100
AcDbCircle
 10
90.42839873721028
 20
171.0321094727616
 30
0.0
 40
5.0
100
AcDbArc
 50
323.1301023541561
 51
37.63374182831846
  0
ARC
  5
1290
330
1E
100
AcDbEntity
  8
SCHRAFF
100
AcDbCircle
 10
95.42839873721028
 20
171.0321094727616
 30
0.0
 40
5.0
100
AcDbArc
 50
323.1301023541561
 51
37.63374182831846
  0
ARC
  5
1291
330
1E
100
AcDbEntity
  8
SCHRAFF
100
AcDbCircle
 10
105.4283987372103
 20
171.0321094727616
 30
0.0
 40
5.0
100
AcDbArc
 50
323.1301023541561
 51
37.63374182831846
  0
ARC
  5
1292
330
1E
100
AcDbEntity
  8
SCHRAFF
100
AcDbCircle
 10
100.4283987372103
 20
171.0321094727616
 30
0.0
 40
5.0
100
AcDbArc
 50
323.1301023541561
 51
37.63374182831846
  0
ARC
  5
1293
330
1E
100
AcDbEntity
  8
SCHRAFF
100
AcDbCircle
 10
120.4283987372102
 20
171.0321094727616
 30
0.0
 40
5.0
100
AcDbArc
 50
323.1301023541561
 51
37.63374182831846
  0
ARC
  5
1294
330
1E
100
AcDbEntity
  8
SCHRAFF
100
AcDbCircle
 10
125.4283987372103
 20
171.0321094727616
 30
0.0
 40
5.0
100
AcDbArc
 50
323.1301023541561
 51
37.63374182831846
  0
ARC
  5
1295
330
1E
100
AcDbEntity
  8
SCHRAFF
100
AcDbCircle
 10
115.4283987372103
 20
171.0321094727616
 30
0.0
 40
5.0
100
AcDbArc
 50
323.1301023541561
 51
37.63374182831846
  0
ARC
  5
1296
330
1E
100
AcDbEntity
  8
SCHRAFF
100
AcDbCircle
 10
110.4283987372103
 20
171.0321094727616
 30
0.0
 40
5.0
100
AcDbArc
 50
323.1301023541561
 51
37.63374182831846
  0
ENDSEC
  0
SECTION
  2
OBJECTS
  0
DICTIONARY
  5
C
330
0
100
AcDbDictionary
281
     1
  3
ACAD_COLOR
350
DF
  3
ACAD_GROUP
350
D
  3
ACAD_LAYOUT
350
19
  3
ACAD_MATERIAL
350
DE
  3
ACAD_MLINESTYLE
350
16
  3
ACAD_PLOTSETTINGS
350
18
  3
ACAD_PLOTSTYLENAME
350
E
  3
AcDbVariableDictionary
350
EA
  0
DICTIONARY
  5
A0
330
1E
100
AcDbDictionary
280
     1
281
     1
  3
ACAD_LAYOUTSELFREF
360
D4
  0
DICTIONARY
  5
A2
330
1A
100
AcDbDictionary
280
     1
281
     1
  3
ACAD_LAYOUTSELFREF
360
D3
  0
DICTIONARY
  5
DF
102
{ACAD_REACTORS
330
C
102
}
330
C
100
AcDbDictionary
281
     1
  0
DICTIONARY
  5
D
102
{ACAD_REACTORS
330
C
102
}
330
C
100
AcDbDictionary
281
     1
  0
DICTIONARY
  5
19
102
{ACAD_REACTORS
330
C
102
}
330
C
100
AcDbDictionary
281
     1
  3
Layout1
350
1D
  3
Model
350
21
  0
DICTIONARY
  5
DE
102
{ACAD_REACTORS
330
C
102
}
330
C
100
AcDbDictionary
281
     1
  0
DICTIONARY
  5
16
102
{ACAD_REACTORS
330
C
102
}
330
C
100
AcDbDictionary
281
     1
  3
Standard
350
17
  0
DICTIONARY
  5
18
102
{ACAD_REACTORS
330
C
102
}
330
C
100
AcDbDictionary
281
     1
  0
ACDBDICTIONARYWDFLT
  5
E
102
{ACAD_REACTORS
330
C
102
}
330
C
100
AcDbDictionary
281
     1
  3
Normal
350
F
100
AcDbDictionaryWithDefault
340
F
  0
DICTIONARY
  5
EA
102
{ACAD_REACTORS
330
C
102
}
330
C
100
AcDbDictionary
281
     1
  3
DIMASSOC
350
EB
  3
PROJECTNAME
350
EC
  0
XRECORD
  5
D4
102
{ACAD_REACTORS
330
A0
102
}
330
A0
100
AcDbXrecord
280
     1
340
1E
  0
XRECORD
  5
D3
102
{ACAD_REACTORS
330
A2
102
}
330
A2
100
AcDbXrecord
280
     1
340
1A
  0
LAYOUT
  5
1D
102
{ACAD_REACTORS
330
19
102
}
330
19
100
AcDbPlotSettings
  1

  2
\\NT_WORK01\HP LaserJet 5000 PCL 6
  4

  6

 40
0.0
 41
0.0
 42
0.0
 43
0.0
 44
0.0
 45
0.0
 46
0.0
 47
0.0
 48
0.0
 49
0.0
140
0.0
141
0.0
142
1.0
143
1.0
 70
   688
 72
     0
 73
     0
 74
     5
  7

 75
    16
147
1.0
 76
     0
 77
     2
 78
   300
148
0.0
149
0.0
100
AcDbLayout
  1
Layout1
 70
     0
 71
     1
 10
0.0
 20
0.0
 11
12.0
 21
9.0
 12
0.0
 22
0.0
 32
0.0
 14
1.000000000000000E+20
 24
1.000000000000000E+20
 34
1.000000000000000E+20
 15
-1.000000000000000E+20
 25
-1.000000000000000E+20
 35
-1.000000000000000E+20
146
0.0
 13
0.0
 23
0.0
 33
0.0
 16
1.0
 26
0.0
 36
0.0
 17
0.0
 27
1.0
 37
0.0
 76
     0
330
1A
  0
LAYOUT
  5
21
102
{ACAD_REACTORS
330
19
102
}
330
19
100
AcDbPlotSettings
  1

  2
none_device
  4
Letter_(8.50_x_11.00_Inches)
  6

 40
6.349999904632568
 41
6.349999904632568
 42
6.350006103515625
 43
6.350006103515625
 44
215.8999938964844
 45
279.3999938964844
 46
0.0
 47
0.0
 48
0.0
 49
0.0
140
0.0
141
0.0
142
1.0
143
1.0
 70
 11952
 72
     0
 73
     1
 74
     0
  7

 75
     0
147
1.0
 76
     0
 77
     2
 78
   300
148
-104.9980050966159
149
47.27120666360439
100
AcDbLayout
  1
Model
 70
     1
 71
     0
 10
0.0
 20
0.0
 11
12.0
 21
9.0
 12
0.0
 22
0.0
 32
0.0
 14
0.0
 24
0.0
 34
0.0
 15
0.0
 25
0.0
 35
0.0
146
0.0
 13
0.0
 23
0.0
 33
0.0
 16
1.0
 26
0.0
 36
0.0
 17
0.0
 27
1.0
 37
0.0
 76
     0
330
1E
  0
MLINESTYLE
  5
17
102
{ACAD_REACTORS
330
16
102
}
330
16
100
AcDbMlineStyle
  2
STANDARD
 70
     0
  3

 62
   256
 51
90.0
 52
90.0
 71
     2
 49
0.5
 62
   256
  6
BYLAYER
 49
-0.5
 62
   256
  6
BYLAYER
  0
ACDBPLACEHOLDER
  5
F
102
{ACAD_REACTORS
330
E
102
}
330
E
  0
DICTIONARYVAR
  5
EB
102
{ACAD_REACTORS
330
EA
102
}
330
EA
100
DictionaryVariables
280
     0
  1
1
  0
DICTIONARYVAR
  5
EC
102
{ACAD_REACTORS
330
EA
102
}
330
EA
100
DictionaryVariables
280
     0
  1

  0
ENDSEC
  0
EOF
