  0
SECTION
  2
HEADER
  9
$ACADVER
  1
AC1018
  9
$ACADMAINTVER
 70
     2
  9
$DWGCODEPAGE
  3
ANSI_1252
  9
$INSBASE
 10
0.0
 20
0.0
 30
0.0
  9
$EXTMIN
 10
-0.0064082024694017
 20
-0.0090630292066862
 30
-0.0015258207003583
  9
$EXTMAX
 10
210.006409180358
 20
297.0090644122208
 30
0.0000000349246037
  9
$LIMMIN
 10
0.0
 20
0.0
  9
$LIMMAX
 10
210.0
 20
297.0
  9
$ORTHOMODE
 70
     1
  9
$REGENMODE
 70
     1
  9
$FILLMODE
 70
     1
  9
$QTEXTMODE
 70
     0
  9
$MIRRTEXT
 70
     1
  9
$LTSCALE
 40
10.0
  9
$ATTMODE
 70
     1
  9
$TEXTSIZE
 40
3.5
  9
$TRACEWID
 40
0.5
  9
$TEXTSTYLE
  7
STANDARD
  9
$CLAYER
  8
SCHRAFF
  9
$CELTYPE
  6
ByLayer
  9
$CECOLOR
 62
   256
  9
$CELTSCALE
 40
1.0
  9
$DISPSILH
 70
     0
  9
$DIMSCALE
 40
1.0
  9
$DIMASZ
 40
3.5
  9
$DIMEXO
 40
1.0
  9
$DIMDLI
 40
7.0
  9
$DIMRND
 40
0.0
  9
$DIMDLE
 40
0.0
  9
$DIMEXE
 40
1.0
  9
$DIMTP
 40
0.0
  9
$DIMTM
 40
0.0
  9
$DIMTXT
 40
3.5
  9
$DIMCEN
 40
1.5
  9
$DIMTSZ
 40
0.0
  9
$DIMTOL
 70
     0
  9
$DIMLIM
 70
     0
  9
$DIMTIH
 70
     0
  9
$DIMTOH
 70
     0
  9
$DIMSE1
 70
     0
  9
$DIMSE2
 70
     0
  9
$DIMTAD
 70
     1
  9
$DIMZIN
 70
     8
  9
$DIMBLK
  1

  9
$DIMASO
 70
     1
  9
$DIMSHO
 70
     0
  9
$DIMPOST
  1

  9
$DIMAPOST
  1

  9
$DIMALT
 70
     0
  9
$DIMALTD
 70
     2
  9
$DIMALTF
 40
25.4
  9
$DIMLFAC
 40
1.0
  9
$DIMTOFL
 70
     1
  9
$DIMTVP
 40
0.0
  9
$DIMTIX
 70
     0
  9
$DIMSOXD
 70
     0
  9
$DIMSAH
 70
     0
  9
$DIMBLK1
  1

  9
$DIMBLK2
  1

  9
$DIMSTYLE
  2
Standard
  9
$DIMCLRD
 70
     0
  9
$DIMCLRE
 70
     0
  9
$DIMCLRT
 70
     1
  9
$DIMTFAC
 40
0.5142857142857144
  9
$DIMGAP
 40
1.5
  9
$DIMJUST
 70
     0
  9
$DIMSD1
 70
     0
  9
$DIMSD2
 70
     0
  9
$DIMTOLJ
 70
     1
  9
$DIMTZIN
 70
     8
  9
$DIMALTZ
 70
     8
  9
$DIMALTTZ
 70
     8
  9
$DIMUPT
 70
     0
  9
$DIMDEC
 70
     2
  9
$DIMTDEC
 70
     2
  9
$DIMALTU
 70
     2
  9
$DIMALTTD
 70
     2
  9
$DIMTXSTY
  7
STANDARD
  9
$DIMAUNIT
 70
     0
  9
$DIMADEC
 70
     2
  9
$DIMALTRND
 40
0.0
  9
$DIMAZIN
 70
     2
  9
$DIMDSEP
 70
    46
  9
$DIMATFIT
 70
     3
  9
$DIMFRAC
 70
     0
  9
$DIMLDRBLK
  1

  9
$DIMLUNIT
 70
     2
  9
$DIMLWD
 70
    -2
  9
$DIMLWE
 70
    -2
  9
$DIMTMOVE
 70
     0
  9
$LUNITS
 70
     2
  9
$LUPREC
 70
     2
  9
$SKETCHINC
 40
1.0
  9
$FILLETRAD
 40
8.0
  9
$AUNITS
 70
     0
  9
$AUPREC
 70
     0
  9
$MENU
  1
ACAD
  9
$ELEVATION
 40
0.0
  9
$PELEVATION
 40
0.0
  9
$THICKNESS
 40
0.0
  9
$LIMCHECK
 70
     0
  9
$CHAMFERA
 40
0.0
  9
$CHAMFERB
 40
0.0
  9
$CHAMFERC
 40
0.0
  9
$CHAMFERD
 40
0.0
  9
$SKPOLY
 70
     0
  9
$TDCREATE
 40
2455397.864709028
  9
$TDUCREATE
 40
2455397.781375695
  9
$TDUPDATE
 40
2455653.555692176
  9
$TDUUPDATE
 40
2455653.472358843
  9
$TDINDWG
 40
0.0457030440
  9
$TDUSRTIMER
 40
0.0457030440
  9
$USRTIMER
 70
     1
  9
$ANGBASE
 50
0.0
  9
$ANGDIR
 70
     0
  9
$PDMODE
 70
     0
  9
$PDSIZE
 40
0.0
  9
$PLINEWID
 40
0.0
  9
$SPLFRAME
 70
     0
  9
$SPLINETYPE
 70
     6
  9
$SPLINESEGS
 70
     8
  9
$HANDSEED
  5
C1F
  9
$SURFTAB1
 70
     6
  9
$SURFTAB2
 70
     6
  9
$SURFTYPE
 70
     6
  9
$SURFU
 70
     6
  9
$SURFV
 70
     6
  9
$UCSBASE
  2

  9
$UCSNAME
  2

  9
$UCSORG
 10
0.0
 20
0.0
 30
0.0
  9
$UCSXDIR
 10
1.0
 20
0.0
 30
0.0
  9
$UCSYDIR
 10
0.0
 20
1.0
 30
0.0
  9
$UCSORTHOREF
  2

  9
$UCSORTHOVIEW
 70
     0
  9
$UCSORGTOP
 10
0.0
 20
0.0
 30
0.0
  9
$UCSORGBOTTOM
 10
0.0
 20
0.0
 30
0.0
  9
$UCSORGLEFT
 10
0.0
 20
0.0
 30
0.0
  9
$UCSORGRIGHT
 10
0.0
 20
0.0
 30
0.0
  9
$UCSORGFRONT
 10
0.0
 20
0.0
 30
0.0
  9
$UCSORGBACK
 10
0.0
 20
0.0
 30
0.0
  9
$PUCSBASE
  2

  9
$PUCSNAME
  2

  9
$PUCSORG
 10
0.0
 20
0.0
 30
0.0
  9
$PUCSXDIR
 10
1.0
 20
0.0
 30
0.0
  9
$PUCSYDIR
 10
0.0
 20
1.0
 30
0.0
  9
$PUCSORTHOREF
  2

  9
$PUCSORTHOVIEW
 70
     0
  9
$PUCSORGTOP
 10
0.0
 20
0.0
 30
0.0
  9
$PUCSORGBOTTOM
 10
0.0
 20
0.0
 30
0.0
  9
$PUCSORGLEFT
 10
0.0
 20
0.0
 30
0.0
  9
$PUCSORGRIGHT
 10
0.0
 20
0.0
 30
0.0
  9
$PUCSORGFRONT
 10
0.0
 20
0.0
 30
0.0
  9
$PUCSORGBACK
 10
0.0
 20
0.0
 30
0.0
  9
$USERI1
 70
     0
  9
$USERI2
 70
     0
  9
$USERI3
 70
     0
  9
$USERI4
 70
     0
  9
$USERI5
 70
     0
  9
$USERR1
 40
0.0
  9
$USERR2
 40
0.0
  9
$USERR3
 40
0.0
  9
$USERR4
 40
0.0
  9
$USERR5
 40
0.0
  9
$WORLDVIEW
 70
     1
  9
$SHADEDGE
 70
     3
  9
$SHADEDIF
 70
    70
  9
$TILEMODE
 70
     1
  9
$MAXACTVP
 70
    16
  9
$PINSBASE
 10
0.0
 20
0.0
 30
0.0
  9
$PLIMCHECK
 70
     0
  9
$PEXTMIN
 10
1.049999952316284
 20
0.7999999523162842
 30
0.0
  9
$PEXTMAX
 10
9.449999570846555
 20
7.199999570846556
 30
0.0
  9
$PLIMMIN
 10
-0.2500002402958907
 20
-0.2499999962453767
  9
$PLIMMAX
 10
10.74999951940821
 20
8.249999763458731
  9
$UNITMODE
 70
     0
  9
$VISRETAIN
 70
     0
  9
$PLINEGEN
 70
     0
  9
$PSLTSCALE
 70
     0
  9
$TREEDEPTH
 70
  3020
  9
$CMLSTYLE
  2
Standard
  9
$CMLJUST
 70
     0
  9
$CMLSCALE
 40
1.0
  9
$PROXYGRAPHICS
 70
     1
  9
$MEASUREMENT
 70
     0
  9
$CELWEIGHT
370
    -1
  9
$ENDCAPS
280
     0
  9
$JOINSTYLE
280
     0
  9
$LWDISPLAY
290
     0
  9
$INSUNITS
 70
     0
  9
$HYPERLINKBASE
  1

  9
$STYLESHEET
  1
monochrome 1.ctb
  9
$XEDIT
290
     1
  9
$CEPSNTYPE
380
     0
  9
$PSTYLEMODE
290
     1
  9
$FINGERPRINTGUID
  2
{D68B0D02-A558-11D7-B632-000102183313}
  9
$VERSIONGUID
  2
{5AE2A809-D41C-438C-A83D-8DA3576A10CF}
  9
$EXTNAMES
290
     1
  9
$PSVPSCALE
 40
0.0
  9
$OLESTARTUP
290
     0
  9
$SORTENTS
280
   127
  9
$INDEXCTL
280
     0
  9
$HIDETEXT
280
     0
  9
$XCLIPFRAME
290
     0
  9
$HALOGAP
280
     0
  9
$OBSCOLOR
 70
   257
  9
$OBSLTYPE
280
     0
  9
$INTERSECTIONDISPLAY
280
     0
  9
$INTERSECTIONCOLOR
 70
   257
  9
$DIMASSOC
280
     1
  9
$PROJECTNAME
  1

  0
ENDSEC
  0
SECTION
  2
CLASSES
  0
CLASS
  1
ACDBDICTIONARYWDFLT
  2
AcDbDictionaryWithDefault
  3
ObjectDBX Classes
 90
        0
 91
        1
280
     0
281
     0
  0
CLASS
  1
DICTIONARYVAR
  2
AcDbDictionaryVar
  3
ObjectDBX Classes
 90
        0
 91
        2
280
     0
281
     0
  0
ENDSEC
  0
SECTION
  2
TABLES
  0
TABLE
  2
VPORT
  5
8
330
0
100
AcDbSymbolTable
 70
     3
  0
VPORT
  5
C1E
330
8
100
AcDbSymbolTableRecord
100
AcDbViewportTableRecord
  2
*Active
 70
     0
 10
0.0
 20
0.0
 11
1.0
 21
1.0
 12
105.0
 22
148.5
 13
0.0
 23
0.0
 14
1.0
 24
1.0
 15
10.0
 25
10.0
 16
0.0
 26
0.0
 36
1.0
 17
0.0
 27
0.0
 37
0.0
 40
297.0
 41
1.334231805929919
 42
50.0
 43
0.0
 44
0.0
 50
0.0
 51
0.0
 71
     0
 72
  1500
 73
     1
 74
     0
 75
     0
 76
     0
 77
     0
 78
     0
281
     0
 65
     1
110
0.0
120
0.0
130
0.0
111
1.0
121
0.0
131
0.0
112
0.0
122
1.0
132
0.0
 79
     0
146
0.0
  0
ENDTAB
  0
TABLE
  2
LTYPE
  5
5
330
0
100
AcDbSymbolTable
 70
     3
  0
LTYPE
  5
13
330
5
100
AcDbSymbolTableRecord
100
AcDbLinetypeTableRecord
  2
ByBlock
 70
     0
  3

 72
    65
 73
     0
 40
0.0
  0
LTYPE
  5
14
330
5
100
AcDbSymbolTableRecord
100
AcDbLinetypeTableRecord
  2
ByLayer
 70
     0
  3

 72
    65
 73
     0
 40
0.0
  0
LTYPE
  5
15
330
5
100
AcDbSymbolTableRecord
100
AcDbLinetypeTableRecord
  2
Continuous
 70
     0
  3
Solid line
 72
    65
 73
     0
 40
0.0
  0
LTYPE
  5
25
330
5
100
AcDbSymbolTableRecord
100
AcDbLinetypeTableRecord
  2
STRICHPUNKT
 70
     0
  3
__ . __ . __ . __ . __ . __ . __ . __ . __ . __
 72
    65
 73
     4
 40
1.0
 49
0.5
 74
     0
 49
-0.25
 74
     0
 49
0.0
 74
     0
 49
-0.25
 74
     0
  0
LTYPE
  5
32
330
5
100
AcDbSymbolTableRecord
100
AcDbLinetypeTableRecord
  2
AUSGEZOGEN
 70
     0
  3
Ausgezogene Linie
 72
    65
 73
     0
 40
0.0
  0
ENDTAB
  0
TABLE
  2
LAYER
  5
2
330
0
100
AcDbSymbolTable
 70
     9
  0
LAYER
  5
10
330
2
100
AcDbSymbolTableRecord
100
AcDbLayerTableRecord
  2
0
 70
     0
 62
     7
  6
Continuous
370
    -3
390
F
  0
LAYER
  5
2A
330
2
100
AcDbSymbolTableRecord
100
AcDbLayerTableRecord
  2
VOLL
 70
     0
 62
     1
  6
Continuous
370
    -3
390
F
  0
LAYER
  5
2B
330
2
100
AcDbSymbolTableRecord
100
AcDbLayerTableRecord
  2
HILF
 70
     0
 62
     2
  6
Continuous
370
    -3
390
F
  0
LAYER
  5
2C
330
2
100
AcDbSymbolTableRecord
100
AcDbLayerTableRecord
  2
MITTEL
 70
     0
 62
     2
  6
STRICHPUNKT
370
    -3
390
F
  0
LAYER
  5
2F
330
2
100
AcDbSymbolTableRecord
100
AcDbLayerTableRecord
  2
BEM
 70
     0
 62
     7
  6
Continuous
370
    -3
390
F
  0
LAYER
  5
30
330
2
100
AcDbSymbolTableRecord
100
AcDbLayerTableRecord
  2
STEMPEL
 70
     0
 62
     3
  6
Continuous
370
    -3
390
F
  0
LAYER
  5
31
330
2
100
AcDbSymbolTableRecord
100
AcDbLayerTableRecord
  2
TEXT
 70
     0
 62
     7
  6
Continuous
370
    -3
390
F
  0
LAYER
  5
274
330
2
100
AcDbSymbolTableRecord
100
AcDbLayerTableRecord
  2
SCHRAFF
 70
     0
 62
     7
  6
AUSGEZOGEN
370
    -3
390
F
  0
LAYER
  5
2E5
330
2
100
AcDbSymbolTableRecord
100
AcDbLayerTableRecord
  2
Defpoints
 70
     0
 62
     7
  6
Continuous
290
     0
370
    -3
390
F
  0
ENDTAB
  0
TABLE
  2
STYLE
  5
3
330
0
100
AcDbSymbolTable
 70
     2
  0
STYLE
  5
11
330
3
100
AcDbSymbolTableRecord
100
AcDbTextStyleTableRecord
  2
STANDARD
 70
     0
 40
0.0
 41
0.8
 50
0.0
 71
     0
 42
3.5
  3
simplex.shx
  4

  0
STYLE
  5
24
330
3
100
AcDbSymbolTableRecord
100
AcDbTextStyleTableRecord
  2
GREEKS
 70
     0
 40
0.0
 41
0.8
 50
0.0
 71
     0
 42
2.5
  3
SIMPLEX.shx
  4

  0
ENDTAB
  0
TABLE
  2
VIEW
  5
6
330
0
100
AcDbSymbolTable
 70
     0
  0
ENDTAB
  0
TABLE
  2
UCS
  5
7
330
0
100
AcDbSymbolTable
 70
     0
  0
ENDTAB
  0
TABLE
  2
APPID
  5
9
330
0
100
AcDbSymbolTable
 70
     1
  0
APPID
  5
12
330
9
100
AcDbSymbolTableRecord
100
AcDbRegAppTableRecord
  2
ACAD
 70
     0
  0
ENDTAB
  0
TABLE
  2
DIMSTYLE
  5
A
330
0
100
AcDbSymbolTable
 70
     1
100
AcDbDimStyleTable
 71
     1
340
9D
  0
DIMSTYLE
105
9D
102
{ACAD_REACTORS
330
9DE
330
9CE
330
9CC
330
9CB
330
9CA
330
9C9
102
}
330
A
100
AcDbSymbolTableRecord
100
AcDbDimStyleTableRecord
  2
Standard
 70
     0
340
11
  0
ENDTAB
  0
TABLE
  2
BLOCK_RECORD
  5
1
330
0
100
AcDbSymbolTable
 70
    10
  0
BLOCK_RECORD
  5
1E
102
{ACAD_XDICTIONARY
360
A0
102
}
330
1
100
AcDbSymbolTableRecord
100
AcDbBlockTableRecord
  2
*Model_Space
340
21
  0
BLOCK_RECORD
  5
1A
102
{ACAD_XDICTIONARY
360
A2
102
}
330
1
100
AcDbSymbolTableRecord
100
AcDbBlockTableRecord
  2
*Paper_Space
340
1D
  0
BLOCK_RECORD
  5
22
330
1
100
AcDbSymbolTableRecord
100
AcDbBlockTableRecord
  2
LOGO
340
0
102
{BLKREFS
331
9B
102
}
  0
BLOCK_RECORD
  5
9F7
330
1
100
AcDbSymbolTableRecord
100
AcDbBlockTableRecord
  2
*D1
340
0
  0
BLOCK_RECORD
  5
A04
330
1
100
AcDbSymbolTableRecord
100
AcDbBlockTableRecord
  2
*D2
340
0
  0
BLOCK_RECORD
  5
A11
330
1
100
AcDbSymbolTableRecord
100
AcDbBlockTableRecord
  2
*D3
340
0
  0
BLOCK_RECORD
  5
A1E
330
1
100
AcDbSymbolTableRecord
100
AcDbBlockTableRecord
  2
*D4
340
0
  0
BLOCK_RECORD
  5
A38
330
1
100
AcDbSymbolTableRecord
100
AcDbBlockTableRecord
  2
*D6
340
0
  0
BLOCK_RECORD
  5
A52
330
1
100
AcDbSymbolTableRecord
100
AcDbBlockTableRecord
  2
*D7
340
0
  0
ENDTAB
  0
ENDSEC
  0
SECTION
  2
BLOCKS
  0
BLOCK
  5
35
330
1E
100
AcDbEntity
  8
0
100
AcDbBlockBegin
  2
*Model_Space
 70
     0
 10
0.0
 20
0.0
 30
0.0
  3
*Model_Space
  1

  0
ENDBLK
  5
36
330
1E
100
AcDbEntity
  8
0
100
AcDbBlockEnd
  0
BLOCK
  5
33
330
1A
100
AcDbEntity
 67
     1
  8
0
100
AcDbBlockBegin
  2
*Paper_Space
 70
     0
 10
0.0
 20
0.0
 30
0.0
  3
*Paper_Space
  1

  0
ENDBLK
  5
34
330
1A
100
AcDbEntity
 67
     1
  8
0
100
AcDbBlockEnd
  0
BLOCK
  5
37
330
22
100
AcDbEntity
  8
0
100
AcDbBlockBegin
  2
LOGO
 70
     0
 10
0.0
 20
0.0
 30
0.0
  3
LOGO
  1

  0
ARC
  5
38
330
22
100
AcDbEntity
  8
0
100
AcDbCircle
 10
11.59973089678112
 20
-9.271599258481501
 30
0.0
 40
4.5
100
AcDbArc
 50
270.0
 51
231.0575587310159
  0
LINE
  5
39
330
22
100
AcDbEntity
  8
0
100
AcDbLine
 10
3.599730896781125
 20
-4.771599258481529
 30
0.0
 11
3.599730896781153
 21
-11.77159925848133
 31
0.0
  0
LINE
  5
3A
330
22
100
AcDbEntity
  8
0
100
AcDbLine
 10
2.599730896781125
 20
-4.771599258481529
 30
0.0
 11
2.599730896781153
 21
-11.77159925848133
 31
0.0
  0
CIRCLE
  5
3B
330
22
100
AcDbEntity
  8
0
100
AcDbCircle
 10
11.59973089678112
 20
-9.271599258481501
 30
0.0
 40
3.5
  0
ARC
  5
3C
330
22
100
AcDbEntity
  8
0
100
AcDbCircle
 10
31.59973089678115
 20
-9.271599258481472
 30
0.0
 40
4.5
100
AcDbArc
 50
270.0
 51
231.0575587310182
  0
LINE
  5
3D
330
22
100
AcDbEntity
  8
0
100
AcDbLine
 10
17.59973089678112
 20
-4.771599258481472
 30
0.0
 11
17.59973089678115
 21
-13.77159925848147
 31
0.0
  0
ARC
  5
3E
330
22
100
AcDbEntity
  8
0
100
AcDbCircle
 10
22.59973089678116
 20
-7.271599258481472
 30
0.0
 40
2.5
100
AcDbArc
 50
293.1161887722295
 51
90.0
  0
CIRCLE
  5
3F
330
22
100
AcDbEntity
  8
0
100
AcDbCircle
 10
31.59973089678115
 20
-9.271599258481472
 30
0.0
 40
3.5
  0
ARC
  5
40
330
22
100
AcDbEntity
  8
0
100
AcDbCircle
 10
4.599730896781153
 20
-11.77159925848133
 30
0.0
 40
1.0
100
AcDbArc
 50
180.0
 51
270.0
  0
ARC
  5
41
330
22
100
AcDbEntity
  8
0
100
AcDbCircle
 10
4.599730896781153
 20
-11.77159925848133
 30
0.0
 40
2.0
100
AcDbArc
 50
179.9999999999992
 51
270.0
  0
LINE
  5
42
330
22
100
AcDbEntity
  8
0
100
AcDbLine
 10
11.59973089678115
 20
-13.77159925848144
 30
0.0
 11
4.599730896781153
 21
-13.77159925848147
 31
0.0
  0
LINE
  5
43
330
22
100
AcDbEntity
  8
0
100
AcDbLine
 10
8.771303772034769
 20
-12.77159925848136
 30
0.0
 11
4.599730896781153
 21
-12.77159925848133
 31
0.0
  0
LINE
  5
44
330
22
100
AcDbEntity
  8
0
100
AcDbLine
 10
31.59973089678115
 20
-13.77159925848147
 30
0.0
 11
23.6715276665056
 21
-13.77159925848144
 31
0.0
  0
LINE
  5
45
330
22
100
AcDbEntity
  8
0
100
AcDbLine
 10
23.56565672307022
 20
-9.51278021337896
 30
0.0
 11
24.4388546544846
 21
-12.77159925848144
 31
0.0
  0
LINE
  5
46
330
22
100
AcDbEntity
  8
0
100
AcDbLine
 10
22.59973089678116
 20
-9.771599258481472
 30
0.0
 11
18.59973089678112
 21
-9.771599258481472
 31
0.0
  0
LINE
  5
47
330
22
100
AcDbEntity
  8
0
100
AcDbLine
 10
18.59973089678115
 20
-13.77159925848144
 30
0.0
 11
17.59973089678115
 21
-13.77159925848144
 31
0.0
  0
LINE
  5
48
330
22
100
AcDbEntity
  8
0
100
AcDbLine
 10
18.59973089678115
 20
-9.771599258481472
 30
0.0
 11
18.59973089678115
 21
-13.77159925848144
 31
0.0
  0
LINE
  5
49
330
22
100
AcDbEntity
  8
0
100
AcDbLine
 10
22.59973089678116
 20
-9.771599258481472
 30
0.0
 11
23.67152766650562
 21
-13.77159925848147
 31
0.0
  0
ARC
  5
4A
330
22
100
AcDbEntity
  8
0
100
AcDbCircle
 10
22.59973089678116
 20
-7.271599258481472
 30
0.0
 40
2.5
100
AcDbArc
 50
270.0
 51
270.0000000000007
  0
LINE
  5
4B
330
22
100
AcDbEntity
  8
0
100
AcDbLine
 10
28.77130377203494
 20
-12.77159925848147
 30
0.0
 11
24.43885465448463
 21
-12.77159925848144
 31
0.0
  0
LINE
  5
4C
330
22
100
AcDbEntity
  8
0
100
AcDbLine
 10
3.599730896781125
 20
-4.771599258481472
 30
0.0
 11
2.599730896781125
 21
-4.771599258481472
 31
0.0
  0
LINE
  5
4D
330
22
100
AcDbEntity
  8
0
100
AcDbLine
 10
22.59973089678116
 20
-8.771599258481472
 30
0.0
 11
18.59973089678115
 21
-8.771599258481472
 31
0.0
  0
LINE
  5
4E
330
22
100
AcDbEntity
  8
0
100
AcDbLine
 10
22.59973089678116
 20
-5.771599258481472
 30
0.0
 11
18.59973089678115
 21
-5.771599258481472
 31
0.0
  0
LINE
  5
4F
330
22
100
AcDbEntity
  8
0
100
AcDbLine
 10
22.59973089678116
 20
-4.771599258481472
 30
0.0
 11
17.59973089678115
 21
-4.771599258481472
 31
0.0
  0
LINE
  5
50
330
22
100
AcDbEntity
  8
0
100
AcDbLine
 10
18.59973089678115
 20
-5.771599258481472
 30
0.0
 11
18.59973089678115
 21
-8.771599258481472
 31
0.0
  0
ARC
  5
51
330
22
100
AcDbEntity
  8
0
100
AcDbCircle
 10
22.59973089678116
 20
-7.271599258481472
 30
0.0
 40
1.5
100
AcDbArc
 50
270.0
 51
90.0
  0
ENDBLK
  5
52
330
22
100
AcDbEntity
  8
0
100
AcDbBlockEnd
  0
BLOCK
  5
A02
330
9F7
100
AcDbEntity
  8
0
100
AcDbBlockBegin
  2
*D1
 70
     1
 10
0.0
 20
0.0
 30
0.0
  3
*D1
  1

  0
LINE
  5
B2B
330
9F7
100
AcDbEntity
  8
BEM
 62
     0
370
    -2
100
AcDbLine
 10
81.99999999999995
 20
251.4551836073138
 30
0.0
 11
57.12575555992534
 21
251.4551836073138
 31
0.0
  0
LINE
  5
B2C
330
9F7
100
AcDbEntity
  8
BEM
 62
     0
370
    -2
100
AcDbLine
 10
85.87488663525922
 20
111.4551836073138
 30
0.0
 11
57.12575555992531
 21
111.4551836073138
 31
0.0
  0
LINE
  5
B2D
330
9F7
100
AcDbEntity
  8
BEM
 62
     0
370
    -2
100
AcDbLine
 10
58.12575555992534
 20
247.9551836073138
 30
0.0
 11
58.12575555992531
 21
114.9551836073138
 31
0.0
  0
SOLID
  5
B2E
330
9F7
100
AcDbEntity
  8
BEM
 62
     0
100
AcDbTrace
 10
57.542422226592
 20
247.9551836073138
 30
0.0
 11
58.70908889325868
 21
247.9551836073138
 31
0.0
 12
58.12575555992534
 22
251.4551836073138
 32
0.0
 13
58.12575555992534
 23
251.4551836073138
 33
0.0
  0
SOLID
  5
B2F
330
9F7
100
AcDbEntity
  8
BEM
 62
     0
100
AcDbTrace
 10
57.54242222659198
 20
114.9551836073138
 30
0.0
 11
58.70908889325865
 21
114.9551836073138
 31
0.0
 12
58.1257555599253
 22
111.4551836073138
 32
0.0
 13
58.1257555599253
 23
111.4551836073138
 33
0.0
  0
MTEXT
  5
B30
330
9F7
100
AcDbEntity
  8
BEM
 62
     1
100
AcDbMText
 10
54.8757555599253
 20
181.4551836073137
 30
0.0
 40
3.5
 41
0.0
 71
     5
 72
     1
  1
\A1;140
 11
0.0000000000000001
 21
1.0
 31
0.0
 73
     1
 44
1.0
  0
POINT
  5
B31
330
9F7
100
AcDbEntity
  8
Defpoints
 62
     0
100
AcDbPoint
 10
82.99999999999995
 20
251.4551836073138
 30
0.0
  0
POINT
  5
B32
330
9F7
100
AcDbEntity
  8
Defpoints
 62
     0
100
AcDbPoint
 10
86.87488663525922
 20
111.4551836073138
 30
0.0
  0
POINT
  5
B33
330
9F7
100
AcDbEntity
  8
Defpoints
 62
     0
100
AcDbPoint
 10
58.1257555599253
 20
111.4551836073138
 30
0.0
  0
ENDBLK
  5
A03
330
9F7
100
AcDbEntity
  8
0
100
AcDbBlockEnd
  0
BLOCK
  5
A0F
330
A04
100
AcDbEntity
  8
0
100
AcDbBlockBegin
  2
*D2
 70
     1
 10
0.0
 20
0.0
 30
0.0
  3
*D2
  1

  0
LINE
  5
B22
330
A04
100
AcDbEntity
  8
BEM
 62
     0
370
    -2
100
AcDbLine
 10
81.99999999999997
 20
216.4551836073138
 30
0.0
 11
65.60261386037812
 21
216.4551836073138
 31
0.0
  0
LINE
  5
B23
330
A04
100
AcDbEntity
  8
BEM
 62
     0
370
    -2
100
AcDbLine
 10
85.87488663525922
 20
111.4551836073138
 30
0.0
 11
65.6026138603781
 21
111.4551836073138
 31
0.0
  0
LINE
  5
B24
330
A04
100
AcDbEntity
  8
BEM
 62
     0
370
    -2
100
AcDbLine
 10
66.60261386037811
 20
212.9551836073138
 30
0.0
 11
66.60261386037809
 21
114.9551836073138
 31
0.0
  0
SOLID
  5
B25
330
A04
100
AcDbEntity
  8
BEM
 62
     0
100
AcDbTrace
 10
66.01928052704479
 20
212.9551836073138
 30
0.0
 11
67.18594719371144
 21
212.9551836073138
 31
0.0
 12
66.60261386037811
 22
216.4551836073138
 32
0.0
 13
66.60261386037811
 23
216.4551836073138
 33
0.0
  0
SOLID
  5
B26
330
A04
100
AcDbEntity
  8
BEM
 62
     0
100
AcDbTrace
 10
66.01928052704477
 20
114.9551836073138
 30
0.0
 11
67.18594719371143
 21
114.9551836073138
 31
0.0
 12
66.60261386037809
 22
111.4551836073138
 32
0.0
 13
66.60261386037809
 23
111.4551836073138
 33
0.0
  0
MTEXT
  5
B27
330
A04
100
AcDbEntity
  8
BEM
 62
     1
100
AcDbMText
 10
63.35261386037807
 20
163.9551836073137
 30
0.0
 40
3.5
 41
0.0
 71
     5
 72
     1
  1
\A1;105
 11
0.0000000000000001
 21
1.0
 31
0.0
 73
     1
 44
1.0
  0
POINT
  5
B28
330
A04
100
AcDbEntity
  8
Defpoints
 62
     0
100
AcDbPoint
 10
82.99999999999997
 20
216.4551836073138
 30
0.0
  0
POINT
  5
B29
330
A04
100
AcDbEntity
  8
Defpoints
 62
     0
100
AcDbPoint
 10
86.87488663525922
 20
111.4551836073138
 30
0.0
  0
POINT
  5
B2A
330
A04
100
AcDbEntity
  8
Defpoints
 62
     0
100
AcDbPoint
 10
66.60261386037809
 20
111.4551836073138
 30
0.0
  0
ENDBLK
  5
A10
330
A04
100
AcDbEntity
  8
0
100
AcDbBlockEnd
  0
BLOCK
  5
A1C
330
A11
100
AcDbEntity
  8
0
100
AcDbBlockBegin
  2
*D3
 70
     1
 10
0.0
 20
0.0
 30
0.0
  3
*D3
  1

  0
LINE
  5
B34
330
A11
100
AcDbEntity
  8
BEM
 62
     0
370
    -2
100
AcDbLine
 10
81.99999999999995
 20
251.4551836073138
 30
0.0
 11
65.60261386037812
 21
251.4551836073138
 31
0.0
  0
LINE
  5
B35
330
A11
100
AcDbEntity
  8
BEM
 62
     0
370
    -2
100
AcDbLine
 10
81.99999999999997
 20
216.4551836073138
 30
0.0
 11
65.6026138603781
 21
216.4551836073138
 31
0.0
  0
LINE
  5
B36
330
A11
100
AcDbEntity
  8
BEM
 62
     0
370
    -2
100
AcDbLine
 10
66.60261386037811
 20
247.9551836073138
 30
0.0
 11
66.60261386037809
 21
219.9551836073137
 31
0.0
  0
SOLID
  5
B37
330
A11
100
AcDbEntity
  8
BEM
 62
     0
100
AcDbTrace
 10
66.01928052704479
 20
247.9551836073138
 30
0.0
 11
67.18594719371144
 21
247.9551836073138
 31
0.0
 12
66.60261386037811
 22
251.4551836073138
 32
0.0
 13
66.60261386037811
 23
251.4551836073138
 33
0.0
  0
SOLID
  5
B38
330
A11
100
AcDbEntity
  8
BEM
 62
     0
100
AcDbTrace
 10
66.01928052704477
 20
219.9551836073137
 30
0.0
 11
67.18594719371143
 21
219.9551836073137
 31
0.0
 12
66.60261386037809
 22
216.4551836073138
 32
0.0
 13
66.60261386037809
 23
216.4551836073138
 33
0.0
  0
MTEXT
  5
B39
330
A11
100
AcDbEntity
  8
BEM
 62
     1
100
AcDbMText
 10
63.35261386037807
 20
233.9551836073138
 30
0.0
 40
3.5
 41
0.0
 71
     5
 72
     1
  1
\A1;35
 11
0.0000000000000001
 21
1.0
 31
0.0
 73
     1
 44
1.0
  0
POINT
  5
B3A
330
A11
100
AcDbEntity
  8
Defpoints
 62
     0
100
AcDbPoint
 10
82.99999999999995
 20
251.4551836073138
 30
0.0
  0
POINT
  5
B3B
330
A11
100
AcDbEntity
  8
Defpoints
 62
     0
100
AcDbPoint
 10
82.99999999999997
 20
216.4551836073138
 30
0.0
  0
POINT
  5
B3C
330
A11
100
AcDbEntity
  8
Defpoints
 62
     0
100
AcDbPoint
 10
66.60261386037809
 20
216.4551836073138
 30
0.0
  0
ENDBLK
  5
A1D
330
A11
100
AcDbEntity
  8
0
100
AcDbBlockEnd
  0
BLOCK
  5
A29
330
A1E
100
AcDbEntity
  8
0
100
AcDbBlockBegin
  2
*D4
 70
     1
 10
0.0
 20
0.0
 30
0.0
  3
*D4
  1

  0
LINE
  5
AF5
330
A1E
100
AcDbEntity
  8
BEM
 62
     0
370
    -2
100
AcDbLine
 10
81.99999999999995
 20
251.4551836073138
 30
0.0
 11
72.6026138603781
 21
251.4551836073138
 31
0.0
  0
LINE
  5
AF6
330
A1E
100
AcDbEntity
  8
BEM
 62
     0
370
    -2
100
AcDbLine
 10
81.99999999999997
 20
227.4551836073138
 30
0.0
 11
72.6026138603781
 21
227.4551836073138
 31
0.0
  0
LINE
  5
AF7
330
A1E
100
AcDbEntity
  8
BEM
 62
     0
370
    -2
100
AcDbLine
 10
73.6026138603781
 20
247.9551836073138
 30
0.0
 11
73.6026138603781
 21
230.9551836073138
 31
0.0
  0
SOLID
  5
AF8
330
A1E
100
AcDbEntity
  8
BEM
 62
     0
100
AcDbTrace
 10
73.01928052704477
 20
247.9551836073138
 30
0.0
 11
74.18594719371142
 21
247.9551836073138
 31
0.0
 12
73.6026138603781
 22
251.4551836073138
 32
0.0
 13
73.6026138603781
 23
251.4551836073138
 33
0.0
  0
SOLID
  5
AF9
330
A1E
100
AcDbEntity
  8
BEM
 62
     0
100
AcDbTrace
 10
73.01928052704477
 20
230.9551836073138
 30
0.0
 11
74.18594719371142
 21
230.9551836073138
 31
0.0
 12
73.6026138603781
 22
227.4551836073138
 32
0.0
 13
73.6026138603781
 23
227.4551836073138
 33
0.0
  0
MTEXT
  5
AFA
330
A1E
100
AcDbEntity
  8
BEM
 62
     1
100
AcDbMText
 10
70.35261386037806
 20
239.4551836073138
 30
0.0
 40
3.5
 41
0.0
 71
     5
 72
     1
  1
\A1;24
 11
0.0000000000000001
 21
1.0
 31
0.0
 73
     1
 44
1.0
  0
POINT
  5
AFB
330
A1E
100
AcDbEntity
  8
Defpoints
 62
     0
100
AcDbPoint
 10
82.99999999999995
 20
251.4551836073138
 30
0.0
  0
POINT
  5
AFC
330
A1E
100
AcDbEntity
  8
Defpoints
 62
     0
100
AcDbPoint
 10
82.99999999999997
 20
227.4551836073138
 30
0.0
  0
POINT
  5
AFD
330
A1E
100
AcDbEntity
  8
Defpoints
 62
     0
100
AcDbPoint
 10
73.6026138603781
 20
227.4551836073138
 30
0.0
  0
ENDBLK
  5
A2A
330
A1E
100
AcDbEntity
  8
0
100
AcDbBlockEnd
  0
BLOCK
  5
A43
330
A38
100
AcDbEntity
  8
0
100
AcDbBlockBegin
  2
*D6
 70
     1
 10
0.0
 20
0.0
 30
0.0
  3
*D6
  1

  0
LINE
  5
B3D
330
A38
100
AcDbEntity
  8
BEM
 62
     0
370
    -2
100
AcDbLine
 10
82.99999999999995
 20
252.4551836073138
 30
0.0
 11
82.99999999999995
 21
260.206956652749
 31
0.0
  0
LINE
  5
B3E
330
A38
100
AcDbEntity
  8
BEM
 62
     0
370
    -2
100
AcDbLine
 10
141.9999999999999
 20
252.4551836073138
 30
0.0
 11
141.9999999999999
 21
260.206956652749
 31
0.0
  0
LINE
  5
B3F
330
A38
100
AcDbEntity
  8
BEM
 62
     0
370
    -2
100
AcDbLine
 10
86.49999999999996
 20
259.206956652749
 30
0.0
 11
138.4999999999999
 21
259.206956652749
 31
0.0
  0
SOLID
  5
B40
330
A38
100
AcDbEntity
  8
BEM
 62
     0
100
AcDbTrace
 10
86.49999999999996
 20
259.7902899860823
 30
0.0
 11
86.49999999999996
 21
258.6236233194157
 31
0.0
 12
82.99999999999995
 22
259.206956652749
 32
0.0
 13
82.99999999999995
 23
259.206956652749
 33
0.0
  0
SOLID
  5
B41
330
A38
100
AcDbEntity
  8
BEM
 62
     0
100
AcDbTrace
 10
138.4999999999999
 20
259.7902899860823
 30
0.0
 11
138.4999999999999
 21
258.6236233194157
 31
0.0
 12
141.9999999999999
 22
259.206956652749
 32
0.0
 13
141.9999999999999
 23
259.206956652749
 33
0.0
  0
MTEXT
  5
B42
330
A38
100
AcDbEntity
  8
BEM
 62
     1
100
AcDbMText
 10
112.4999999999999
 20
262.456956652749
 30
0.0
 40
3.5
 41
0.0
 71
     5
 72
     1
  1
\A1;R2
 73
     1
 44
1.0
  0
POINT
  5
B43
330
A38
100
AcDbEntity
  8
Defpoints
 62
     0
100
AcDbPoint
 10
82.99999999999995
 20
251.4551836073138
 30
0.0
  0
POINT
  5
B44
330
A38
100
AcDbEntity
  8
Defpoints
 62
     0
100
AcDbPoint
 10
141.9999999999999
 20
251.4551836073138
 30
0.0
  0
POINT
  5
B45
330
A38
100
AcDbEntity
  8
Defpoints
 62
     0
100
AcDbPoint
 10
141.9999999999999
 20
259.206956652749
 30
0.0
  0
ENDBLK
  5
A44
330
A38
100
AcDbEntity
  8
0
100
AcDbBlockEnd
  0
BLOCK
  5
A5D
330
A52
100
AcDbEntity
  8
0
100
AcDbBlockBegin
  2
*D7
 70
     1
 10
0.0
 20
0.0
 30
0.0
  3
*D7
  1

  0
LINE
  5
B19
330
A52
100
AcDbEntity
  8
BEM
 62
     0
370
    -2
100
AcDbLine
 10
85.99999999999997
 20
117.4795613601483
 30
0.0
 11
85.99999999999997
 21
96.82343423851101
 31
0.0
  0
LINE
  5
B1A
330
A52
100
AcDbEntity
  8
BEM
 62
     0
370
    -2
100
AcDbLine
 10
139.0
 20
117.4795613601483
 30
0.0
 11
139.0
 21
96.82343423851101
 31
0.0
  0
LINE
  5
B1B
330
A52
100
AcDbEntity
  8
BEM
 62
     0
370
    -2
100
AcDbLine
 10
89.49999999999997
 20
97.823434238511
 30
0.0
 11
135.5
 21
97.823434238511
 31
0.0
  0
SOLID
  5
B1C
330
A52
100
AcDbEntity
  8
BEM
 62
     0
100
AcDbTrace
 10
89.49999999999997
 20
98.40676757184432
 30
0.0
 11
89.49999999999997
 21
97.24010090517767
 31
0.0
 12
85.99999999999997
 22
97.823434238511
 32
0.0
 13
85.99999999999997
 23
97.823434238511
 33
0.0
  0
SOLID
  5
B1D
330
A52
100
AcDbEntity
  8
BEM
 62
     0
100
AcDbTrace
 10
135.5
 20
98.40676757184432
 30
0.0
 11
135.5
 21
97.24010090517767
 31
0.0
 12
139.0
 22
97.823434238511
 32
0.0
 13
139.0
 23
97.823434238511
 33
0.0
  0
MTEXT
  5
B1E
330
A52
100
AcDbEntity
  8
BEM
 62
     1
100
AcDbMText
 10
112.5
 20
101.073434238511
 30
0.0
 40
3.5
 41
0.0
 71
     5
 72
     1
  1
\A1;%%C53
 73
     1
 44
1.0
  0
POINT
  5
B1F
330
A52
100
AcDbEntity
  8
Defpoints
 62
     0
100
AcDbPoint
 10
85.99999999999997
 20
118.4795613601483
 30
0.0
  0
POINT
  5
B20
330
A52
100
AcDbEntity
  8
Defpoints
 62
     0
100
AcDbPoint
 10
139.0
 20
118.4795613601483
 30
0.0
  0
POINT
  5
B21
330
A52
100
AcDbEntity
  8
Defpoints
 62
     0
100
AcDbPoint
 10
139.0
 20
97.823434238511
 30
0.0
  0
ENDBLK
  5
A5E
330
A52
100
AcDbEntity
  8
0
100
AcDbBlockEnd
  0
ENDSEC
  0
SECTION
  2
ENTITIES
  0
LINE
  5
57
330
1E
100
AcDbEntity
  8
STEMPEL
100
AcDbLine
 10
205.0
 20
55.00000000000003
 30
0.0
 11
19.99999999999998
 21
55.0
 31
0.0
  0
LINE
  5
58
330
1E
100
AcDbEntity
  8
STEMPEL
100
AcDbLine
 10
68.00000000000006
 20
54.99999999999997
 30
0.0
 11
68.0
 21
4.999999999999985
 31
0.0
  0
LINE
  5
59
330
1E
100
AcDbEntity
  8
STEMPEL
100
AcDbLine
 10
110.0
 20
55.00000000000003
 30
0.0
 11
110.0
 21
4.999999999999985
 31
0.0
  0
LINE
  5
5A
330
1E
100
AcDbEntity
  8
STEMPEL
100
AcDbLine
 10
166.0
 20
54.99999999999989
 30
0.0
 11
166.0
 21
20.0
 31
0.0
  0
LINE
  5
5B
330
1E
100
AcDbEntity
  8
STEMPEL
100
AcDbLine
 10
67.99999999999994
 20
14.99999999999998
 30
0.0
 11
19.99999999999998
 21
14.99999999999998
 31
0.0
  0
LINE
  5
5C
330
1E
100
AcDbEntity
  8
STEMPEL
100
AcDbLine
 10
205.0
 20
20.0
 30
0.0
 11
68.00000000000006
 21
19.99999999999998
 31
0.0
  0
LINE
  5
5D
330
1E
100
AcDbEntity
  8
STEMPEL
100
AcDbLine
 10
205.0
 20
40.0
 30
0.0
 11
68.00000000000006
 21
39.99999999999997
 31
0.0
  0
LINE
  5
5E
330
1E
100
AcDbEntity
  8
VOLL
100
AcDbLine
 10
27.00000000000005
 20
55.00000000000003
 30
0.0
 11
26.99999999999999
 21
4.999999999999985
 31
0.0
  0
LINE
  5
5F
330
1E
100
AcDbEntity
  8
VOLL
100
AcDbLine
 10
47.00000000000005
 20
54.99999999999997
 30
0.0
 11
47.0
 21
4.999999999999985
 31
0.0
  0
LINE
  5
60
330
1E
100
AcDbEntity
  8
VOLL
100
AcDbLine
 10
57.00000000000006
 20
54.99999999999997
 30
0.0
 11
57.0
 21
4.999999999999985
 31
0.0
  0
LINE
  5
61
330
1E
100
AcDbEntity
  8
VOLL
100
AcDbLine
 10
77.00000000000006
 20
39.99999999999997
 30
0.0
 11
77.00000000000006
 21
19.99999999999998
 31
0.0
  0
LINE
  5
62
330
1E
100
AcDbEntity
  8
VOLL
100
AcDbLine
 10
90.00000000000005
 20
54.99999999999992
 30
0.0
 11
90.0
 21
19.99999999999998
 31
0.0
  0
LINE
  5
63
330
1E
100
AcDbEntity
  8
HILF
100
AcDbLine
 10
20.00000000000004
 20
50.00000000000003
 30
0.0
 11
68.00000000000006
 21
50.00000000000003
 31
0.0
  0
LINE
  5
64
330
1E
100
AcDbEntity
  8
HILF
100
AcDbLine
 10
20.00000000000004
 20
45.00000000000002
 30
0.0
 11
68.00000000000006
 21
45.00000000000002
 31
0.0
  0
LINE
  5
65
330
1E
100
AcDbEntity
  8
HILF
100
AcDbLine
 10
20.00000000000004
 20
39.99999999999997
 30
0.0
 11
68.00000000000006
 21
39.99999999999997
 31
0.0
  0
LINE
  5
66
330
1E
100
AcDbEntity
  8
HILF
100
AcDbLine
 10
20.00000000000004
 20
34.99999999999997
 30
0.0
 11
68.00000000000006
 21
34.99999999999997
 31
0.0
  0
LINE
  5
67
330
1E
100
AcDbEntity
  8
HILF
100
AcDbLine
 10
20.00000000000004
 20
29.99999999999999
 30
0.0
 11
68.00000000000006
 21
29.99999999999999
 31
0.0
  0
LINE
  5
68
330
1E
100
AcDbEntity
  8
HILF
100
AcDbLine
 10
20.00000000000004
 20
24.99999999999999
 30
0.0
 11
68.00000000000006
 21
24.99999999999999
 31
0.0
  0
LINE
  5
69
330
1E
100
AcDbEntity
  8
HILF
100
AcDbLine
 10
20.00000000000004
 20
19.99999999999998
 30
0.0
 11
68.00000000000006
 21
19.99999999999998
 31
0.0
  0
LINE
  5
6A
330
1E
100
AcDbEntity
  8
HILF
100
AcDbLine
 10
68.00000000000006
 20
34.99999999999997
 30
0.0
 11
110.0
 21
34.99999999999997
 31
0.0
  0
LINE
  5
6B
330
1E
100
AcDbEntity
  8
HILF
100
AcDbLine
 10
68.00000000000006
 20
29.99999999999999
 30
0.0
 11
110.0
 21
29.99999999999999
 31
0.0
  0
LINE
  5
6C
330
1E
100
AcDbEntity
  8
HILF
100
AcDbLine
 10
68.00000000000006
 20
24.99999999999999
 30
0.0
 11
110.0
 21
24.99999999999999
 31
0.0
  0
LINE
  5
6D
330
1E
100
AcDbEntity
  8
HILF
100
AcDbLine
 10
112.3868400548474
 20
42.01879123782069
 30
0.0
 11
162.4176958278155
 21
42.01879123782069
 31
0.0
  0
LINE
  5
6E
330
1E
100
AcDbEntity
  8
HILF
100
AcDbLine
 10
112.3868400548474
 20
34.99999999999997
 30
0.0
 11
162.4176958278155
 21
34.99999999999997
 31
0.0
  0
LINE
  5
6F
330
1E
100
AcDbEntity
  8
HILF
100
AcDbLine
 10
112.3868400548474
 20
29.99999999999999
 30
0.0
 11
162.4176958278155
 21
29.99999999999999
 31
0.0
  0
LINE
  5
70
330
1E
100
AcDbEntity
  8
HILF
100
AcDbLine
 10
112.3868400548474
 20
24.99999999999999
 30
0.0
 11
162.4176958278155
 21
24.99999999999999
 31
0.0
  0
LINE
  5
71
330
1E
100
AcDbEntity
  8
VOLL
100
AcDbLine
 10
166.0
 20
30.0
 30
0.0
 11
205.0
 21
30.0
 31
0.0
  0
LINE
  5
72
330
1E
100
AcDbEntity
  8
HILF
100
AcDbLine
 10
168.3619308148496
 20
41.88991818477913
 30
0.0
 11
202.4294419663364
 21
41.88991818477913
 31
0.0
  0
LINE
  5
73
330
1E
100
AcDbEntity
  8
HILF
100
AcDbLine
 10
111.7454849644942
 20
7.446991290141568
 30
0.0
 11
202.4294419663364
 21
7.446991290141568
 31
0.0
  0
TEXT
  5
74
330
1E
100
AcDbEntity
  8
TEXT
100
AcDbText
 10
32.52401253769288
 20
9.336909474920659
 30
0.0
 40
2.0
  1
Änderung
 41
0.8
  7
GREEKS
 72
     1
 11
37.89544110912145
 21
9.336909474920659
 31
0.0
100
AcDbText
  0
TEXT
  5
75
330
1E
100
AcDbEntity
  8
TEXT
100
AcDbText
 10
71.75817860751886
 20
51.23104475435443
 30
0.0
 40
2.5
  1
Maßstab
 41
0.8
  7
GREEKS
100
AcDbText
  0
TEXT
  5
76
330
1E
100
AcDbEntity
  8
TEXT
100
AcDbText
 10
92.14294773670257
 20
51.20920842174095
 30
0.0
 40
2.5
  1
Zul. Abw.
 41
0.8
  7
GREEKS
100
AcDbText
  0
TEXT
  5
77
330
1E
100
AcDbEntity
  8
TEXT
100
AcDbText
 10
112.4389701904505
 20
51.27446640058898
 30
0.0
 40
2.5
  1
Benennung
 41
0.8
  7
GREEKS
100
AcDbText
  0
TEXT
  5
78
330
1E
100
AcDbEntity
  8
TEXT
100
AcDbText
 10
168.089377478817
 20
51.15660172685682
 30
0.0
 40
2.5
  1
Zeichnungs Nr.
 41
0.8
  7
GREEKS
100
AcDbText
  0
TEXT
  5
79
330
1E
100
AcDbEntity
  8
TEXT
100
AcDbText
 10
112.371119195568
 20
15.42280285096528
 30
0.0
 40
2.5
  1
Bauvorhaben
 41
0.8
  7
GREEKS
100
AcDbText
  0
TEXT
  5
7A
330
1E
100
AcDbEntity
  8
TEXT
100
AcDbText
 10
168.3619308148496
 20
36.59059118549985
 30
0.0
 40
2.5
  1
Ersatz für:
 41
0.8
  7
GREEKS
100
AcDbText
  0
TEXT
  5
7B
330
1E
100
AcDbEntity
  8
TEXT
100
AcDbText
 10
24.13320553522878
 20
6.827329230135958
 30
0.0
 40
2.0
  1
Index
 50
90.0
 41
0.8
  7
GREEKS
100
AcDbText
  0
TEXT
  5
7C
330
1E
100
AcDbEntity
  8
TEXT
100
AcDbText
 10
49.79989095693829
 20
9.33578134669905
 30
0.0
 40
2.0
  1
Tag
 41
0.8
  7
GREEKS
 72
     1
 11
51.66655762360496
 21
9.33578134669905
 31
0.0
100
AcDbText
  0
TEXT
  5
7D
330
1E
100
AcDbEntity
  8
TEXT
100
AcDbText
 10
59.50613721932963
 20
9.29662108483204
 30
0.0
 40
2.0
  1
Name
 41
0.8
  7
GREEKS
 72
     1
 11
62.66804198123439
 21
9.29662108483204
 31
0.0
100
AcDbText
  0
TEXT
  5
7E
330
1E
100
AcDbEntity
  8
TEXT
100
AcDbText
 10
81.16558365768254
 20
36.65940250614963
 30
0.0
 40
2.0
  1
Tag
 41
0.8
  7
GREEKS
100
AcDbText
  0
TEXT
  5
7F
330
1E
100
AcDbEntity
  8
TEXT
100
AcDbText
 10
96.23132921131475
 20
36.65480545957612
 30
0.0
 40
2.0
  1
Name
 41
0.8
  7
GREEKS
100
AcDbText
  0
TEXT
  5
80
330
1E
100
AcDbEntity
  8
TEXT
100
AcDbText
 10
68.79180635838077
 20
31.81495184808982
 30
0.0
 40
2.0
  1
Gez.
 41
0.8
  7
GREEKS
100
AcDbText
  0
TEXT
  5
81
330
1E
100
AcDbEntity
  8
TEXT
100
AcDbText
 10
68.77575432858361
 20
26.84463145714189
 30
0.0
 40
2.0
  1
Gepr.
 41
0.8
  7
GREEKS
100
AcDbText
  0
TEXT
  5
82
330
1E
100
AcDbEntity
  8
TEXT
100
AcDbText
 10
68.80033886936519
 20
21.76473194824904
 30
0.0
 40
2.0
  1
Norm.
 41
0.8
  7
GREEKS
100
AcDbText
  0
LINE
  5
83
330
1E
100
AcDbEntity
  8
STEMPEL
100
AcDbLine
 10
24.99999999999995
 20
5.0
 30
0.0
 11
205.0
 21
5.0
 31
0.0
  0
TEXT
  5
84
330
1E
100
AcDbEntity
  8
TEXT
100
AcDbText
 10
168.6200430748503
 20
26.03708088939301
 30
0.0
 40
2.5
  1
ersetzt durch:
 41
0.8
  7
GREEKS
100
AcDbText
  0
LINE
  5
85
330
1E
100
AcDbEntity
  8
STEMPEL
100
AcDbLine
 10
205.0
 20
5.0
 30
0.0
 11
19.99999999999994
 21
5.0
 31
0.0
  0
LINE
  5
86
330
1E
100
AcDbEntity
  8
STEMPEL
100
AcDbLine
 10
205.0
 20
5.0
 30
0.0
 11
205.0
 21
292.0
 31
0.0
  0
LINE
  5
87
330
1E
100
AcDbEntity
  8
STEMPEL
100
AcDbLine
 10
20.0
 20
5.0
 30
0.0
 11
19.99999999999994
 21
292.0
 31
0.0
  0
LINE
  5
88
330
1E
100
AcDbEntity
  8
STEMPEL
100
AcDbLine
 10
205.0
 20
292.0
 30
0.0
 11
19.99999999999994
 21
292.0
 31
0.0
  0
LINE
  5
89
330
1E
100
AcDbEntity
  8
HILF
100
AcDbLine
 10
0.0
 20
0.0
 30
0.0
 11
-0.0000000000000568
 21
297.0
 31
0.0
  0
LINE
  5
8A
330
1E
100
AcDbEntity
  8
HILF
100
AcDbLine
 10
210.0
 20
297.0000000000001
 30
0.0
 11
0.0
 21
297.0
 31
0.0
  0
LINE
  5
8B
330
1E
100
AcDbEntity
  8
HILF
100
AcDbLine
 10
210.0
 20
0.0
 30
0.0
 11
0.0
 21
0.0
 31
0.0
  0
LINE
  5
8C
330
1E
100
AcDbEntity
  8
HILF
100
AcDbLine
 10
15.54383567856928
 20
148.5
 30
0.0
 11
0.0000000000000568
 21
148.5
 31
0.0
  0
TEXT
  5
8D
330
1E
100
AcDbEntity
  8
TEXT
100
AcDbText
 10
69.31105491105199
 20
36.57012735575833
 30
0.0
 40
2.0
  1
2011
 41
0.8
  7
GREEKS
100
AcDbText
  0
LINE
  5
8E
330
1E
100
AcDbEntity
  8
HILF
100
AcDbLine
 10
210.0
 20
-0.0000000000000568
 30
0.0
 11
210.0
 21
297.0
 31
0.0
  0
TEXT
  5
8F
330
1E
100
AcDbEntity
  8
VOLL
100
AcDbText
 10
78.07675471698113
 20
31.02594776470585
 30
0.0
 40
1.8
  1

  7
GREEKS
100
AcDbText
  0
TEXT
  5
90
330
1E
100
AcDbEntity
  8
TEXT
100
AcDbText
 10
20.92754975488837
 20
55.83599999999997
 30
0.0
 40
2.5
  1
Erstellt mit AUTOCAD 2004
 41
0.8
  7
GREEKS
100
AcDbText
  0
TEXT
  5
91
330
1E
100
AcDbEntity
  8
TEXT
100
AcDbText
 10
97.21080242906285
 20
31.54481959861755
 30
0.0
 40
2.0
  1
Koeh
 41
0.8
  7
GREEKS
 72
     1
 11
99.83937385763429
 21
31.54481959861755
 31
0.0
100
AcDbText
  0
TEXT
  5
92
330
1E
100
AcDbEntity
  8
TEXT
 62
     1
100
AcDbText
 10
173.2721026169866
 20
44.07450714456979
 30
0.0
 40
3.5
  1
00700050W
 41
0.8
  7
GREEKS
 72
     1
 11
185.2721026169866
 21
44.07450714456979
 31
0.0
100
AcDbText
  0
TEXT
  5
93
330
1E
100
AcDbEntity
  8
TEXT
 62
     1
100
AcDbText
 10
75.25031532409435
 20
44.07450714456979
 30
0.0
 40
3.5
  1
1:1
 41
0.8
  7
GREEKS
100
AcDbText
  0
TEXT
  5
94
330
1E
100
AcDbEntity
  8
TEXT
100
AcDbText
 10
80.35187950649897
 20
31.55382520412866
 30
0.0
 40
2.0
  1
01.04.
 41
0.8
  7
GREEKS
 72
     1
 11
83.70426045887993
 21
31.55382520412866
 31
0.0
100
AcDbText
  0
TEXT
  5
95
330
1E
100
AcDbEntity
  8
TEXT
 62
     1
100
AcDbText
 10
113.4467865528701
 20
43.70874394626889
 30
0.0
 40
3.5
  1
Anschlußstück DN50
 41
0.8
  7
GREEKS
100
AcDbText
  0
TEXT
  5
96
330
1E
100
AcDbEntity
  8
TEXT
100
AcDbText
 10
112.5648195562657
 20
35.75167208792644
 30
0.0
 40
2.5
  1
mit Gewinde R2
 41
0.8
  7
GREEKS
100
AcDbText
  0
TEXT
  5
98
330
1E
100
AcDbEntity
  8
TEXT
100
AcDbText
 10
112.5648195562657
 20
25.82005971521079
 30
0.0
 40
2.5
  1
EDV-Art.Nr. 00700.050X
 41
0.8
  7
GREEKS
100
AcDbText
  0
TEXT
  5
99
330
1E
100
AcDbEntity
  8
TEXT
100
AcDbText
 10
112.4918750788913
 20
21.31487076511316
 30
0.0
 40
2.0
  1
00700050W.DWG
 41
0.8
  7
GREEKS
100
AcDbText
  0
TEXT
  5
9A
330
1E
100
AcDbEntity
  8
TEXT
100
AcDbText
 10
91.31306610404202
 20
45.38181920511511
 30
0.0
 40
2.0
  1
DIN EN1123-2
 41
0.8
  7
GREEKS
 72
     1
 11
99.80830419928011
 21
45.38181920511511
 31
0.0
100
AcDbText
  0
INSERT
  5
9B
330
1E
100
AcDbEntity
  8
STEMPEL
100
AcDbBlockReference
  2
LOGO
 10
70.4977742728897
 20
22.51052638224161
 30
0.0
  0
TEXT
  5
118
330
1E
100
AcDbEntity
  8
BEM
100
AcDbText
 10
208.6511461928583
 20
5.083950539994247
 30
0.0
 40
2.0
  1
Diese Zeichnung ist urheberrechtlich geschützt und bleibt unser Eigentum. Sie darf weder ganz noch teilweise verfielfältigt und nicht an Dritte weitergegeben werden.
 50
90.0
 41
0.8
  7
GREEKS
100
AcDbText
  0
TEXT
  5
2B3
330
1E
100
AcDbEntity
  8
TEXT
 62
     1
100
AcDbText
 10
109.1730853251942
 20
154.983509237946
 30
0.0
 40
3.5
  1
DN50
 50
90.0
 41
0.8
  7
GREEKS
100
AcDbText
  0
TEXT
  5
2B4
330
1E
100
AcDbEntity
  8
TEXT
 62
     1
100
AcDbText
 10
138.1725262906716
 20
83.34804688148429
 30
0.0
 40
3.5
  1
Rohrende leicht eingezogen
 41
0.8
  7
GREEKS
100
AcDbText
  0
TEXT
  5
44C
330
1E
100
AcDbEntity
  8
TEXT
 62
     1
100
AcDbText
 10
113.9799959305361
 20
62.6499322393845
 30
0.0
 40
3.5
  1
Werkstoff: E195 EN10305 feuerverzinkt
 41
0.8
  7
GREEKS
100
AcDbText
  0
DIMENSION
  5
9C9
330
1E
100
AcDbEntity
  8
BEM
100
AcDbDimension
  2
*D1
 10
58.1257555599253
 20
111.4551836073138
 30
0.0
 11
54.8757555599253
 21
181.4551836073137
 31
0.0
 70
    32
 71
     5
 42
140.0
  3
Standard
100
AcDbAlignedDimension
 13
82.99999999999995
 23
251.4551836073138
 33
0.0
 14
86.87488663525922
 24
111.4551836073138
 34
0.0
 50
90.0
100
AcDbRotatedDimension
1001
ACAD
1000
DSTYLE
1002
{
1070
    41
1040
3.5
1070
    42
1040
1.0
1070
    43
1040
7.0
1070
    44
1040
1.0
1070
    73
1070
     0
1070
    74
1070
     0
1070
    77
1070
     1
1070
    78
1070
     8
1070
    79
1070
     2
1070
   140
1040
3.5
1070
   141
1040
1.5
1070
   146
1040
0.5142857142857144
1070
   147
1040
1.5
1070
   172
1070
     1
1070
   178
1070
     1
1070
   179
1070
     2
1070
   271
1070
     2
1070
   272
1070
     2
1070
   284
1070
     8
1070
   285
1070
     8
1070
   286
1070
     8
1002
}
  0
DIMENSION
  5
9CA
330
1E
100
AcDbEntity
  8
BEM
100
AcDbDimension
  2
*D2
 10
66.60261386037809
 20
111.4551836073138
 30
0.0
 11
63.35261386037807
 21
163.9551836073137
 31
0.0
 70
    32
 71
     5
 42
105.0
  3
Standard
100
AcDbAlignedDimension
 13
82.99999999999997
 23
216.4551836073138
 33
0.0
 14
86.87488663525922
 24
111.4551836073138
 34
0.0
 50
90.0
100
AcDbRotatedDimension
1001
ACAD
1000
DSTYLE
1002
{
1070
    41
1040
3.5
1070
    42
1040
1.0
1070
    43
1040
7.0
1070
    44
1040
1.0
1070
    73
1070
     0
1070
    74
1070
     0
1070
    77
1070
     1
1070
    78
1070
     8
1070
    79
1070
     2
1070
   140
1040
3.5
1070
   141
1040
1.5
1070
   146
1040
0.5142857142857144
1070
   147
1040
1.5
1070
   172
1070
     1
1070
   178
1070
     1
1070
   179
1070
     2
1070
   271
1070
     2
1070
   272
1070
     2
1070
   284
1070
     8
1070
   285
1070
     8
1070
   286
1070
     8
1002
}
  0
DIMENSION
  5
9CB
330
1E
100
AcDbEntity
  8
BEM
100
AcDbDimension
  2
*D3
 10
66.60261386037809
 20
216.4551836073138
 30
0.0
 11
63.35261386037807
 21
233.9551836073138
 31
0.0
 70
    32
 71
     5
 42
35.0
  3
Standard
100
AcDbAlignedDimension
 13
82.99999999999995
 23
251.4551836073138
 33
0.0
 14
82.99999999999997
 24
216.4551836073138
 34
0.0
 50
90.0
100
AcDbRotatedDimension
1001
ACAD
1000
DSTYLE
1002
{
1070
    41
1040
3.5
1070
    42
1040
1.0
1070
    43
1040
7.0
1070
    44
1040
1.0
1070
    73
1070
     0
1070
    74
1070
     0
1070
    77
1070
     1
1070
    78
1070
     8
1070
    79
1070
     2
1070
   140
1040
3.5
1070
   141
1040
1.5
1070
   146
1040
0.5142857142857144
1070
   147
1040
1.5
1070
   172
1070
     1
1070
   178
1070
     1
1070
   179
1070
     2
1070
   271
1070
     2
1070
   272
1070
     2
1070
   284
1070
     8
1070
   285
1070
     8
1070
   286
1070
     8
1002
}
  0
DIMENSION
  5
9CC
330
1E
100
AcDbEntity
  8
BEM
100
AcDbDimension
  2
*D4
 10
73.6026138603781
 20
227.4551836073138
 30
0.0
 11
70.35261386037806
 21
239.4551836073138
 31
0.0
 70
    32
 71
     5
 42
24.0
  3
Standard
100
AcDbAlignedDimension
 13
82.99999999999995
 23
251.4551836073138
 33
0.0
 14
82.99999999999997
 24
227.4551836073138
 34
0.0
 50
90.0
100
AcDbRotatedDimension
1001
ACAD
1000
DSTYLE
1002
{
1070
    41
1040
3.5
1070
    42
1040
1.0
1070
    43
1040
7.0
1070
    44
1040
1.0
1070
    73
1070
     0
1070
    74
1070
     0
1070
    77
1070
     1
1070
    78
1070
     8
1070
    79
1070
     2
1070
   140
1040
3.5
1070
   141
1040
1.5
1070
   146
1040
0.5142857142857144
1070
   147
1040
1.5
1070
   172
1070
     1
1070
   178
1070
     1
1070
   179
1070
     2
1070
   271
1070
     2
1070
   272
1070
     2
1070
   284
1070
     8
1070
   285
1070
     8
1070
   286
1070
     8
1002
}
  0
DIMENSION
  5
9CE
330
1E
100
AcDbEntity
  8
BEM
100
AcDbDimension
  2
*D6
 10
141.9999999999999
 20
259.206956652749
 30
0.0
 11
112.4999999999999
 21
262.456956652749
 31
0.0
 70
    32
  1
R2
 71
     5
 42
58.99999999999998
  3
Standard
100
AcDbAlignedDimension
 13
82.99999999999995
 23
251.4551836073138
 33
0.0
 14
141.9999999999999
 24
251.4551836073138
 34
0.0
100
AcDbRotatedDimension
1001
ACAD
1000
DSTYLE
1002
{
1070
    41
1040
3.5
1070
    42
1040
1.0
1070
    43
1040
7.0
1070
    44
1040
1.0
1070
    73
1070
     0
1070
    74
1070
     0
1070
    77
1070
     1
1070
    78
1070
     8
1070
    79
1070
     2
1070
   140
1040
3.5
1070
   141
1040
1.5
1070
   146
1040
0.5142857142857144
1070
   147
1040
1.5
1070
   172
1070
     1
1070
   178
1070
     1
1070
   179
1070
     2
1070
   271
1070
     2
1070
   272
1070
     2
1070
   284
1070
     8
1070
   285
1070
     8
1070
   286
1070
     8
1002
}
  0
LINE
  5
9D1
330
1E
100
AcDbEntity
  8
HILF
100
AcDbLine
 10
84.16999999999998
 20
251.4551836073137
 30
0.0
 11
84.16999999999998
 21
227.4551836073138
 31
0.0
  0
LINE
  5
9D2
330
1E
100
AcDbEntity
  8
HILF
100
AcDbLine
 10
140.83
 20
251.4551836073138
 30
0.0
 11
140.83
 21
227.4551836073138
 31
0.0
  0
LINE
  5
9D3
330
1E
100
AcDbEntity
  8
HILF
100
AcDbLine
 10
82.99999999999998
 20
227.4551836073138
 30
0.0
 11
141.9999999999999
 21
227.4551836073138
 31
0.0
  0
LINE
  5
9D4
330
1E
100
AcDbEntity
  8
STEMPEL
100
AcDbLine
 10
85.99999999999997
 20
206.6933523816927
 30
0.0
 11
84.4819716332064
 21
216.4551836073138
 31
0.0
  0
LINE
  5
9D5
102
{ACAD_REACTORS
330
B8F
102
}
330
1E
100
AcDbEntity
  8
STEMPEL
100
AcDbLine
 10
139.0
 20
206.6933523816929
 30
0.0
 11
140.5180283667935
 21
216.4551836073138
 31
0.0
  0
LINE
  5
9DA
102
{ACAD_REACTORS
330
B8F
102
}
330
1E
100
AcDbEntity
  8
STEMPEL
100
AcDbLine
 10
141.9999999999999
 20
251.4551836073138
 30
0.0
 11
141.9999999999999
 21
216.4551836073138
 31
0.0
  0
LINE
  5
9DB
330
1E
100
AcDbEntity
  8
STEMPEL
100
AcDbLine
 10
82.99999999999995
 20
251.4551836073138
 30
0.0
 11
82.99999999999997
 21
216.4551836073138
 31
0.0
  0
LINE
  5
9DC
330
1E
100
AcDbEntity
  8
STEMPEL
100
AcDbLine
 10
82.99999999999995
 20
251.4551836073138
 30
0.0
 11
141.9999999999999
 21
251.4551836073138
 31
0.0
  0
LINE
  5
9DD
330
1E
100
AcDbEntity
  8
MITTEL
100
AcDbLine
 10
112.5
 20
256.4551836073138
 30
0.0
 11
112.5
 21
205.1685540844248
 31
0.0
  0
DIMENSION
  5
9DE
330
1E
100
AcDbEntity
  8
BEM
100
AcDbDimension
  2
*D7
 10
139.0
 20
97.823434238511
 30
0.0
 11
112.5
 21
101.073434238511
 31
0.0
 70
    32
  1
%%C<>
 71
     5
 42
53.00000000000003
  3
Standard
100
AcDbAlignedDimension
 13
85.99999999999997
 23
118.4795613601483
 33
0.0
 14
139.0
 24
118.4795613601483
 34
0.0
100
AcDbRotatedDimension
1001
ACAD
1000
DSTYLE
1002
{
1070
    41
1040
3.5
1070
    42
1040
1.0
1070
    43
1040
7.0
1070
    44
1040
1.0
1070
    73
1070
     0
1070
    74
1070
     0
1070
    77
1070
     1
1070
    78
1070
     8
1070
    79
1070
     2
1070
   140
1040
3.5
1070
   141
1040
1.5
1070
   146
1040
0.5142857142857144
1070
   147
1040
1.5
1070
   172
1070
     1
1070
   178
1070
     1
1070
   179
1070
     2
1070
   271
1070
     2
1070
   272
1070
     2
1070
   284
1070
     8
1070
   285
1070
     8
1070
   286
1070
     8
1002
}
  0
LINE
  5
9ED
330
1E
100
AcDbEntity
  8
HILF
100
AcDbLine
 10
87.49999999999996
 20
206.8092855735634
 30
0.0
 11
137.5
 21
206.8092855735634
 31
0.0
  0
LINE
  5
9F0
330
1E
100
AcDbEntity
  8
STEMPEL
100
AcDbLine
 10
139.0
 20
118.4795613601483
 30
0.0
 11
138.1251133647407
 21
111.4551836073138
 31
0.0
  0
LINE
  5
9F1
330
1E
100
AcDbEntity
  8
STEMPEL
100
AcDbLine
 10
85.99999999999997
 20
118.4795613601483
 30
0.0
 11
86.87488663525922
 21
111.4551836073138
 31
0.0
  0
LINE
  5
9F2
330
1E
100
AcDbEntity
  8
HILF
100
AcDbLine
 10
87.49999999999996
 20
118.4795613601483
 30
0.0
 11
137.4999999999999
 21
118.4795613601483
 31
0.0
  0
LINE
  5
9F3
330
1E
100
AcDbEntity
  8
STEMPEL
100
AcDbLine
 10
139.0
 20
206.6933523816929
 30
0.0
 11
139.0
 21
118.4795613601483
 31
0.0
  0
LINE
  5
9F4
330
1E
100
AcDbEntity
  8
STEMPEL
100
AcDbLine
 10
85.99999999999997
 20
206.6933523816927
 30
0.0
 11
85.99999999999997
 21
118.4795613601483
 31
0.0
  0
LINE
  5
9F5
330
1E
100
AcDbEntity
  8
STEMPEL
100
AcDbLine
 10
86.87488663525922
 20
111.4551836073138
 30
0.0
 11
138.1251133647407
 21
111.4551836073138
 31
0.0
  0
LINE
  5
9F6
102
{ACAD_REACTORS
330
B8F
102
}
330
1E
100
AcDbEntity
  8
STEMPEL
100
AcDbLine
 10
82.99999999999997
 20
216.4551836073138
 30
0.0
 11
141.9999999999999
 21
216.4551836073138
 31
0.0
  0
ARC
  5
B85
102
{ACAD_REACTORS
330
B8F
102
}
330
1E
100
AcDbEntity
  8
SCHRAFF
100
AcDbCircle
 10
140.3183408172959
 20
216.8071316377608
 30
0.0
 40
2.354581258126386
100
AcDbArc
 50
267.290023798052
 51
44.42172578804754
  0
HATCH
  5
B8F
330
1E
100
AcDbEntity
  8
SCHRAFF
100
AcDbHatch
 10
0.0
 20
0.0
 30
0.0
210
0.0
220
0.0
230
1.0
  2
_USER
 70
     0
 71
     1
 91
        1
 92
        7
 72
     1
 73
     1
 93
        4
 10
141.9999999999999
 20
218.4551836073138
 42
0.0
 10
141.9999999999999
 20
216.4551836073138
 42
0.0
 10
140.5180283667935
 20
216.4551836073138
 42
0.0
 10
140.2070153341549
 20
214.4551836073139
 42
0.6817171594425862
 97
        4
330
9DA
330
9F6
330
9D5
330
B85
 75
     0
 76
     0
 52
0.0
 41
0.1
 77
     0
 78
     1
 53
0.0
 43
0.0
 44
0.0
 45
0.0
 46
0.1
 79
     0
 47
0.0962173738491043
 98
        1
 10
141.4584737599091
 20
215.5369018883605
  0
HATCH
  5
B90
330
1E
100
AcDbEntity
  8
SCHRAFF
100
AcDbHatch
 10
0.0
 20
0.0
 30
0.0
210
0.0
220
0.0
230
1.0
  2
_USER
 70
     0
 71
     0
 91
        1
 92
        7
 72
     1
 73
     1
 93
        4
 10
83.0
 20
218.4551836073138
 42
0.0
 10
83.0
 20
216.4551836073138
 42
0.0
 10
84.4819716332064
 20
216.4551836073138
 42
0.0
 10
84.79298466584504
 20
214.4551836073139
 42
-0.6817171594425862
 97
        0
 75
     0
 76
     0
 52
0.0
 41
0.1
 77
     0
 78
     1
 53
180.0
 43
225.0
 44
0.0
 45
0.0
 46
0.1
 79
     0
 47
0.0962173738491043
 98
        1
 10
83.54152624009083
 20
215.5369018883605
  0
ARC
  5
B91
330
1E
100
AcDbEntity
  8
SCHRAFF
100
AcDbCircle
 10
84.681659182704
 20
216.8071316377608
 30
0.0
 40
2.354581258126386
100
AcDbArc
 50
135.5782742119524
 51
272.7099762019481
  0
LINE
  5
BCA
330
1E
100
AcDbEntity
  8
MITTEL
100
AcDbLine
 10
112.5
 20
196.402391963352
 30
0.0
 11
112.5
 21
106.4551836073138
 31
0.0
  0
ARC
  5
C11
330
1E
100
AcDbEntity
  8
SCHRAFF
100
AcDbCircle
 10
82.99999999999997
 20
216.4551836073138
 30
0.0
 40
5.0
100
AcDbArc
 50
336.3888942394498
 51
23.57817847820186
  0
ARC
  5
C12
330
1E
100
AcDbEntity
  8
SCHRAFF
100
AcDbCircle
 10
87.99999999999997
 20
216.4551836073138
 30
0.0
 40
5.0
100
AcDbArc
 50
336.3888942394498
 51
23.57817847820186
  0
ARC
  5
C13
330
1E
100
AcDbEntity
  8
SCHRAFF
100
AcDbCircle
 10
97.99999999999997
 20
216.4551836073138
 30
0.0
 40
5.0
100
AcDbArc
 50
336.3888942394498
 51
23.57817847820186
  0
ARC
  5
C14
330
1E
100
AcDbEntity
  8
SCHRAFF
100
AcDbCircle
 10
92.99999999999997
 20
216.4551836073138
 30
0.0
 40
5.0
100
AcDbArc
 50
336.3888942394498
 51
23.57817847820186
  0
ARC
  5
C15
330
1E
100
AcDbEntity
  8
SCHRAFF
100
AcDbCircle
 10
112.9999999999999
 20
216.4551836073138
 30
0.0
 40
5.0
100
AcDbArc
 50
336.3888942394498
 51
23.57817847820186
  0
ARC
  5
C16
330
1E
100
AcDbEntity
  8
SCHRAFF
100
AcDbCircle
 10
117.9999999999999
 20
216.4551836073138
 30
0.0
 40
5.0
100
AcDbArc
 50
336.3888942394498
 51
23.57817847820186
  0
ARC
  5
C17
330
1E
100
AcDbEntity
  8
SCHRAFF
100
AcDbCircle
 10
108.0
 20
216.4551836073138
 30
0.0
 40
5.0
100
AcDbArc
 50
336.3888942394498
 51
23.57817847820186
  0
ARC
  5
C18
330
1E
100
AcDbEntity
  8
SCHRAFF
100
AcDbCircle
 10
103.0
 20
216.4551836073138
 30
0.0
 40
5.0
100
AcDbArc
 50
336.3888942394498
 51
23.57817847820186
  0
ARC
  5
C19
330
1E
100
AcDbEntity
  8
SCHRAFF
100
AcDbCircle
 10
122.9999999999999
 20
216.4551836073138
 30
0.0
 40
5.0
100
AcDbArc
 50
336.3888942394498
 51
23.57817847820186
  0
ARC
  5
C1A
330
1E
100
AcDbEntity
  8
SCHRAFF
100
AcDbCircle
 10
128.0
 20
216.4551836073138
 30
0.0
 40
5.0
100
AcDbArc
 50
336.3888942394498
 51
23.57817847820186
  0
ARC
  5
C1C
330
1E
100
AcDbEntity
  8
SCHRAFF
100
AcDbCircle
 10
133.0
 20
216.4551836073138
 30
0.0
 40
5.0
100
AcDbArc
 50
336.3888942394498
 51
23.57817847820186
  0
VIEWPORT
  5
BEE
330
1A
100
AcDbEntity
 67
     1
  8
0
100
AcDbViewport
 10
5.249999639556163
 20
3.999999883606677
 30
0.0
 40
15.64883571579785
 41
8.992999745766947
 68
     1
 69
     1
 12
5.249999639556163
 22
3.999999883606677
 13
0.0
 23
0.0
 14
10.0
 24
10.0
 15
10.0
 25
10.0
 16
0.0
 26
0.0
 36
1.0
 17
0.0
 27
0.0
 37
0.0
 42
50.0
 43
0.0
 44
0.0
 45
8.992999745766947
 50
0.0
 51
0.0
 72
  1500
 90
    32800
  1

281
     0
 71
     1
 74
     0
110
0.0
120
0.0
130
0.0
111
1.0
121
0.0
131
0.0
112
0.0
122
1.0
132
0.0
 79
     0
146
0.0
170
     0
  0
VIEWPORT
  5
BF0
330
1A
100
AcDbEntity
 67
     1
  8
VOLL
100
AcDbViewport
 10
5.24999976158142
 20
3.99999976158142
 30
0.0
 40
8.399999618530271
 41
6.399999618530272
 68
     2
 69
     2
 12
105.0
 22
148.5
 13
0.0
 23
0.0
 14
1.0
 24
1.0
 15
10.0
 25
10.0
 16
0.0
 26
0.0
 36
1.0
 17
0.0
 27
0.0
 37
0.0
 42
50.0
 43
0.0
 44
0.0
 45
301.7393617021278
 50
0.0
 51
0.0
 72
  1500
 90
    32768
  1

281
     0
 71
     1
 74
     0
110
0.0
120
0.0
130
0.0
111
1.0
121
0.0
131
0.0
112
0.0
122
1.0
132
0.0
 79
     0
146
0.0
170
     0
  0
ENDSEC
  0
SECTION
  2
OBJECTS
  0
DICTIONARY
  5
C
330
0
100
AcDbDictionary
281
     1
  3
ACAD_COLOR
350
DF
  3
ACAD_GROUP
350
D
  3
ACAD_LAYOUT
350
19
  3
ACAD_MATERIAL
350
DE
  3
ACAD_MLINESTYLE
350
16
  3
ACAD_PLOTSETTINGS
350
18
  3
ACAD_PLOTSTYLENAME
350
E
  3
AcDbVariableDictionary
350
EA
  0
DICTIONARY
  5
A0
330
1E
100
AcDbDictionary
280
     1
281
     1
  3
ACAD_LAYOUTSELFREF
360
D4
  0
DICTIONARY
  5
A2
330
1A
100
AcDbDictionary
280
     1
281
     1
  3
ACAD_LAYOUTSELFREF
360
D3
  0
DICTIONARY
  5
DF
102
{ACAD_REACTORS
330
C
102
}
330
C
100
AcDbDictionary
281
     1
  0
DICTIONARY
  5
D
102
{ACAD_REACTORS
330
C
102
}
330
C
100
AcDbDictionary
281
     1
  0
DICTIONARY
  5
19
102
{ACAD_REACTORS
330
C
102
}
330
C
100
AcDbDictionary
281
     1
  3
Layout1
350
1D
  3
Model
350
21
  0
DICTIONARY
  5
DE
102
{ACAD_REACTORS
330
C
102
}
330
C
100
AcDbDictionary
281
     1
  0
DICTIONARY
  5
16
102
{ACAD_REACTORS
330
C
102
}
330
C
100
AcDbDictionary
281
     1
  3
Standard
350
17
  0
DICTIONARY
  5
18
102
{ACAD_REACTORS
330
C
102
}
330
C
100
AcDbDictionary
281
     1
  0
ACDBDICTIONARYWDFLT
  5
E
102
{ACAD_REACTORS
330
C
102
}
330
C
100
AcDbDictionary
281
     1
  3
Normal
350
F
100
AcDbDictionaryWithDefault
340
F
  0
DICTIONARY
  5
EA
102
{ACAD_REACTORS
330
C
102
}
330
C
100
AcDbDictionary
281
     1
  3
DIMASSOC
350
EB
  3
PROJECTNAME
350
EC
  0
XRECORD
  5
D4
102
{ACAD_REACTORS
330
A0
102
}
330
A0
100
AcDbXrecord
280
     1
340
1E
  0
XRECORD
  5
D3
102
{ACAD_REACTORS
330
A2
102
}
330
A2
100
AcDbXrecord
280
     1
340
1A
  0
LAYOUT
  5
1D
102
{ACAD_REACTORS
330
19
102
}
330
19
100
AcDbPlotSettings
  1

  2
none_device
  4
Letter_(8.50_x_11.00_Inches)
  6

 40
6.349999904632568
 41
6.349999904632568
 42
6.350006103515625
 43
6.350006103515625
 44
215.8999938964844
 45
279.3999938964844
 46
0.0
 47
0.0
 48
0.0
 49
0.0
140
0.0
141
0.0
142
1.0
143
1.0
 70
   688
 72
     0
 73
     1
 74
     5
  7

 75
    16
147
1.0
 76
     0
 77
     2
 78
   300
148
0.0
149
0.0
100
AcDbLayout
  1
Layout1
 70
     0
 71
     1
 10
-0.2500002402958907
 20
-0.2499999962453767
 11
10.74999951940821
 21
8.249999763458731
 12
0.0
 22
0.0
 32
0.0
 14
1.049999952316284
 24
0.7999999523162842
 34
0.0
 15
9.449999570846555
 25
7.199999570846556
 35
0.0
146
0.0
 13
0.0
 23
0.0
 33
0.0
 16
1.0
 26
0.0
 36
0.0
 17
0.0
 27
1.0
 37
0.0
 76
     0
330
1A
331
BEE
  0
LAYOUT
  5
21
102
{ACAD_REACTORS
330
19
102
}
330
19
100
AcDbPlotSettings
  1

  2
none_device
  4
Letter_(8.50_x_11.00_Inches)
  6

 40
6.349999904632568
 41
6.349999904632568
 42
6.350006103515625
 43
6.350006103515625
 44
215.8999938964844
 45
279.3999938964844
 46
0.0
 47
0.0
 48
0.0
 49
0.0
140
0.0
141
0.0
142
1.0
143
1.0
 70
 11952
 72
     0
 73
     1
 74
     0
  7

 75
     0
147
1.0
 76
     0
 77
     2
 78
   300
148
1152.657181375307
149
47.75715178919111
100
AcDbLayout
  1
Model
 70
     1
 71
     0
 10
0.0
 20
0.0
 11
12.0
 21
9.0
 12
0.0
 22
0.0
 32
0.0
 14
0.0
 24
0.0
 34
0.0
 15
0.0
 25
0.0
 35
0.0
146
0.0
 13
0.0
 23
0.0
 33
0.0
 16
1.0
 26
0.0
 36
0.0
 17
0.0
 27
1.0
 37
0.0
 76
     0
330
1E
  0
MLINESTYLE
  5
17
102
{ACAD_REACTORS
330
16
102
}
330
16
100
AcDbMlineStyle
  2
STANDARD
 70
     0
  3

 62
   256
 51
90.0
 52
90.0
 71
     2
 49
0.5
 62
   256
  6
BYLAYER
 49
-0.5
 62
   256
  6
BYLAYER
  0
ACDBPLACEHOLDER
  5
F
102
{ACAD_REACTORS
330
E
102
}
330
E
  0
DICTIONARYVAR
  5
EB
102
{ACAD_REACTORS
330
EA
102
}
330
EA
100
DictionaryVariables
280
     0
  1
1
  0
DICTIONARYVAR
  5
EC
102
{ACAD_REACTORS
330
EA
102
}
330
EA
100
DictionaryVariables
280
     0
  1

  0
ENDSEC
  0
EOF
