  0
SECTION
  2
HEADER
  9
$ACADVER
  1
AC1018
  9
$ACADMAINTVER
 70
     2
  9
$DWGCODEPAGE
  3
ANSI_1252
  9
$INSBASE
 10
0.0
 20
0.0
 30
0.0
  9
$EXTMIN
 10
-0.02241560347818
 20
-0.031702067776223
 30
-0.0000000000000129
  9
$EXTMAX
 10
420.0288454677588
 20
594.0407957329735
 30
0.0000000000000023
  9
$LIMMIN
 10
0.0
 20
0.0
  9
$LIMMAX
 10
419.9999999999999
 20
594.0
  9
$ORTHOMODE
 70
     1
  9
$REGENMODE
 70
     1
  9
$FILLMODE
 70
     1
  9
$QTEXTMODE
 70
     0
  9
$MIRRTEXT
 70
     1
  9
$LTSCALE
 40
20.0
  9
$ATTMODE
 70
     1
  9
$TEXTSIZE
 40
3.5
  9
$TRACEWID
 40
0.5
  9
$TEXTSTYLE
  7
STANDARD
  9
$CLAYER
  8
VOLL
  9
$CELTYPE
  6
ByLayer
  9
$CECOLOR
 62
   256
  9
$CELTSCALE
 40
1.0
  9
$DISPSILH
 70
     0
  9
$DIMSCALE
 40
2.0
  9
$DIMASZ
 40
3.5
  9
$DIMEXO
 40
1.0
  9
$DIMDLI
 40
7.0
  9
$DIMRND
 40
0.0
  9
$DIMDLE
 40
0.0
  9
$DIMEXE
 40
1.0
  9
$DIMTP
 40
0.0
  9
$DIMTM
 40
0.0
  9
$DIMTXT
 40
3.5
  9
$DIMCEN
 40
1.5
  9
$DIMTSZ
 40
0.0
  9
$DIMTOL
 70
     0
  9
$DIMLIM
 70
     0
  9
$DIMTIH
 70
     0
  9
$DIMTOH
 70
     0
  9
$DIMSE1
 70
     0
  9
$DIMSE2
 70
     0
  9
$DIMTAD
 70
     1
  9
$DIMZIN
 70
     8
  9
$DIMBLK
  1

  9
$DIMASO
 70
     1
  9
$DIMSHO
 70
     0
  9
$DIMPOST
  1

  9
$DIMAPOST
  1

  9
$DIMALT
 70
     0
  9
$DIMALTD
 70
     2
  9
$DIMALTF
 40
25.4
  9
$DIMLFAC
 40
1.0
  9
$DIMTOFL
 70
     1
  9
$DIMTVP
 40
0.0
  9
$DIMTIX
 70
     0
  9
$DIMSOXD
 70
     0
  9
$DIMSAH
 70
     0
  9
$DIMBLK1
  1

  9
$DIMBLK2
  1

  9
$DIMSTYLE
  2
Standard
  9
$DIMCLRD
 70
     0
  9
$DIMCLRE
 70
     0
  9
$DIMCLRT
 70
     1
  9
$DIMTFAC
 40
0.5142857142857144
  9
$DIMGAP
 40
1.5
  9
$DIMJUST
 70
     0
  9
$DIMSD1
 70
     0
  9
$DIMSD2
 70
     0
  9
$DIMTOLJ
 70
     1
  9
$DIMTZIN
 70
     8
  9
$DIMALTZ
 70
     8
  9
$DIMALTTZ
 70
     8
  9
$DIMUPT
 70
     0
  9
$DIMDEC
 70
     2
  9
$DIMTDEC
 70
     2
  9
$DIMALTU
 70
     2
  9
$DIMALTTD
 70
     2
  9
$DIMTXSTY
  7
STANDARD
  9
$DIMAUNIT
 70
     0
  9
$DIMADEC
 70
     2
  9
$DIMALTRND
 40
0.0
  9
$DIMAZIN
 70
     2
  9
$DIMDSEP
 70
    46
  9
$DIMATFIT
 70
     3
  9
$DIMFRAC
 70
     0
  9
$DIMLDRBLK
  1

  9
$DIMLUNIT
 70
     2
  9
$DIMLWD
 70
    -2
  9
$DIMLWE
 70
    -2
  9
$DIMTMOVE
 70
     0
  9
$LUNITS
 70
     2
  9
$LUPREC
 70
     2
  9
$SKETCHINC
 40
1.0
  9
$FILLETRAD
 40
15.0
  9
$AUNITS
 70
     0
  9
$AUPREC
 70
     0
  9
$MENU
  1
ACAD
  9
$ELEVATION
 40
0.0
  9
$PELEVATION
 40
0.0
  9
$THICKNESS
 40
0.0
  9
$LIMCHECK
 70
     0
  9
$CHAMFERA
 40
0.0
  9
$CHAMFERB
 40
0.0
  9
$CHAMFERC
 40
0.0
  9
$CHAMFERD
 40
0.0
  9
$SKPOLY
 70
     0
  9
$TDCREATE
 40
2455397.864709028
  9
$TDUCREATE
 40
2455397.781375695
  9
$TDUPDATE
 40
2455449.529712697
  9
$TDUUPDATE
 40
2455449.446379364
  9
$TDINDWG
 40
0.1695320833
  9
$TDUSRTIMER
 40
0.1695320833
  9
$USRTIMER
 70
     1
  9
$ANGBASE
 50
0.0
  9
$ANGDIR
 70
     0
  9
$PDMODE
 70
     0
  9
$PDSIZE
 40
0.0
  9
$PLINEWID
 40
0.0
  9
$SPLFRAME
 70
     0
  9
$SPLINETYPE
 70
     6
  9
$SPLINESEGS
 70
     8
  9
$HANDSEED
  5
21EB
  9
$SURFTAB1
 70
     6
  9
$SURFTAB2
 70
     6
  9
$SURFTYPE
 70
     6
  9
$SURFU
 70
     6
  9
$SURFV
 70
     6
  9
$UCSBASE
  2

  9
$UCSNAME
  2

  9
$UCSORG
 10
0.0
 20
0.0
 30
0.0
  9
$UCSXDIR
 10
1.0
 20
0.0
 30
0.0
  9
$UCSYDIR
 10
0.0
 20
1.0
 30
0.0
  9
$UCSORTHOREF
  2

  9
$UCSORTHOVIEW
 70
     0
  9
$UCSORGTOP
 10
0.0
 20
0.0
 30
0.0
  9
$UCSORGBOTTOM
 10
0.0
 20
0.0
 30
0.0
  9
$UCSORGLEFT
 10
0.0
 20
0.0
 30
0.0
  9
$UCSORGRIGHT
 10
0.0
 20
0.0
 30
0.0
  9
$UCSORGFRONT
 10
0.0
 20
0.0
 30
0.0
  9
$UCSORGBACK
 10
0.0
 20
0.0
 30
0.0
  9
$PUCSBASE
  2

  9
$PUCSNAME
  2

  9
$PUCSORG
 10
0.0
 20
0.0
 30
0.0
  9
$PUCSXDIR
 10
1.0
 20
0.0
 30
0.0
  9
$PUCSYDIR
 10
0.0
 20
1.0
 30
0.0
  9
$PUCSORTHOREF
  2

  9
$PUCSORTHOVIEW
 70
     0
  9
$PUCSORGTOP
 10
0.0
 20
0.0
 30
0.0
  9
$PUCSORGBOTTOM
 10
0.0
 20
0.0
 30
0.0
  9
$PUCSORGLEFT
 10
0.0
 20
0.0
 30
0.0
  9
$PUCSORGRIGHT
 10
0.0
 20
0.0
 30
0.0
  9
$PUCSORGFRONT
 10
0.0
 20
0.0
 30
0.0
  9
$PUCSORGBACK
 10
0.0
 20
0.0
 30
0.0
  9
$USERI1
 70
     0
  9
$USERI2
 70
     0
  9
$USERI3
 70
     0
  9
$USERI4
 70
     0
  9
$USERI5
 70
     0
  9
$USERR1
 40
0.0
  9
$USERR2
 40
0.0
  9
$USERR3
 40
0.0
  9
$USERR4
 40
0.0
  9
$USERR5
 40
0.0
  9
$WORLDVIEW
 70
     1
  9
$SHADEDGE
 70
     3
  9
$SHADEDIF
 70
    70
  9
$TILEMODE
 70
     1
  9
$MAXACTVP
 70
    16
  9
$PINSBASE
 10
0.0
 20
0.0
 30
0.0
  9
$PLIMCHECK
 70
     0
  9
$PEXTMIN
 10
1.000000000000000E+20
 20
1.000000000000000E+20
 30
1.000000000000000E+20
  9
$PEXTMAX
 10
-1.000000000000000E+20
 20
-1.000000000000000E+20
 30
-1.000000000000000E+20
  9
$PLIMMIN
 10
0.0
 20
0.0
  9
$PLIMMAX
 10
12.0
 20
9.0
  9
$UNITMODE
 70
     0
  9
$VISRETAIN
 70
     0
  9
$PLINEGEN
 70
     0
  9
$PSLTSCALE
 70
     0
  9
$TREEDEPTH
 70
  3020
  9
$CMLSTYLE
  2
Standard
  9
$CMLJUST
 70
     0
  9
$CMLSCALE
 40
1.0
  9
$PROXYGRAPHICS
 70
     1
  9
$MEASUREMENT
 70
     0
  9
$CELWEIGHT
370
    -1
  9
$ENDCAPS
280
     0
  9
$JOINSTYLE
280
     0
  9
$LWDISPLAY
290
     0
  9
$INSUNITS
 70
     0
  9
$HYPERLINKBASE
  1

  9
$STYLESHEET
  1
monochrome 1.ctb
  9
$XEDIT
290
     1
  9
$CEPSNTYPE
380
     0
  9
$PSTYLEMODE
290
     1
  9
$FINGERPRINTGUID
  2
{D68B0D02-A558-11D7-B632-000102183313}
  9
$VERSIONGUID
  2
{215FDA6F-FF0D-4D16-9DB4-174C8F30909E}
  9
$EXTNAMES
290
     1
  9
$PSVPSCALE
 40
0.0
  9
$OLESTARTUP
290
     0
  9
$SORTENTS
280
   127
  9
$INDEXCTL
280
     0
  9
$HIDETEXT
280
     0
  9
$XCLIPFRAME
290
     0
  9
$HALOGAP
280
     0
  9
$OBSCOLOR
 70
   257
  9
$OBSLTYPE
280
     0
  9
$INTERSECTIONDISPLAY
280
     0
  9
$INTERSECTIONCOLOR
 70
   257
  9
$DIMASSOC
280
     1
  9
$PROJECTNAME
  1

  0
ENDSEC
  0
SECTION
  2
CLASSES
  0
CLASS
  1
ACDBDICTIONARYWDFLT
  2
AcDbDictionaryWithDefault
  3
ObjectDBX Classes
 90
        0
 91
        1
280
     0
281
     0
  0
CLASS
  1
DICTIONARYVAR
  2
AcDbDictionaryVar
  3
ObjectDBX Classes
 90
        0
 91
        2
280
     0
281
     0
  0
ENDSEC
  0
SECTION
  2
TABLES
  0
TABLE
  2
VPORT
  5
8
330
0
100
AcDbSymbolTable
 70
     2
  0
VPORT
  5
21EA
330
8
100
AcDbSymbolTableRecord
100
AcDbViewportTableRecord
  2
*Active
 70
     0
 10
0.0
 20
0.0
 11
1.0
 21
1.0
 12
210.0032149321403
 22
297.0045468325987
 13
0.0
 23
0.0
 14
1.0
 24
1.0
 15
10.0
 25
10.0
 16
0.0
 26
0.0
 36
1.0
 17
0.0
 27
0.0
 37
0.0
 40
598.8698530992754
 41
1.336927223719676
 42
50.0
 43
0.0
 44
0.0
 50
0.0
 51
0.0
 71
     0
 72
  1500
 73
     1
 74
     0
 75
     0
 76
     0
 77
     0
 78
     0
281
     0
 65
     1
110
0.0
120
0.0
130
0.0
111
1.0
121
0.0
131
0.0
112
0.0
122
1.0
132
0.0
 79
     0
146
0.0
  0
ENDTAB
  0
TABLE
  2
LTYPE
  5
5
330
0
100
AcDbSymbolTable
 70
     3
  0
LTYPE
  5
13
330
5
100
AcDbSymbolTableRecord
100
AcDbLinetypeTableRecord
  2
ByBlock
 70
     0
  3

 72
    65
 73
     0
 40
0.0
  0
LTYPE
  5
14
330
5
100
AcDbSymbolTableRecord
100
AcDbLinetypeTableRecord
  2
ByLayer
 70
     0
  3

 72
    65
 73
     0
 40
0.0
  0
LTYPE
  5
15
330
5
100
AcDbSymbolTableRecord
100
AcDbLinetypeTableRecord
  2
Continuous
 70
     0
  3
Solid line
 72
    65
 73
     0
 40
0.0
  0
LTYPE
  5
25
330
5
100
AcDbSymbolTableRecord
100
AcDbLinetypeTableRecord
  2
STRICHPUNKT
 70
     0
  3
__ . __ . __ . __ . __ . __ . __ . __ . __ . __
 72
    65
 73
     4
 40
1.0
 49
0.5
 74
     0
 49
-0.25
 74
     0
 49
0.0
 74
     0
 49
-0.25
 74
     0
  0
LTYPE
  5
32
330
5
100
AcDbSymbolTableRecord
100
AcDbLinetypeTableRecord
  2
AUSGEZOGEN
 70
     0
  3
Ausgezogene Linie
 72
    65
 73
     0
 40
0.0
  0
ENDTAB
  0
TABLE
  2
LAYER
  5
2
330
0
100
AcDbSymbolTable
 70
     9
  0
LAYER
  5
10
330
2
100
AcDbSymbolTableRecord
100
AcDbLayerTableRecord
  2
0
 70
     0
 62
     7
  6
Continuous
370
    -3
390
F
  0
LAYER
  5
2A
330
2
100
AcDbSymbolTableRecord
100
AcDbLayerTableRecord
  2
VOLL
 70
     0
 62
     1
  6
Continuous
370
    -3
390
F
  0
LAYER
  5
2B
330
2
100
AcDbSymbolTableRecord
100
AcDbLayerTableRecord
  2
HILF
 70
     0
 62
     2
  6
Continuous
370
    -3
390
F
  0
LAYER
  5
2C
330
2
100
AcDbSymbolTableRecord
100
AcDbLayerTableRecord
  2
MITTEL
 70
     0
 62
     2
  6
STRICHPUNKT
370
    -3
390
F
  0
LAYER
  5
2F
330
2
100
AcDbSymbolTableRecord
100
AcDbLayerTableRecord
  2
BEM
 70
     0
 62
     7
  6
Continuous
370
    -3
390
F
  0
LAYER
  5
30
330
2
100
AcDbSymbolTableRecord
100
AcDbLayerTableRecord
  2
STEMPEL
 70
     0
 62
     3
  6
Continuous
370
    -3
390
F
  0
LAYER
  5
31
330
2
100
AcDbSymbolTableRecord
100
AcDbLayerTableRecord
  2
TEXT
 70
     0
 62
     7
  6
Continuous
370
    -3
390
F
  0
LAYER
  5
19E
330
2
100
AcDbSymbolTableRecord
100
AcDbLayerTableRecord
  2
DEFPOINTS
 70
     0
 62
     7
  6
AUSGEZOGEN
290
     0
370
    -3
390
F
  0
LAYER
  5
404
330
2
100
AcDbSymbolTableRecord
100
AcDbLayerTableRecord
  2
SCHRAFF
 70
     0
 62
     7
  6
Continuous
370
    -3
390
F
  0
ENDTAB
  0
TABLE
  2
STYLE
  5
3
330
0
100
AcDbSymbolTable
 70
     2
  0
STYLE
  5
11
330
3
100
AcDbSymbolTableRecord
100
AcDbTextStyleTableRecord
  2
STANDARD
 70
     0
 40
0.0
 41
0.8
 50
0.0
 71
     0
 42
3.5
  3
simplex.shx
  4

  0
STYLE
  5
24
330
3
100
AcDbSymbolTableRecord
100
AcDbTextStyleTableRecord
  2
GREEKS
 70
     0
 40
0.0
 41
0.8
 50
0.0
 71
     0
 42
2.5
  3
SIMPLEX.shx
  4

  0
ENDTAB
  0
TABLE
  2
VIEW
  5
6
330
0
100
AcDbSymbolTable
 70
     0
  0
ENDTAB
  0
TABLE
  2
UCS
  5
7
330
0
100
AcDbSymbolTable
 70
     0
  0
ENDTAB
  0
TABLE
  2
APPID
  5
9
330
0
100
AcDbSymbolTable
 70
     1
  0
APPID
  5
12
330
9
100
AcDbSymbolTableRecord
100
AcDbRegAppTableRecord
  2
ACAD
 70
     0
  0
ENDTAB
  0
TABLE
  2
DIMSTYLE
  5
A
330
0
100
AcDbSymbolTable
 70
     1
100
AcDbDimStyleTable
 71
     1
340
9D
  0
DIMSTYLE
105
9D
102
{ACAD_REACTORS
330
1DCC
330
1E0F
330
1FDB
330
2104
330
2115
330
21C1
102
}
330
A
100
AcDbSymbolTableRecord
100
AcDbDimStyleTableRecord
  2
Standard
 70
     0
340
11
  0
ENDTAB
  0
TABLE
  2
BLOCK_RECORD
  5
1
330
0
100
AcDbSymbolTable
 70
     8
  0
BLOCK_RECORD
  5
1E
102
{ACAD_XDICTIONARY
360
A0
102
}
330
1
100
AcDbSymbolTableRecord
100
AcDbBlockTableRecord
  2
*Model_Space
340
21
  0
BLOCK_RECORD
  5
1A
102
{ACAD_XDICTIONARY
360
A2
102
}
330
1
100
AcDbSymbolTableRecord
100
AcDbBlockTableRecord
  2
*Paper_Space
340
1D
  0
BLOCK_RECORD
  5
22
330
1
100
AcDbSymbolTableRecord
100
AcDbBlockTableRecord
  2
LOGO
340
0
102
{BLKREFS
331
9B
102
}
  0
BLOCK_RECORD
  5
1B92
330
1
100
AcDbSymbolTableRecord
100
AcDbBlockTableRecord
  2
*X1
340
0
102
{BLKREFS
331
1DCA
102
}
  0
BLOCK_RECORD
  5
1E37
330
1
100
AcDbSymbolTableRecord
100
AcDbBlockTableRecord
  2
*D2
340
0
  0
BLOCK_RECORD
  5
1E9F
330
1
100
AcDbSymbolTableRecord
100
AcDbBlockTableRecord
  2
*D3
340
0
  0
BLOCK_RECORD
  5
1FDC
330
1
100
AcDbSymbolTableRecord
100
AcDbBlockTableRecord
  2
*D4
340
0
  0
BLOCK_RECORD
  5
211D
330
1
100
AcDbSymbolTableRecord
100
AcDbBlockTableRecord
  2
*D5
340
0
  0
BLOCK_RECORD
  5
2129
330
1
100
AcDbSymbolTableRecord
100
AcDbBlockTableRecord
  2
*D6
340
0
  0
BLOCK_RECORD
  5
21C2
330
1
100
AcDbSymbolTableRecord
100
AcDbBlockTableRecord
  2
*D7
340
0
  0
ENDTAB
  0
ENDSEC
  0
SECTION
  2
BLOCKS
  0
BLOCK
  5
35
330
1E
100
AcDbEntity
  8
0
100
AcDbBlockBegin
  2
*Model_Space
 70
     0
 10
0.0
 20
0.0
 30
0.0
  3
*Model_Space
  1

  0
ENDBLK
  5
36
330
1E
100
AcDbEntity
  8
0
100
AcDbBlockEnd
  0
BLOCK
  5
33
330
1A
100
AcDbEntity
 67
     1
  8
0
100
AcDbBlockBegin
  2
*Paper_Space
 70
     0
 10
0.0
 20
0.0
 30
0.0
  3
*Paper_Space
  1

  0
ENDBLK
  5
34
330
1A
100
AcDbEntity
 67
     1
  8
0
100
AcDbBlockEnd
  0
BLOCK
  5
37
330
22
100
AcDbEntity
  8
0
100
AcDbBlockBegin
  2
LOGO
 70
     0
 10
0.0
 20
0.0
 30
0.0
  3
LOGO
  1

  0
ARC
  5
38
330
22
100
AcDbEntity
  8
0
100
AcDbCircle
 10
11.59973089678112
 20
-9.271599258481501
 30
0.0
 40
4.5
100
AcDbArc
 50
270.0
 51
231.0575587310159
  0
LINE
  5
39
330
22
100
AcDbEntity
  8
0
100
AcDbLine
 10
3.599730896781125
 20
-4.771599258481529
 30
0.0
 11
3.599730896781153
 21
-11.77159925848133
 31
0.0
  0
LINE
  5
3A
330
22
100
AcDbEntity
  8
0
100
AcDbLine
 10
2.599730896781125
 20
-4.771599258481529
 30
0.0
 11
2.599730896781153
 21
-11.77159925848133
 31
0.0
  0
CIRCLE
  5
3B
330
22
100
AcDbEntity
  8
0
100
AcDbCircle
 10
11.59973089678112
 20
-9.271599258481501
 30
0.0
 40
3.5
  0
ARC
  5
3C
330
22
100
AcDbEntity
  8
0
100
AcDbCircle
 10
31.59973089678115
 20
-9.271599258481472
 30
0.0
 40
4.5
100
AcDbArc
 50
270.0
 51
231.0575587310182
  0
LINE
  5
3D
330
22
100
AcDbEntity
  8
0
100
AcDbLine
 10
17.59973089678112
 20
-4.771599258481472
 30
0.0
 11
17.59973089678115
 21
-13.77159925848147
 31
0.0
  0
ARC
  5
3E
330
22
100
AcDbEntity
  8
0
100
AcDbCircle
 10
22.59973089678116
 20
-7.271599258481472
 30
0.0
 40
2.5
100
AcDbArc
 50
293.1161887722295
 51
90.0
  0
CIRCLE
  5
3F
330
22
100
AcDbEntity
  8
0
100
AcDbCircle
 10
31.59973089678115
 20
-9.271599258481472
 30
0.0
 40
3.5
  0
ARC
  5
40
330
22
100
AcDbEntity
  8
0
100
AcDbCircle
 10
4.599730896781153
 20
-11.77159925848133
 30
0.0
 40
1.0
100
AcDbArc
 50
180.0
 51
270.0
  0
ARC
  5
41
330
22
100
AcDbEntity
  8
0
100
AcDbCircle
 10
4.599730896781153
 20
-11.77159925848133
 30
0.0
 40
2.0
100
AcDbArc
 50
179.9999999999992
 51
270.0
  0
LINE
  5
42
330
22
100
AcDbEntity
  8
0
100
AcDbLine
 10
11.59973089678115
 20
-13.77159925848144
 30
0.0
 11
4.599730896781153
 21
-13.77159925848147
 31
0.0
  0
LINE
  5
43
330
22
100
AcDbEntity
  8
0
100
AcDbLine
 10
8.771303772034769
 20
-12.77159925848136
 30
0.0
 11
4.599730896781153
 21
-12.77159925848133
 31
0.0
  0
LINE
  5
44
330
22
100
AcDbEntity
  8
0
100
AcDbLine
 10
31.59973089678115
 20
-13.77159925848147
 30
0.0
 11
23.6715276665056
 21
-13.77159925848144
 31
0.0
  0
LINE
  5
45
330
22
100
AcDbEntity
  8
0
100
AcDbLine
 10
23.56565672307022
 20
-9.51278021337896
 30
0.0
 11
24.4388546544846
 21
-12.77159925848144
 31
0.0
  0
LINE
  5
46
330
22
100
AcDbEntity
  8
0
100
AcDbLine
 10
22.59973089678116
 20
-9.771599258481472
 30
0.0
 11
18.59973089678112
 21
-9.771599258481472
 31
0.0
  0
LINE
  5
47
330
22
100
AcDbEntity
  8
0
100
AcDbLine
 10
18.59973089678115
 20
-13.77159925848144
 30
0.0
 11
17.59973089678115
 21
-13.77159925848144
 31
0.0
  0
LINE
  5
48
330
22
100
AcDbEntity
  8
0
100
AcDbLine
 10
18.59973089678115
 20
-9.771599258481472
 30
0.0
 11
18.59973089678115
 21
-13.77159925848144
 31
0.0
  0
LINE
  5
49
330
22
100
AcDbEntity
  8
0
100
AcDbLine
 10
22.59973089678116
 20
-9.771599258481472
 30
0.0
 11
23.67152766650562
 21
-13.77159925848147
 31
0.0
  0
ARC
  5
4A
330
22
100
AcDbEntity
  8
0
100
AcDbCircle
 10
22.59973089678116
 20
-7.271599258481472
 30
0.0
 40
2.5
100
AcDbArc
 50
270.0
 51
270.0000000000007
  0
LINE
  5
4B
330
22
100
AcDbEntity
  8
0
100
AcDbLine
 10
28.77130377203494
 20
-12.77159925848147
 30
0.0
 11
24.43885465448463
 21
-12.77159925848144
 31
0.0
  0
LINE
  5
4C
330
22
100
AcDbEntity
  8
0
100
AcDbLine
 10
3.599730896781125
 20
-4.771599258481472
 30
0.0
 11
2.599730896781125
 21
-4.771599258481472
 31
0.0
  0
LINE
  5
4D
330
22
100
AcDbEntity
  8
0
100
AcDbLine
 10
22.59973089678116
 20
-8.771599258481472
 30
0.0
 11
18.59973089678115
 21
-8.771599258481472
 31
0.0
  0
LINE
  5
4E
330
22
100
AcDbEntity
  8
0
100
AcDbLine
 10
22.59973089678116
 20
-5.771599258481472
 30
0.0
 11
18.59973089678115
 21
-5.771599258481472
 31
0.0
  0
LINE
  5
4F
330
22
100
AcDbEntity
  8
0
100
AcDbLine
 10
22.59973089678116
 20
-4.771599258481472
 30
0.0
 11
17.59973089678115
 21
-4.771599258481472
 31
0.0
  0
LINE
  5
50
330
22
100
AcDbEntity
  8
0
100
AcDbLine
 10
18.59973089678115
 20
-5.771599258481472
 30
0.0
 11
18.59973089678115
 21
-8.771599258481472
 31
0.0
  0
ARC
  5
51
330
22
100
AcDbEntity
  8
0
100
AcDbCircle
 10
22.59973089678116
 20
-7.271599258481472
 30
0.0
 40
1.5
100
AcDbArc
 50
270.0
 51
90.0
  0
ENDBLK
  5
52
330
22
100
AcDbEntity
  8
0
100
AcDbBlockEnd
  0
BLOCK
  5
1B93
330
1B92
100
AcDbEntity
  8
0
100
AcDbBlockBegin
  2
*X1
 70
     1
 10
0.0
 20
0.0
 30
0.0
  3
*X1
  1

  0
LINE
  5
1B94
330
1B92
100
AcDbEntity
  8
0
 62
     0
100
AcDbLine
 10
286.2287668622789
 20
412.3927329500299
 30
0.0
 11
283.7287668622789
 21
414.89273295003
 31
0.0
  0
LINE
  5
1B95
330
1B92
100
AcDbEntity
  8
0
 62
     0
100
AcDbLine
 10
286.2287668622789
 20
409.5643058252838
 30
0.0
 11
283.7287668622789
 21
412.0643058252838
 31
0.0
  0
LINE
  5
1B96
330
1B92
100
AcDbEntity
  8
0
 62
     0
100
AcDbLine
 10
286.2287668622788
 20
406.7358787005376
 30
0.0
 11
283.7287668622789
 21
409.2358787005376
 31
0.0
  0
LINE
  5
1B97
330
1B92
100
AcDbEntity
  8
0
 62
     0
100
AcDbLine
 10
286.2287668622788
 20
403.9074515757913
 30
0.0
 11
283.7287668622789
 21
406.4074515757914
 31
0.0
  0
LINE
  5
1B98
330
1B92
100
AcDbEntity
  8
0
 62
     0
100
AcDbLine
 10
286.1273844700569
 20
401.1804068432671
 30
0.0
 11
283.7287668622789
 21
403.5790244510452
 31
0.0
  0
LINE
  5
1B99
330
1B92
100
AcDbEntity
  8
0
 62
     0
100
AcDbLine
 10
286.2287668622789
 20
415.2211600747761
 30
0.0
 11
283.7287668622789
 21
417.7211600747762
 31
0.0
  0
LINE
  5
1B9A
330
1B92
100
AcDbEntity
  8
0
 62
     0
100
AcDbLine
 10
286.2287668622789
 20
418.0495871995223
 30
0.0
 11
283.7287668622789
 21
420.5495871995223
 31
0.0
  0
LINE
  5
1B9B
330
1B92
100
AcDbEntity
  8
0
 62
     0
100
AcDbLine
 10
286.2287668622789
 20
420.8780143242685
 30
0.0
 11
283.7287668622789
 21
423.3780143242685
 31
0.0
  0
LINE
  5
1B9C
330
1B92
100
AcDbEntity
  8
0
 62
     0
100
AcDbLine
 10
286.2287668622789
 20
423.7064414490147
 30
0.0
 11
283.7287668622789
 21
426.2064414490147
 31
0.0
  0
LINE
  5
1B9D
330
1B92
100
AcDbEntity
  8
0
 62
     0
100
AcDbLine
 10
286.2287668622789
 20
426.5348685737608
 30
0.0
 11
285.6468006803023
 21
427.1168347557374
 31
0.0
  0
ENDBLK
  5
1B9E
330
1B92
100
AcDbEntity
  8
0
100
AcDbBlockEnd
  0
BLOCK
  5
1E42
330
1E37
100
AcDbEntity
  8
0
100
AcDbBlockBegin
  2
*D2
 70
     1
 10
0.0
 20
0.0
 30
0.0
  3
*D2
  1

  0
LINE
  5
207B
330
1E37
100
AcDbEntity
  8
BEM
 62
     0
370
    -2
100
AcDbLine
 10
280.858456312721
 20
417.456930509075
 30
0.0
 11
273.858456312721
 21
417.456930509075
 31
0.0
  0
LINE
  5
207C
330
1E37
100
AcDbEntity
  8
BEM
 62
     0
370
    -2
100
AcDbLine
 10
297.358456312721
 20
417.456930509075
 30
0.0
 11
322.0917896460544
 21
417.456930509075
 31
0.0
  0
LINE
  5
207D
330
1E37
100
AcDbEntity
  8
BEM
 62
     0
370
    -2
100
AcDbLine
 10
287.8584563127211
 20
417.456930509075
 30
0.0
 11
290.3584563127211
 21
417.456930509075
 31
0.0
  0
SOLID
  5
207E
330
1E37
100
AcDbEntity
  8
BEM
 62
     0
100
AcDbTrace
 10
280.858456312721
 20
418.6235971757417
 30
0.0
 11
280.858456312721
 21
416.2902638424084
 31
0.0
 12
287.8584563127211
 22
417.456930509075
 32
0.0
 13
287.8584563127211
 23
417.456930509075
 33
0.0
  0
SOLID
  5
207F
330
1E37
100
AcDbEntity
  8
BEM
 62
     0
100
AcDbTrace
 10
297.358456312721
 20
418.6235971757417
 30
0.0
 11
297.358456312721
 21
416.2902638424084
 31
0.0
 12
290.3584563127211
 22
417.456930509075
 32
0.0
 13
290.3584563127211
 23
417.456930509075
 33
0.0
  0
MTEXT
  5
2080
330
1E37
100
AcDbEntity
  8
BEM
 62
     1
100
AcDbMText
 10
313.2251229793877
 20
423.956930509075
 30
0.0
 40
7.0
 41
0.0
 71
     5
 72
     1
  1
\A1;2.5
 73
     1
 44
1.0
  0
POINT
  5
2081
330
1E37
100
AcDbEntity
  8
DEFPOINTS
 62
     0
100
AcDbPoint
 10
287.8584563127211
 20
417.456930509075
 30
0.0
  0
POINT
  5
2082
330
1E37
100
AcDbEntity
  8
DEFPOINTS
 62
     0
100
AcDbPoint
 10
290.3584563127211
 20
417.456930509075
 30
0.0
  0
POINT
  5
2083
330
1E37
100
AcDbEntity
  8
DEFPOINTS
 62
     0
100
AcDbPoint
 10
290.3584563127211
 20
417.456930509075
 30
0.0
  0
ENDBLK
  5
1E43
330
1E37
100
AcDbEntity
  8
0
100
AcDbBlockEnd
  0
BLOCK
  5
1EAA
330
1E9F
100
AcDbEntity
  8
0
100
AcDbBlockBegin
  2
*D3
 70
     1
 10
0.0
 20
0.0
 30
0.0
  3
*D3
  1

  0
LINE
  5
1FBF
330
1E9F
100
AcDbEntity
  8
BEM
 62
     0
370
    -2
100
AcDbLine
 10
105.8584563127211
 20
224.3277723453577
 30
0.0
 11
105.8584563127211
 21
189.988121015659
 31
0.0
  0
LINE
  5
1FC0
330
1E9F
100
AcDbEntity
  8
BEM
 62
     0
370
    -2
100
AcDbLine
 10
315.8584563127212
 20
224.3277723453577
 30
0.0
 11
315.8584563127212
 21
189.988121015659
 31
0.0
  0
LINE
  5
1FC1
330
1E9F
100
AcDbEntity
  8
BEM
 62
     0
370
    -2
100
AcDbLine
 10
112.8584563127211
 20
191.988121015659
 30
0.0
 11
308.8584563127211
 21
191.988121015659
 31
0.0
  0
SOLID
  5
1FC2
330
1E9F
100
AcDbEntity
  8
BEM
 62
     0
100
AcDbTrace
 10
112.8584563127211
 20
193.1547876823257
 30
0.0
 11
112.8584563127211
 21
190.8214543489924
 31
0.0
 12
105.8584563127211
 22
191.988121015659
 32
0.0
 13
105.8584563127211
 23
191.988121015659
 33
0.0
  0
SOLID
  5
1FC3
330
1E9F
100
AcDbEntity
  8
BEM
 62
     0
100
AcDbTrace
 10
308.8584563127211
 20
193.1547876823257
 30
0.0
 11
308.8584563127211
 21
190.8214543489924
 31
0.0
 12
315.8584563127212
 22
191.988121015659
 32
0.0
 13
315.8584563127212
 23
191.988121015659
 33
0.0
  0
MTEXT
  5
1FC4
330
1E9F
100
AcDbEntity
  8
BEM
 62
     1
100
AcDbMText
 10
210.8584563127211
 20
198.488121015659
 30
0.0
 40
7.0
 41
0.0
 71
     5
 72
     1
  1
\A1;%%C210
 73
     1
 44
1.0
  0
POINT
  5
1FC5
330
1E9F
100
AcDbEntity
  8
DEFPOINTS
 62
     0
100
AcDbPoint
 10
105.8584563127211
 20
226.3277723453577
 30
0.0
  0
POINT
  5
1FC6
330
1E9F
100
AcDbEntity
  8
DEFPOINTS
 62
     0
100
AcDbPoint
 10
315.8584563127212
 20
226.3277723453577
 30
0.0
  0
POINT
  5
1FC7
330
1E9F
100
AcDbEntity
  8
DEFPOINTS
 62
     0
100
AcDbPoint
 10
315.8584563127212
 20
191.988121015659
 30
0.0
  0
ENDBLK
  5
1EAB
330
1E9F
100
AcDbEntity
  8
0
100
AcDbBlockEnd
  0
BLOCK
  5
1FE6
330
1FDC
100
AcDbEntity
  8
0
100
AcDbBlockBegin
  2
*D4
 70
     1
 10
0.0
 20
0.0
 30
0.0
  3
*D4
  1

  0
LINE
  5
208D
330
1FDC
100
AcDbEntity
  8
BEM
 62
     0
370
    -2
100
AcDbLine
 10
122.1000115153149
 20
515.5438739543784
 30
0.0
 11
73.39205577456057
 21
515.5438739543784
 31
0.0
  0
LINE
  5
208E
330
1FDC
100
AcDbEntity
  8
BEM
 62
     0
370
    -2
100
AcDbLine
 10
105.6082295832395
 20
215.5438739543785
 30
0.0
 11
73.3920557745605
 21
215.5438739543785
 31
0.0
  0
LINE
  5
208F
330
1FDC
100
AcDbEntity
  8
BEM
 62
     0
370
    -2
100
AcDbLine
 10
75.39205577456058
 20
508.5438739543784
 30
0.0
 11
75.3920557745605
 21
222.5438739543785
 31
0.0
  0
SOLID
  5
2090
330
1FDC
100
AcDbEntity
  8
BEM
 62
     0
100
AcDbTrace
 10
74.2253891078939
 20
508.5438739543784
 30
0.0
 11
76.55872244122725
 21
508.5438739543784
 31
0.0
 12
75.39205577456058
 22
515.5438739543784
 32
0.0
 13
75.39205577456058
 23
515.5438739543784
 33
0.0
  0
SOLID
  5
2091
330
1FDC
100
AcDbEntity
  8
BEM
 62
     0
100
AcDbTrace
 10
74.22538910789383
 20
222.5438739543785
 30
0.0
 11
76.55872244122718
 21
222.5438739543785
 31
0.0
 12
75.3920557745605
 22
215.5438739543785
 32
0.0
 13
75.3920557745605
 23
215.5438739543785
 33
0.0
  0
MTEXT
  5
2092
330
1FDC
100
AcDbEntity
  8
BEM
 62
     1
100
AcDbMText
 10
68.89205577456049
 20
365.5438739543785
 30
0.0
 40
7.0
 41
0.0
 71
     5
 72
     1
  1
\A1;300
 11
0.0000000000000001
 21
1.0
 31
0.0
 73
     1
 44
1.0
  0
POINT
  5
2093
330
1FDC
100
AcDbEntity
  8
DEFPOINTS
 62
     0
100
AcDbPoint
 10
124.1000115153149
 20
515.5438739543784
 30
0.0
  0
POINT
  5
2094
330
1FDC
100
AcDbEntity
  8
DEFPOINTS
 62
     0
100
AcDbPoint
 10
107.6082295832395
 20
215.5438739543785
 30
0.0
  0
POINT
  5
2095
330
1FDC
100
AcDbEntity
  8
DEFPOINTS
 62
     0
100
AcDbPoint
 10
75.3920557745605
 20
215.5438739543785
 30
0.0
  0
ENDBLK
  5
1FE7
330
1FDC
100
AcDbEntity
  8
0
100
AcDbBlockEnd
  0
BLOCK
  5
2127
330
211D
100
AcDbEntity
  8
0
100
AcDbBlockBegin
  2
*D5
 70
     1
 10
0.0
 20
0.0
 30
0.0
  3
*D5
  1

  0
LINE
  5
2159
330
211D
100
AcDbEntity
  8
BEM
 62
     0
370
    -2
100
AcDbLine
 10
305.9584563127212
 20
257.4410142627858
 30
0.0
 11
298.9584563127212
 21
257.4410142627858
 31
0.0
  0
LINE
  5
215A
330
211D
100
AcDbEntity
  8
BEM
 62
     0
370
    -2
100
AcDbLine
 10
322.8584563127212
 20
257.4410142627858
 30
0.0
 11
347.3251229793878
 21
257.4410142627858
 31
0.0
  0
LINE
  5
215B
330
211D
100
AcDbEntity
  8
BEM
 62
     0
370
    -2
100
AcDbLine
 10
312.9584563127212
 20
257.4410142627858
 30
0.0
 11
315.8584563127212
 21
257.4410142627858
 31
0.0
  0
SOLID
  5
215C
330
211D
100
AcDbEntity
  8
BEM
 62
     0
100
AcDbTrace
 10
305.9584563127212
 20
258.6076809294525
 30
0.0
 11
305.9584563127212
 21
256.2743475961191
 31
0.0
 12
312.9584563127212
 22
257.4410142627858
 32
0.0
 13
312.9584563127212
 23
257.4410142627858
 33
0.0
  0
SOLID
  5
215D
330
211D
100
AcDbEntity
  8
BEM
 62
     0
100
AcDbTrace
 10
322.8584563127212
 20
258.6076809294525
 30
0.0
 11
322.8584563127212
 21
256.2743475961191
 31
0.0
 12
315.8584563127212
 22
257.4410142627858
 32
0.0
 13
315.8584563127212
 23
257.4410142627858
 33
0.0
  0
MTEXT
  5
215E
330
211D
100
AcDbEntity
  8
BEM
 62
     1
100
AcDbMText
 10
338.5917896460545
 20
263.9410142627858
 30
0.0
 40
7.0
 41
0.0
 71
     5
 72
     1
  1
\A1;2.9
 73
     1
 44
1.0
  0
POINT
  5
215F
330
211D
100
AcDbEntity
  8
DEFPOINTS
 62
     0
100
AcDbPoint
 10
312.9584563127212
 20
257.4410142627858
 30
0.0
  0
POINT
  5
2160
330
211D
100
AcDbEntity
  8
DEFPOINTS
 62
     0
100
AcDbPoint
 10
315.8584563127212
 20
257.4410142627858
 30
0.0
  0
POINT
  5
2161
330
211D
100
AcDbEntity
  8
DEFPOINTS
 62
     0
100
AcDbPoint
 10
315.8584563127212
 20
257.4410142627858
 30
0.0
  0
ENDBLK
  5
2128
330
211D
100
AcDbEntity
  8
0
100
AcDbBlockEnd
  0
BLOCK
  5
2133
330
2129
100
AcDbEntity
  8
0
100
AcDbBlockBegin
  2
*D6
 70
     1
 10
0.0
 20
0.0
 30
0.0
  3
*D6
  1

  0
LINE
  5
2189
330
2129
100
AcDbEntity
  8
BEM
 62
     0
370
    -2
100
AcDbLine
 10
105.6082295832395
 20
215.5438739543785
 30
0.0
 11
88.45888473732756
 21
215.5438739543785
 31
0.0
  0
LINE
  5
218A
330
2129
100
AcDbEntity
  8
BEM
 62
     0
370
    -2
100
AcDbLine
 10
103.8315185257358
 20
335.5438739543785
 30
0.0
 11
88.4588847373276
 21
335.5438739543785
 31
0.0
  0
LINE
  5
218B
330
2129
100
AcDbEntity
  8
BEM
 62
     0
370
    -2
100
AcDbLine
 10
90.45888473732757
 20
222.5438739543785
 30
0.0
 11
90.45888473732759
 21
328.5438739543785
 31
0.0
  0
SOLID
  5
218C
330
2129
100
AcDbEntity
  8
BEM
 62
     0
100
AcDbTrace
 10
89.2922180706609
 20
222.5438739543785
 30
0.0
 11
91.62555140399424
 21
222.5438739543785
 31
0.0
 12
90.45888473732757
 22
215.5438739543785
 32
0.0
 13
90.45888473732757
 23
215.5438739543785
 33
0.0
  0
SOLID
  5
218D
330
2129
100
AcDbEntity
  8
BEM
 62
     0
100
AcDbTrace
 10
89.29221807066092
 20
328.5438739543785
 30
0.0
 11
91.62555140399426
 21
328.5438739543785
 31
0.0
 12
90.45888473732759
 22
335.5438739543785
 32
0.0
 13
90.45888473732759
 23
335.5438739543785
 33
0.0
  0
MTEXT
  5
218E
330
2129
100
AcDbEntity
  8
BEM
 62
     1
100
AcDbMText
 10
83.95888473732753
 20
275.5438739543785
 30
0.0
 40
7.0
 41
0.0
 71
     5
 72
     1
  1
\A1;120
 11
0.0000000000000001
 21
1.0
 31
0.0
 73
     1
 44
1.0
  0
POINT
  5
218F
330
2129
100
AcDbEntity
  8
DEFPOINTS
 62
     0
100
AcDbPoint
 10
107.6082295832395
 20
215.5438739543785
 30
0.0
  0
POINT
  5
2190
330
2129
100
AcDbEntity
  8
DEFPOINTS
 62
     0
100
AcDbPoint
 10
105.8315185257358
 20
335.5438739543785
 30
0.0
  0
POINT
  5
2191
330
2129
100
AcDbEntity
  8
DEFPOINTS
 62
     0
100
AcDbPoint
 10
90.45888473732759
 20
335.5438739543785
 30
0.0
  0
ENDBLK
  5
2134
330
2129
100
AcDbEntity
  8
0
100
AcDbBlockEnd
  0
BLOCK
  5
21CC
330
21C2
100
AcDbEntity
  8
0
100
AcDbBlockBegin
  2
*D7
 70
     1
 10
0.0
 20
0.0
 30
0.0
  3
*D7
  1

  0
LINE
  5
21D7
330
21C2
100
AcDbEntity
  8
BEM
 62
     0
370
    -2
100
AcDbLine
 10
131.3584563127211
 20
401.444169643394
 30
0.0
 11
131.3584563127211
 21
352.7900945246202
 31
0.0
  0
LINE
  5
21D8
330
21C2
100
AcDbEntity
  8
BEM
 62
     0
370
    -2
100
AcDbLine
 10
290.3584563127209
 20
401.4441696433941
 30
0.0
 11
290.3584563127209
 21
352.7900945246202
 31
0.0
  0
LINE
  5
21D9
330
21C2
100
AcDbEntity
  8
BEM
 62
     0
370
    -2
100
AcDbLine
 10
138.3584563127211
 20
354.7900945246202
 30
0.0
 11
283.3584563127209
 21
354.7900945246202
 31
0.0
  0
SOLID
  5
21DA
330
21C2
100
AcDbEntity
  8
BEM
 62
     0
100
AcDbTrace
 10
138.3584563127211
 20
355.9567611912868
 30
0.0
 11
138.3584563127211
 21
353.6234278579535
 31
0.0
 12
131.3584563127211
 22
354.7900945246202
 32
0.0
 13
131.3584563127211
 23
354.7900945246202
 33
0.0
  0
SOLID
  5
21DB
330
21C2
100
AcDbEntity
  8
BEM
 62
     0
100
AcDbTrace
 10
283.3584563127209
 20
355.9567611912868
 30
0.0
 11
283.3584563127209
 21
353.6234278579535
 31
0.0
 12
290.3584563127209
 22
354.7900945246202
 32
0.0
 13
290.3584563127209
 23
354.7900945246202
 33
0.0
  0
MTEXT
  5
21DC
330
21C2
100
AcDbEntity
  8
BEM
 62
     1
100
AcDbMText
 10
210.8584563127211
 20
361.2900945246201
 30
0.0
 40
7.0
 41
0.0
 71
     5
 72
     1
  1
\A1;%%c159
 73
     1
 44
1.0
  0
POINT
  5
21DD
330
21C2
100
AcDbEntity
  8
DEFPOINTS
 62
     0
100
AcDbPoint
 10
131.3584563127211
 20
403.444169643394
 30
0.0
  0
POINT
  5
21DE
330
21C2
100
AcDbEntity
  8
DEFPOINTS
 62
     0
100
AcDbPoint
 10
290.3584563127209
 20
403.444169643394
 30
0.0
  0
POINT
  5
21DF
330
21C2
100
AcDbEntity
  8
DEFPOINTS
 62
     0
100
AcDbPoint
 10
290.3584563127209
 20
354.7900945246202
 30
0.0
  0
ENDBLK
  5
21CD
330
21C2
100
AcDbEntity
  8
0
100
AcDbBlockEnd
  0
ENDSEC
  0
SECTION
  2
ENTITIES
  0
LINE
  5
57
330
1E
100
AcDbEntity
  8
STEMPEL
100
AcDbLine
 10
410.0
 20
110.0
 30
0.0
 11
39.99999999999997
 21
110.0
 31
0.0
  0
LINE
  5
58
330
1E
100
AcDbEntity
  8
STEMPEL
100
AcDbLine
 10
136.0000000000001
 20
109.9999999999999
 30
0.0
 11
136.0
 21
9.999999999999971
 31
0.0
  0
LINE
  5
59
330
1E
100
AcDbEntity
  8
STEMPEL
100
AcDbLine
 10
220.0
 20
110.0
 30
0.0
 11
220.0
 21
9.999999999999971
 31
0.0
  0
LINE
  5
5A
330
1E
100
AcDbEntity
  8
STEMPEL
100
AcDbLine
 10
332.0
 20
109.9999999999997
 30
0.0
 11
332.0
 21
40.0
 31
0.0
  0
LINE
  5
5B
330
1E
100
AcDbEntity
  8
STEMPEL
100
AcDbLine
 10
135.9999999999999
 20
29.99999999999997
 30
0.0
 11
39.99999999999997
 21
29.99999999999997
 31
0.0
  0
LINE
  5
5C
330
1E
100
AcDbEntity
  8
STEMPEL
100
AcDbLine
 10
410.0
 20
40.0
 30
0.0
 11
136.0000000000001
 21
39.99999999999997
 31
0.0
  0
LINE
  5
5D
330
1E
100
AcDbEntity
  8
STEMPEL
100
AcDbLine
 10
410.0
 20
80.0
 30
0.0
 11
136.0000000000001
 21
79.99999999999994
 31
0.0
  0
LINE
  5
5E
330
1E
100
AcDbEntity
  8
VOLL
100
AcDbLine
 10
54.00000000000009
 20
110.0
 30
0.0
 11
53.99999999999997
 21
9.999999999999971
 31
0.0
  0
LINE
  5
5F
330
1E
100
AcDbEntity
  8
VOLL
100
AcDbLine
 10
94.00000000000011
 20
109.9999999999999
 30
0.0
 11
94.0
 21
9.999999999999971
 31
0.0
  0
LINE
  5
60
330
1E
100
AcDbEntity
  8
VOLL
100
AcDbLine
 10
114.0000000000001
 20
109.9999999999999
 30
0.0
 11
114.0
 21
9.999999999999971
 31
0.0
  0
LINE
  5
61
330
1E
100
AcDbEntity
  8
VOLL
100
AcDbLine
 10
154.0000000000001
 20
79.99999999999994
 30
0.0
 11
154.0000000000001
 21
39.99999999999997
 31
0.0
  0
LINE
  5
62
330
1E
100
AcDbEntity
  8
VOLL
100
AcDbLine
 10
180.0000000000001
 20
109.9999999999998
 30
0.0
 11
180.0
 21
39.99999999999997
 31
0.0
  0
LINE
  5
63
330
1E
100
AcDbEntity
  8
HILF
100
AcDbLine
 10
40.00000000000008
 20
100.0
 30
0.0
 11
136.0000000000001
 21
100.0
 31
0.0
  0
LINE
  5
64
330
1E
100
AcDbEntity
  8
HILF
100
AcDbLine
 10
40.00000000000008
 20
90.00000000000005
 30
0.0
 11
136.0000000000001
 21
90.00000000000005
 31
0.0
  0
LINE
  5
65
330
1E
100
AcDbEntity
  8
HILF
100
AcDbLine
 10
40.00000000000008
 20
79.99999999999994
 30
0.0
 11
136.0000000000001
 21
79.99999999999994
 31
0.0
  0
LINE
  5
66
330
1E
100
AcDbEntity
  8
HILF
100
AcDbLine
 10
40.00000000000008
 20
69.99999999999994
 30
0.0
 11
136.0000000000001
 21
69.99999999999994
 31
0.0
  0
LINE
  5
67
330
1E
100
AcDbEntity
  8
HILF
100
AcDbLine
 10
40.00000000000008
 20
59.99999999999997
 30
0.0
 11
136.0000000000001
 21
59.99999999999997
 31
0.0
  0
LINE
  5
68
330
1E
100
AcDbEntity
  8
HILF
100
AcDbLine
 10
40.00000000000008
 20
49.99999999999997
 30
0.0
 11
136.0000000000001
 21
49.99999999999997
 31
0.0
  0
LINE
  5
69
330
1E
100
AcDbEntity
  8
HILF
100
AcDbLine
 10
40.00000000000008
 20
39.99999999999997
 30
0.0
 11
136.0000000000001
 21
39.99999999999997
 31
0.0
  0
LINE
  5
6A
330
1E
100
AcDbEntity
  8
HILF
100
AcDbLine
 10
136.0000000000001
 20
69.99999999999994
 30
0.0
 11
220.0
 21
69.99999999999994
 31
0.0
  0
LINE
  5
6B
330
1E
100
AcDbEntity
  8
HILF
100
AcDbLine
 10
136.0000000000001
 20
59.99999999999997
 30
0.0
 11
220.0
 21
59.99999999999997
 31
0.0
  0
LINE
  5
6C
330
1E
100
AcDbEntity
  8
HILF
100
AcDbLine
 10
136.0000000000001
 20
49.99999999999997
 30
0.0
 11
220.0
 21
49.99999999999997
 31
0.0
  0
LINE
  5
6D
330
1E
100
AcDbEntity
  8
HILF
100
AcDbLine
 10
224.7736801096948
 20
84.03758247564139
 30
0.0
 11
324.8353916556311
 21
84.03758247564139
 31
0.0
  0
LINE
  5
6E
330
1E
100
AcDbEntity
  8
HILF
100
AcDbLine
 10
224.7736801096948
 20
69.99999999999994
 30
0.0
 11
324.835391655631
 21
69.99999999999994
 31
0.0
  0
LINE
  5
6F
330
1E
100
AcDbEntity
  8
HILF
100
AcDbLine
 10
224.7736801096948
 20
59.99999999999997
 30
0.0
 11
324.835391655631
 21
59.99999999999997
 31
0.0
  0
LINE
  5
70
330
1E
100
AcDbEntity
  8
HILF
100
AcDbLine
 10
224.7736801096948
 20
49.99999999999997
 30
0.0
 11
324.835391655631
 21
49.99999999999997
 31
0.0
  0
LINE
  5
71
330
1E
100
AcDbEntity
  8
VOLL
100
AcDbLine
 10
332.0
 20
60.0
 30
0.0
 11
410.0
 21
60.0
 31
0.0
  0
LINE
  5
72
330
1E
100
AcDbEntity
  8
HILF
100
AcDbLine
 10
336.7238616296993
 20
83.77983636955827
 30
0.0
 11
404.8588839326728
 21
83.77983636955827
 31
0.0
  0
LINE
  5
73
330
1E
100
AcDbEntity
  8
HILF
100
AcDbLine
 10
223.4909699289885
 20
14.89398258028314
 30
0.0
 11
404.8588839326728
 21
14.89398258028314
 31
0.0
  0
TEXT
  5
74
330
1E
100
AcDbEntity
  8
TEXT
100
AcDbText
 10
62.76382766213005
 20
18.67381894984132
 30
0.0
 40
4.0
  1
Änderung
 41
0.8
  7
GREEKS
 72
     1
 11
73.5066848049872
 21
18.67381894984132
 31
0.0
100
AcDbText
  0
TEXT
  5
75
330
1E
100
AcDbEntity
  8
TEXT
100
AcDbText
 10
143.5163572150377
 20
102.4620895087088
 30
0.0
 40
5.0
  1
Maßstab
 41
0.8
  7
GREEKS
100
AcDbText
  0
TEXT
  5
76
330
1E
100
AcDbEntity
  8
TEXT
100
AcDbText
 10
184.2858954734051
 20
102.4184168434819
 30
0.0
 40
5.0
  1
Zul. Abw.
 41
0.8
  7
GREEKS
100
AcDbText
  0
TEXT
  5
77
330
1E
100
AcDbEntity
  8
TEXT
100
AcDbText
 10
224.877940380901
 20
102.5489328011779
 30
0.0
 40
5.0
  1
Benennung
 41
0.8
  7
GREEKS
100
AcDbText
  0
TEXT
  5
78
330
1E
100
AcDbEntity
  8
TEXT
100
AcDbText
 10
336.178754957634
 20
102.3132034537136
 30
0.0
 40
5.0
  1
Zeichnungs Nr.
 41
0.8
  7
GREEKS
100
AcDbText
  0
TEXT
  5
79
330
1E
100
AcDbEntity
  8
TEXT
100
AcDbText
 10
224.742238391136
 20
30.84560570193057
 30
0.0
 40
5.0
  1
Bauvorhaben
 41
0.8
  7
GREEKS
100
AcDbText
  0
TEXT
  5
7A
330
1E
100
AcDbEntity
  8
TEXT
100
AcDbText
 10
336.7238616296993
 20
73.1811823709997
 30
0.0
 40
5.0
  1
Ersatz für:
 41
0.8
  7
GREEKS
100
AcDbText
  0
TEXT
  5
7B
330
1E
100
AcDbEntity
  8
TEXT
100
AcDbText
 10
48.26641107045756
 20
13.65465846027192
 30
0.0
 40
4.0
  1
Index
 50
90.0
 41
0.8
  7
GREEKS
100
AcDbText
  0
TEXT
  5
7C
330
1E
100
AcDbEntity
  8
TEXT
100
AcDbText
 10
99.58055193295063
 20
18.6715626933981
 30
0.0
 40
4.0
  1
Tag
 41
0.8
  7
GREEKS
 72
     1
 11
103.3138852662839
 21
18.6715626933981
 31
0.0
100
AcDbText
  0
TEXT
  5
7D
330
1E
100
AcDbEntity
  8
TEXT
100
AcDbText
 10
119.0122744386592
 20
18.59324216966408
 30
0.0
 40
4.0
  1
Name
 41
0.8
  7
GREEKS
 72
     1
 11
125.3360839624688
 21
18.59324216966408
 31
0.0
100
AcDbText
  0
TEXT
  5
7E
330
1E
100
AcDbEntity
  8
TEXT
100
AcDbText
 10
162.3311673153651
 20
73.31880501229926
 30
0.0
 40
4.0
  1
Tag
 41
0.8
  7
GREEKS
100
AcDbText
  0
TEXT
  5
7F
330
1E
100
AcDbEntity
  8
TEXT
100
AcDbText
 10
192.4626584226295
 20
73.30961091915225
 30
0.0
 40
4.0
  1
Name
 41
0.8
  7
GREEKS
100
AcDbText
  0
TEXT
  5
80
330
1E
100
AcDbEntity
  8
TEXT
100
AcDbText
 10
137.5836127167615
 20
63.62990369617964
 30
0.0
 40
4.0
  1
Gez.
 41
0.8
  7
GREEKS
100
AcDbText
  0
TEXT
  5
81
330
1E
100
AcDbEntity
  8
TEXT
100
AcDbText
 10
137.5515086571672
 20
53.68926291428377
 30
0.0
 40
4.0
  1
Gepr.
 41
0.8
  7
GREEKS
100
AcDbText
  0
TEXT
  5
82
330
1E
100
AcDbEntity
  8
TEXT
100
AcDbText
 10
137.6006777387304
 20
43.52946389649807
 30
0.0
 40
4.0
  1
Norm.
 41
0.8
  7
GREEKS
100
AcDbText
  0
LINE
  5
83
330
1E
100
AcDbEntity
  8
STEMPEL
100
AcDbLine
 10
49.99999999999989
 20
10.0
 30
0.0
 11
410.0
 21
10.0
 31
0.0
  0
TEXT
  5
84
330
1E
100
AcDbEntity
  8
TEXT
100
AcDbText
 10
337.2400861497006
 20
52.07416177878602
 30
0.0
 40
5.0
  1
ersetzt durch:
 41
0.8
  7
GREEKS
100
AcDbText
  0
LINE
  5
85
330
1E
100
AcDbEntity
  8
STEMPEL
100
AcDbLine
 10
410.0
 20
10.0
 30
0.0
 11
39.99999999999989
 21
10.0
 31
0.0
  0
LINE
  5
86
330
1E
100
AcDbEntity
  8
STEMPEL
100
AcDbLine
 10
410.0
 20
10.0
 30
0.0
 11
410.0
 21
584.0
 31
0.0
  0
LINE
  5
87
330
1E
100
AcDbEntity
  8
STEMPEL
100
AcDbLine
 10
40.0
 20
10.0
 30
0.0
 11
39.99999999999989
 21
584.0
 31
0.0
  0
LINE
  5
88
330
1E
100
AcDbEntity
  8
STEMPEL
100
AcDbLine
 10
410.0
 20
584.0
 30
0.0
 11
39.99999999999989
 21
584.0
 31
0.0
  0
LINE
  5
89
330
1E
100
AcDbEntity
  8
HILF
100
AcDbLine
 10
0.0
 20
0.0
 30
0.0
 11
-0.0000000000001137
 21
594.0
 31
0.0
  0
LINE
  5
8A
330
1E
100
AcDbEntity
  8
HILF
100
AcDbLine
 10
419.9999999999999
 20
594.0000000000002
 30
0.0
 11
0.0
 21
594.0
 31
0.0
  0
LINE
  5
8B
330
1E
100
AcDbEntity
  8
HILF
100
AcDbLine
 10
420.0
 20
0.0
 30
0.0
 11
0.0
 21
0.0
 31
0.0
  0
LINE
  5
8C
330
1E
100
AcDbEntity
  8
HILF
100
AcDbLine
 10
31.08767135713856
 20
297.0
 30
0.0
 11
0.0000000000001137
 21
297.0
 31
0.0
  0
TEXT
  5
8D
330
1E
100
AcDbEntity
  8
TEXT
100
AcDbText
 10
138.622109822104
 20
73.14025471151666
 30
0.0
 40
4.0
  1
2007
 41
0.8
  7
GREEKS
100
AcDbText
  0
LINE
  5
8E
330
1E
100
AcDbEntity
  8
HILF
100
AcDbLine
 10
420.0
 20
-0.0000000000001137
 30
0.0
 11
419.9999999999999
 21
594.0
 31
0.0
  0
TEXT
  5
8F
330
1E
100
AcDbEntity
  8
VOLL
100
AcDbText
 10
78.07675471698113
 20
31.02594776470585
 30
0.0
 40
1.8
  1

  7
GREEKS
100
AcDbText
  0
TEXT
  5
90
330
1E
100
AcDbEntity
  8
TEXT
100
AcDbText
 10
41.85509950977674
 20
111.6719999999999
 30
0.0
 40
5.0
  1
Erstellt mit AUTOCAD 2004
 41
0.8
  7
GREEKS
100
AcDbText
  0
TEXT
  5
91
330
1E
100
AcDbEntity
  8
TEXT
100
AcDbText
 10
194.4216048581257
 20
63.0896391972351
 30
0.0
 40
4.0
  1
Koeh
 41
0.8
  7
GREEKS
 72
     1
 11
199.6787477152685
 21
63.0896391972351
 31
0.0
100
AcDbText
  0
TEXT
  5
92
330
1E
100
AcDbEntity
  8
TEXT
 62
     1
100
AcDbText
 10
346.0171707687774
 20
88.14901428913959
 30
0.0
 40
7.0
  1
00670150W
 41
0.8
  7
GREEKS
 72
     1
 11
369.4838374354441
 21
88.14901428913959
 31
0.0
100
AcDbText
  0
TEXT
  5
93
330
1E
100
AcDbEntity
  8
TEXT
 62
     1
100
AcDbText
 10
150.5006306481887
 20
88.14901428913959
 30
0.0
 40
7.0
  1
1:2
 41
0.8
  7
GREEKS
100
AcDbText
  0
TEXT
  5
94
330
1E
100
AcDbEntity
  8
TEXT
100
AcDbText
 10
160.7037590129979
 20
63.10765040825732
 30
0.0
 40
4.0
  1
31.08.
 41
0.8
  7
GREEKS
 72
     1
 11
167.4085209177598
 21
63.10765040825732
 31
0.0
100
AcDbText
  0
TEXT
  5
95
330
1E
100
AcDbEntity
  8
TEXT
 62
     1
100
AcDbText
 10
224.9416463655109
 20
87.41748789253779
 30
0.0
 40
7.0
  1
Anschlußstück DN150
 41
0.8
  7
GREEKS
100
AcDbText
  0
TEXT
  5
96
330
1E
100
AcDbEntity
  8
TEXT
100
AcDbText
 10
225.1296391125315
 20
71.50334417585288
 30
0.0
 40
5.0
  1
zum Anschluß an gußeiserne
 41
0.8
  7
GREEKS
100
AcDbText
  0
TEXT
  5
97
330
1E
100
AcDbEntity
  8
TEXT
100
AcDbText
 10
225.1296391125315
 20
62.11580706774856
 30
0.0
 40
5.0
  1
Rohre DN200
 41
0.8
  7
GREEKS
100
AcDbText
  0
TEXT
  5
98
330
1E
100
AcDbEntity
  8
TEXT
100
AcDbText
 10
225.1296391125315
 20
51.64011943042158
 30
0.0
 40
5.0
  1
EDV-Art.Nr. 00670.150X
 41
0.8
  7
GREEKS
100
AcDbText
  0
TEXT
  5
99
330
1E
100
AcDbEntity
  8
TEXT
100
AcDbText
 10
224.9837501577827
 20
42.62974153022632
 30
0.0
 40
4.0
  1
00670150W.DWG
 41
0.8
  7
GREEKS
100
AcDbText
  0
TEXT
  5
9A
330
1E
100
AcDbEntity
  8
TEXT
100
AcDbText
 10
182.626132208084
 20
90.76363841023022
 30
0.0
 40
4.0
  1
DIN EN1123-2
 41
0.8
  7
GREEKS
 72
     1
 11
199.6166083985602
 21
90.76363841023022
 31
0.0
100
AcDbText
  0
INSERT
  5
9B
330
1E
100
AcDbEntity
  8
STEMPEL
100
AcDbBlockReference
  2
LOGO
 10
140.9955485457794
 20
45.02105276448322
 30
0.0
 41
2.0
 42
2.0
 43
2.0
  0
TEXT
  5
118
330
1E
100
AcDbEntity
  8
BEM
100
AcDbText
 10
417.3022923857165
 20
10.16790107998849
 30
0.0
 40
4.0
  1
Diese Zeichnung ist urheberrechtlich geschützt und bleibt unser Eigentum. Sie darf weder ganz noch teilweise verfielfältigt und nicht an Dritte weitergegeben werden.
 50
90.0
 41
0.8
  7
GREEKS
100
AcDbText
  0
TEXT
  5
206
330
1E
100
AcDbEntity
  8
VOLL
100
AcDbText
 10
204.5695080890022
 20
483.2571800056004
 30
0.0
 40
7.0
  1
DN150
 50
90.0
 41
0.8
  7
GREEKS
100
AcDbText
  0
TEXT
  5
3F9
330
1E
100
AcDbEntity
  8
TEXT
 62
     1
100
AcDbText
 10
57.44057521500986
 20
172.7130966849377
 30
0.0
 40
7.0
  1
Rohrende leicht eingezogen
 41
0.8
  7
GREEKS
100
AcDbText
  0
TEXT
  5
1505
330
1E
100
AcDbEntity
  8
VOLL
100
AcDbText
 10
204.5695080890022
 20
255.1886717209851
 30
0.0
 40
7.0
  1
DN200
 50
90.0
 41
0.8
  7
GREEKS
100
AcDbText
  0
LINE
  5
1DAE
330
1E
100
AcDbEntity
  8
STEMPEL
100
AcDbLine
 10
291.9102655571787
 20
398.0936488315506
 30
0.0
 11
299.8584563127212
 21
385.5438739543786
 31
0.0
  0
LINE
  5
1DAF
330
1E
100
AcDbEntity
  8
STEMPEL
100
AcDbLine
 10
129.8066470682633
 20
398.0936488315506
 30
0.0
 11
121.8584563127211
 21
385.5438739543786
 31
0.0
  0
LINE
  5
1DB0
330
1E
100
AcDbEntity
  8
HILF
100
AcDbLine
 10
288.1995795177092
 20
400.5438739543785
 30
0.0
 11
133.517333107733
 21
400.5438739543786
 31
0.0
  0
LINE
  5
1DB1
330
1E
100
AcDbEntity
  8
STEMPEL
100
AcDbLine
 10
297.6169011101273
 20
515.5438739543784
 30
0.0
 11
298.0792288590038
 21
514.5524088973692
 31
0.0
  0
LINE
  5
1DB2
330
1E
100
AcDbEntity
  8
STEMPEL
100
AcDbLine
 10
301.358456312721
 20
499.7607697364448
 30
0.0
 11
301.358456312721
 21
483.4812684252248
 31
0.0
  0
ARC
  5
1DB3
330
1E
100
AcDbEntity
  8
STEMPEL
100
AcDbCircle
 10
266.358456312721
 20
499.7607697364448
 30
0.0
 40
35.0
100
AcDbArc
 50
0.0
 51
24.99999999999207
  0
ARC
  5
1DB4
330
1E
100
AcDbEntity
  8
STEMPEL
100
AcDbCircle
 10
313.3584563127211
 20
459.0438739543785
 30
0.0
 40
18.0
100
AcDbArc
 50
152.4728163794451
 51
180.0
  0
ARC
  5
1DB5
330
1E
100
AcDbEntity
  8
STEMPEL
100
AcDbCircle
 10
277.3584563127211
 20
443.9848454624455
 30
0.0
 40
18.0
100
AcDbArc
 50
325.228055968051
 51
0.0
  0
LINE
  5
1DB6
330
1E
100
AcDbEntity
  8
STEMPEL
100
AcDbLine
 10
295.358456312721
 20
459.0438739543785
 30
0.0
 11
295.358456312721
 21
443.9848454624455
 31
0.0
  0
LINE
  5
1DB7
330
1E
100
AcDbEntity
  8
STEMPEL
100
AcDbLine
 10
290.3584563127211
 20
428.0161260397743
 30
0.0
 11
290.3584563127209
 21
403.444169643394
 31
0.0
  0
LINE
  5
1DB8
330
1E
100
AcDbEntity
  8
STEMPEL
100
AcDbLine
 10
287.8584563127211
 20
429.7401734314099
 30
0.0
 11
287.8584563127211
 21
403.9001371274699
 31
0.0
  0
POLYLINE
  5
1DB9
330
1E
100
AcDbEntity
  8
HILF
100
AcDb2dPolyline
 66
     1
 10
0.0
 20
0.0
 30
0.0
 70
     2
  0
VERTEX
  5
1DBA
330
1DB9
100
AcDbEntity
  8
HILF
100
AcDbVertex
100
AcDb2dVertex
 10
290.3584563127211
 20
429.7912158209577
 30
0.0
 42
0.0455275740998254
  0
VERTEX
  5
1DBB
330
1DB9
100
AcDbEntity
  8
HILF
100
AcDbVertex
100
AcDb2dVertex
 10
284.6858525420756
 20
429.3852553997345
 30
0.0
 42
0.0682664262902726
 70
     1
  0
VERTEX
  5
1DBC
330
1DB9
100
AcDbEntity
  8
HILF
100
AcDbVertex
100
AcDb2dVertex
 10
281.051709100602
 20
428.2660308618038
 30
0.0
 42
0.0198620772156184
  0
VERTEX
  5
1DBD
330
1DB9
100
AcDbEntity
  8
HILF
100
AcDbVertex
100
AcDb2dVertex
 10
275.7490939929419
 20
425.5404031762426
 30
0.0
 42
0.0412675845645099
 70
     1
  0
VERTEX
  5
1DBE
330
1DB9
100
AcDbEntity
  8
HILF
100
AcDbVertex
100
AcDb2dVertex
 10
273.3727947727434
 20
423.925117788982
 30
0.0
 42
0.0389081937793593
  0
VERTEX
  5
1DBF
330
1DB9
100
AcDbEntity
  8
HILF
100
AcDbVertex
100
AcDb2dVertex
 10
271.4505700191269
 20
422.1080986487088
 30
0.0
 42
0.0422613436423385
 70
     1
  0
VERTEX
  5
1DC0
330
1DB9
100
AcDbEntity
  8
HILF
100
AcDbVertex
100
AcDb2dVertex
 10
269.9739322948972
 20
420.1708154012908
 30
0.0
 42
0.1087956305805215
  0
VERTEX
  5
1DC1
330
1DB9
100
AcDbEntity
  8
HILF
100
AcDbVertex
100
AcDb2dVertex
 10
268.9638734613008
 20
417.404309296757
 30
0.0
 42
0.1114655954466966
 70
     1
  0
VERTEX
  5
1DC2
330
1DB9
100
AcDbEntity
  8
HILF
100
AcDbVertex
100
AcDb2dVertex
 10
269.2186284706041
 20
414.5393609378209
 30
0.0
 42
0.0835667140441844
  0
VERTEX
  5
1DC3
330
1DB9
100
AcDbEntity
  8
HILF
100
AcDbVertex
100
AcDb2dVertex
 10
270.3501687713826
 20
412.3522706680152
 30
0.0
 42
0.0591825033279449
 70
     1
  0
VERTEX
  5
1DC4
330
1DB9
100
AcDbEntity
  8
HILF
100
AcDbVertex
100
AcDb2dVertex
 10
272.7433764963233
 20
409.8464825122404
 30
0.0
 42
0.048737543475835
  0
VERTEX
  5
1DC5
330
1DB9
100
AcDbEntity
  8
HILF
100
AcDbVertex
100
AcDb2dVertex
 10
275.7056410614278
 20
407.8512645208483
 30
0.0
 42
0.0274649169519899
 70
     1
  0
VERTEX
  5
1DC6
330
1DB9
100
AcDbEntity
  8
HILF
100
AcDbVertex
100
AcDb2dVertex
 10
281.4293619590429
 20
405.1536040866599
 30
0.0
 42
0.0605691648931147
  0
VERTEX
  5
1DC7
330
1DB9
100
AcDbEntity
  8
HILF
100
AcDbVertex
100
AcDb2dVertex
 10
285.0173683093048
 20
404.1816970420834
 30
0.0
 42
0.042000480556139
 70
     1
  0
VERTEX
  5
1DC8
330
1DB9
100
AcDbEntity
  8
HILF
100
AcDbVertex
100
AcDb2dVertex
 10
290.3584563127209
 20
403.8630626960118
 30
0.0
  0
SEQEND
  5
1DC9
330
1DB9
100
AcDbEntity
  8
HILF
  0
INSERT
  5
1DCA
330
1E
100
AcDbEntity
  8
SCHRAFF
100
AcDbBlockReference
  2
*X1
 10
4.129689450442128
 20
2.680346389250985
 30
0.0
1001
ACAD
1000
HATCH
1002
{
1070
    16
1000
_U,I
1040
2.0
1040
2.356194490192344
1070
     0
1002
}
  0
ARC
  5
1DCB
330
1E
100
AcDbEntity
  8
STEMPEL
100
AcDbCircle
 10
300.3584563127211
 20
428.0161260397743
 30
0.0
 40
10.0
100
AcDbArc
 50
145.2280559680509
 51
180.0
  0
DIMENSION
  5
1DCC
330
1E
100
AcDbEntity
  8
BEM
100
AcDbDimension
  2
*D2
 10
290.3584563127211
 20
417.456930509075
 30
0.0
 11
313.2251229793877
 21
423.956930509075
 31
0.0
 70
    32
 71
     5
 42
2.5
  3
Standard
100
AcDbAlignedDimension
 13
287.8584563127211
 23
417.456930509075
 33
0.0
 14
290.3584563127211
 24
417.456930509075
 34
0.0
100
AcDbRotatedDimension
1001
ACAD
1000
DSTYLE
1002
{
1070
    40
1040
2.0
1070
    41
1040
3.5
1070
    42
1040
1.0
1070
    43
1040
7.0
1070
    44
1040
1.0
1070
    73
1070
     0
1070
    74
1070
     0
1070
    77
1070
     1
1070
    78
1070
     8
1070
    79
1070
     2
1070
   140
1040
3.5
1070
   141
1040
1.5
1070
   146
1040
0.5142857142857144
1070
   147
1040
1.5
1070
   172
1070
     1
1070
   178
1070
     1
1070
   179
1070
     2
1070
   271
1070
     2
1070
   272
1070
     2
1070
   284
1070
     8
1070
   285
1070
     8
1070
   286
1070
     8
1002
}
  0
ARC
  5
1DCD
330
1E
100
AcDbEntity
  8
STEMPEL
100
AcDbCircle
 10
300.3584563127209
 20
403.444169643394
 30
0.0
 40
10.0
100
AcDbArc
 50
180.0
 51
212.3474434994458
  0
ARC
  5
1DCE
330
1E
100
AcDbEntity
  8
STEMPEL
100
AcDbCircle
 10
266.358456312721
 20
483.5388739543786
 30
0.0
 40
35.00004740563918
100
AcDbArc
 50
332.4728163794451
 51
0.0943014490820491
  0
LINE
  5
1DD0
330
1E
100
AcDbEntity
  8
STEMPEL
100
AcDbLine
 10
124.1000115153149
 20
515.5438739543784
 30
0.0
 11
123.6376837664383
 21
514.5524088973692
 31
0.0
  0
LINE
  5
1DD1
330
1E
100
AcDbEntity
  8
STEMPEL
100
AcDbLine
 10
120.358456312721
 20
499.7607697364448
 30
0.0
 11
120.358456312721
 21
483.4812684252248
 31
0.0
  0
ARC
  5
1DD2
330
1E
100
AcDbEntity
  8
STEMPEL
100
AcDbCircle
 10
155.3584563127211
 20
499.7607697364448
 30
0.0
 40
35.0
100
AcDbArc
 50
155.0000000000006
 51
180.0
  0
ARC
  5
1DD3
330
1E
100
AcDbEntity
  8
STEMPEL
100
AcDbCircle
 10
108.358456312721
 20
459.0438739543785
 30
0.0
 40
18.0
100
AcDbArc
 50
0.0
 51
27.52718362055486
  0
ARC
  5
1DD4
330
1E
100
AcDbEntity
  8
STEMPEL
100
AcDbCircle
 10
144.3584563127211
 20
443.9848454624455
 30
0.0
 40
18.0
100
AcDbArc
 50
180.0
 51
214.7719440319491
  0
LINE
  5
1DD5
330
1E
100
AcDbEntity
  8
STEMPEL
100
AcDbLine
 10
126.3584563127211
 20
459.0438739543785
 30
0.0
 11
126.3584563127211
 21
443.9848454624455
 31
0.0
  0
LINE
  5
1DD6
330
1E
100
AcDbEntity
  8
STEMPEL
100
AcDbLine
 10
131.3584563127211
 20
428.0161260397743
 30
0.0
 11
131.3584563127211
 21
403.444169643394
 31
0.0
  0
ARC
  5
1DD7
330
1E
100
AcDbEntity
  8
STEMPEL
100
AcDbCircle
 10
121.358456312721
 20
428.0161260397743
 30
0.0
 40
10.0
100
AcDbArc
 50
0.0
 51
34.77194403194904
  0
ARC
  5
1DD8
330
1E
100
AcDbEntity
  8
STEMPEL
100
AcDbCircle
 10
121.3584563127211
 20
403.444169643394
 30
0.0
 40
10.0
100
AcDbArc
 50
327.6525565005615
 51
0.0
  0
ARC
  5
1DD9
330
1E
100
AcDbEntity
  8
STEMPEL
100
AcDbCircle
 10
155.3584563127211
 20
483.5388739543786
 30
0.0
 40
35.00004740563918
100
AcDbArc
 50
179.9056985509179
 51
207.5271836205549
  0
LINE
  5
1DDC
330
1E
100
AcDbEntity
  8
STEMPEL
100
AcDbLine
 10
297.6169011101273
 20
515.5438739543784
 30
0.0
 11
124.1000115153149
 21
515.5438739543784
 31
0.0
  0
LINE
  5
1DDD
330
1E
100
AcDbEntity
  8
HILF
100
AcDbLine
 10
292.9286827241737
 20
460.7392650952934
 30
0.0
 11
128.7882299012684
 21
460.7392650952935
 31
0.0
  0
LINE
  5
1DDE
330
1E
100
AcDbEntity
  8
HILF
100
AcDbLine
 10
292.7290678997966
 20
441.9862711107494
 30
0.0
 11
128.9878447256455
 21
441.9862711107494
 31
0.0
  0
LINE
  5
1DDF
330
1E
100
AcDbEntity
  8
HILF
100
AcDbLine
 10
287.9262505222333
 20
429.3162257217079
 30
0.0
 11
133.7906621032088
 21
429.3162257217079
 31
0.0
  0
ARC
  5
1DEF
330
1E
100
AcDbEntity
  8
SCHRAFF
100
AcDbCircle
 10
288.097171636507
 20
385.5438739543786
 30
0.0
 40
6.105960184964732
100
AcDbArc
 50
330.5724100625229
 51
29.42758993747633
  0
ARC
  5
1DF0
330
1E
100
AcDbEntity
  8
SCHRAFF
100
AcDbCircle
 10
281.9912114515423
 20
385.5438739543786
 30
0.0
 40
6.105960184964732
100
AcDbArc
 50
330.5724100625229
 51
29.42758993747633
  0
ARC
  5
1DF1
330
1E
100
AcDbEntity
  8
SCHRAFF
100
AcDbCircle
 10
269.7792910816129
 20
385.5438739543786
 30
0.0
 40
6.105960184964732
100
AcDbArc
 50
330.5724100625229
 51
29.42758993747633
  0
ARC
  5
1DF2
330
1E
100
AcDbEntity
  8
SCHRAFF
100
AcDbCircle
 10
263.6733308966481
 20
385.5438739543786
 30
0.0
 40
6.105960184964732
100
AcDbArc
 50
330.5724100625229
 51
29.42758993747633
  0
ARC
  5
1DF3
330
1E
100
AcDbEntity
  8
SCHRAFF
100
AcDbCircle
 10
275.8852512665776
 20
385.5438739543786
 30
0.0
 40
6.105960184964732
100
AcDbArc
 50
330.5724100625229
 51
29.42758993747633
  0
ARC
  5
1DF4
330
1E
100
AcDbEntity
  8
SCHRAFF
100
AcDbCircle
 10
257.5673707116834
 20
385.5438739543786
 30
0.0
 40
6.105960184964732
100
AcDbArc
 50
330.5724100625229
 51
29.42758993747633
  0
ARC
  5
1DF5
330
1E
100
AcDbEntity
  8
SCHRAFF
100
AcDbCircle
 10
251.4614105267187
 20
385.5438739543786
 30
0.0
 40
6.105960184964732
100
AcDbArc
 50
330.5724100625229
 51
29.42758993747646
  0
ARC
  5
1DF6
330
1E
100
AcDbEntity
  8
SCHRAFF
100
AcDbCircle
 10
239.2494901567892
 20
385.5438739543786
 30
0.0
 40
6.105960184964732
100
AcDbArc
 50
330.5724100625229
 51
29.42758993747646
  0
ARC
  5
1DF7
330
1E
100
AcDbEntity
  8
SCHRAFF
100
AcDbCircle
 10
233.1435299718245
 20
385.5438739543786
 30
0.0
 40
6.105960184964732
100
AcDbArc
 50
330.5724100625229
 51
29.42758993747646
  0
ARC
  5
1DF8
330
1E
100
AcDbEntity
  8
SCHRAFF
100
AcDbCircle
 10
245.355450341754
 20
385.5438739543786
 30
0.0
 40
6.105960184964732
100
AcDbArc
 50
330.5724100625229
 51
29.42758993747646
  0
ARC
  5
1DF9
330
1E
100
AcDbEntity
  8
SCHRAFF
100
AcDbCircle
 10
227.0375697868598
 20
385.5438739543786
 30
0.0
 40
6.105960184964732
100
AcDbArc
 50
330.5724100625229
 51
29.42758993747646
  0
ARC
  5
1DFA
330
1E
100
AcDbEntity
  8
SCHRAFF
100
AcDbCircle
 10
220.931609601895
 20
385.5438739543786
 30
0.0
 40
6.105960184964732
100
AcDbArc
 50
330.5724100625229
 51
29.42758993747646
  0
ARC
  5
1DFC
330
1E
100
AcDbEntity
  8
SCHRAFF
100
AcDbCircle
 10
214.8256494169303
 20
385.5438739543786
 30
0.0
 40
6.105960184964732
100
AcDbArc
 50
330.5724100625229
 51
29.42758993747646
  0
ARC
  5
1DFD
330
1E
100
AcDbEntity
  8
SCHRAFF
100
AcDbCircle
 10
208.7196892319655
 20
385.5438739543786
 30
0.0
 40
6.105960184964732
100
AcDbArc
 50
330.5724100625229
 51
29.42758993747646
  0
ARC
  5
1DFE
330
1E
100
AcDbEntity
  8
SCHRAFF
100
AcDbCircle
 10
196.5077688620361
 20
385.5438739543786
 30
0.0
 40
6.105960184964732
100
AcDbArc
 50
330.5724100625229
 51
29.42758993747646
  0
ARC
  5
1DFF
330
1E
100
AcDbEntity
  8
SCHRAFF
100
AcDbCircle
 10
190.4018086770713
 20
385.5438739543786
 30
0.0
 40
6.105960184964732
100
AcDbArc
 50
330.5724100625229
 51
29.42758993747646
  0
ARC
  5
1E00
330
1E
100
AcDbEntity
  8
SCHRAFF
100
AcDbCircle
 10
202.6137290470008
 20
385.5438739543786
 30
0.0
 40
6.105960184964732
100
AcDbArc
 50
330.5724100625229
 51
29.42758993747646
  0
ARC
  5
1E01
330
1E
100
AcDbEntity
  8
SCHRAFF
100
AcDbCircle
 10
184.2958484921066
 20
385.5438739543786
 30
0.0
 40
6.105960184964732
100
AcDbArc
 50
330.5724100625229
 51
29.42758993747646
  0
ARC
  5
1E02
330
1E
100
AcDbEntity
  8
SCHRAFF
100
AcDbCircle
 10
178.1898883071419
 20
385.5438739543786
 30
0.0
 40
6.105960184964732
100
AcDbArc
 50
330.5724100625229
 51
29.42758993747646
  0
ARC
  5
1E03
330
1E
100
AcDbEntity
  8
SCHRAFF
100
AcDbCircle
 10
172.0839281221772
 20
385.5438739543786
 30
0.0
 40
6.105960184964732
100
AcDbArc
 50
330.5724100625229
 51
29.42758993747646
  0
ARC
  5
1E04
330
1E
100
AcDbEntity
  8
SCHRAFF
100
AcDbCircle
 10
165.9779679372124
 20
385.5438739543786
 30
0.0
 40
6.105960184964732
100
AcDbArc
 50
330.5724100625229
 51
29.42758993747646
  0
ARC
  5
1E05
330
1E
100
AcDbEntity
  8
SCHRAFF
100
AcDbCircle
 10
159.8720077522477
 20
385.5438739543786
 30
0.0
 40
6.105960184964732
100
AcDbArc
 50
330.5724100625229
 51
29.42758993747646
  0
ARC
  5
1E06
330
1E
100
AcDbEntity
  8
SCHRAFF
100
AcDbCircle
 10
153.766047567283
 20
385.5438739543786
 30
0.0
 40
6.105960184964732
100
AcDbArc
 50
330.5724100625229
 51
29.42758993747646
  0
ARC
  5
1E07
330
1E
100
AcDbEntity
  8
SCHRAFF
100
AcDbCircle
 10
147.6600873823182
 20
385.5438739543786
 30
0.0
 40
6.105960184964732
100
AcDbArc
 50
330.5724100625229
 51
29.42758993747646
  0
ARC
  5
1E08
330
1E
100
AcDbEntity
  8
SCHRAFF
100
AcDbCircle
 10
141.5541271973535
 20
385.5438739543786
 30
0.0
 40
6.105960184964732
100
AcDbArc
 50
330.5724100625229
 51
29.42758993747646
  0
ARC
  5
1E09
330
1E
100
AcDbEntity
  8
SCHRAFF
100
AcDbCircle
 10
135.4481670123888
 20
385.5438739543786
 30
0.0
 40
6.105960184964732
100
AcDbArc
 50
330.5724100625229
 51
29.42758993747646
  0
ARC
  5
1E0A
330
1E
100
AcDbEntity
  8
SCHRAFF
100
AcDbCircle
 10
129.3422068274241
 20
385.5438739543786
 30
0.0
 40
6.105960184964732
100
AcDbArc
 50
330.5724100625235
 51
29.42758993747646
  0
ARC
  5
1E0B
330
1E
100
AcDbEntity
  8
SCHRAFF
100
AcDbCircle
 10
123.2362466424594
 20
385.5438739543786
 30
0.0
 40
6.105960184964732
100
AcDbArc
 50
330.5724100625236
 51
29.42758993747646
  0
DIMENSION
  5
1E0F
330
1E
100
AcDbEntity
  8
BEM
100
AcDbDimension
  2
*D3
 10
315.8584563127212
 20
191.988121015659
 30
0.0
 11
210.8584563127211
 21
198.488121015659
 31
0.0
 70
    32
  1
%%C<>
 71
     5
 42
210.0
  3
Standard
100
AcDbAlignedDimension
 13
105.8584563127211
 23
226.3277723453577
 33
0.0
 14
315.8584563127212
 24
226.3277723453577
 34
0.0
100
AcDbRotatedDimension
1001
ACAD
1000
DSTYLE
1002
{
1070
    40
1040
2.0
1070
    41
1040
3.5
1070
    42
1040
1.0
1070
    43
1040
7.0
1070
    44
1040
1.0
1070
    73
1070
     0
1070
    74
1070
     0
1070
    77
1070
     1
1070
    78
1070
     8
1070
    79
1070
     2
1070
   140
1040
3.5
1070
   141
1040
1.5
1070
   146
1040
0.5142857142857144
1070
   147
1040
1.5
1070
   172
1070
     1
1070
   178
1070
     1
1070
   179
1070
     2
1070
   271
1070
     2
1070
   272
1070
     2
1070
   284
1070
     8
1070
   285
1070
     8
1070
   286
1070
     8
1002
}
  0
LINE
  5
1E21
330
1E
100
AcDbEntity
  8
STEMPEL
100
AcDbLine
 10
315.8584563127212
 20
226.3277723453577
 30
0.0
 11
314.1086830422026
 21
215.5438739543785
 31
0.0
  0
LINE
  5
1E22
330
1E
100
AcDbEntity
  8
STEMPEL
100
AcDbLine
 10
105.8584563127211
 20
226.3277723453577
 30
0.0
 11
107.6082295832395
 21
215.5438739543785
 31
0.0
  0
LINE
  5
1E23
330
1E
100
AcDbEntity
  8
HILF
100
AcDbLine
 10
313.3584563127212
 20
226.3277723453577
 30
0.0
 11
108.3584563127211
 21
226.3277723453577
 31
0.0
  0
LINE
  5
1E25
330
1E
100
AcDbEntity
  8
STEMPEL
100
AcDbLine
 10
300.8584563127211
 20
385.5438739543786
 30
0.0
 11
120.8584563127211
 21
385.5438739543786
 31
0.0
  0
LINE
  5
1E28
330
1E
100
AcDbEntity
  8
STEMPEL
100
AcDbLine
 10
314.1086830422026
 20
215.5438739543785
 30
0.0
 11
107.6082295832395
 21
215.5438739543785
 31
0.0
  0
LINE
  5
1E29
330
1E
100
AcDbEntity
  8
MITTEL
100
AcDbLine
 10
210.8584563127211
 20
520.5438739543784
 30
0.0
 11
210.8584563127211
 21
368.9523391617047
 31
0.0
  0
TEXT
  5
1F45
330
1E
100
AcDbEntity
  8
TEXT
 62
     1
100
AcDbText
 10
162.6623555855101
 20
139.8004583895517
 30
0.0
 40
7.0
  1
Werkstoff: E195 EN10305, P235 TR1 EN10217-1
 41
0.8
  7
GREEKS
100
AcDbText
  0
TEXT
  5
1F46
330
1E
100
AcDbEntity
  8
TEXT
 62
     1
100
AcDbText
 10
210.6120730229079
 20
129.0783465745483
 30
0.0
 40
7.0
  1
feuerverzinkt und innen beschichtet
 41
0.8
  7
GREEKS
100
AcDbText
  0
DIMENSION
  5
1FDB
330
1E
100
AcDbEntity
  8
BEM
100
AcDbDimension
  2
*D4
 10
75.3920557745605
 20
215.5438739543785
 30
0.0
 11
68.89205577456049
 21
365.5438739543785
 31
0.0
 70
    32
 71
     5
 42
299.9999999999999
  3
Standard
100
AcDbAlignedDimension
 13
124.1000115153149
 23
515.5438739543784
 33
0.0
 14
107.6082295832395
 24
215.5438739543785
 34
0.0
 50
90.0
100
AcDbRotatedDimension
1001
ACAD
1000
DSTYLE
1002
{
1070
    40
1040
2.0
1070
    41
1040
3.5
1070
    42
1040
1.0
1070
    43
1040
7.0
1070
    44
1040
1.0
1070
    73
1070
     0
1070
    74
1070
     0
1070
    77
1070
     1
1070
    78
1070
     8
1070
    79
1070
     2
1070
   140
1040
3.5
1070
   141
1040
1.5
1070
   146
1040
0.5142857142857144
1070
   147
1040
1.5
1070
   172
1070
     1
1070
   178
1070
     1
1070
   179
1070
     2
1070
   271
1070
     2
1070
   272
1070
     2
1070
   284
1070
     8
1070
   285
1070
     8
1070
   286
1070
     8
1002
}
  0
HATCH
  5
2011
330
1E
100
AcDbEntity
  8
SCHRAFF
100
AcDbHatch
 10
0.0
 20
0.0
 30
0.0
210
0.0
220
0.0
230
1.0
  2
_USER
 70
     0
 71
     0
 91
        2
 92
        7
 72
     1
 73
     1
 93
        4
 10
297.9584563127211
 20
388.5438739543786
 42
0.0
 10
299.8584563127212
 20
385.5438739543786
 42
0.0
 10
300.8584563127211
 20
385.5438739543786
 42
0.0
 10
301.736607891545
 20
382.6296255584958
 42
0.6587915370342511
 97
        0
 92
        7
 72
     1
 73
     1
 93
        4
 10
119.9803047338973
 20
382.6296255584958
 42
0.0
 10
120.8584563127211
 20
385.5438739543786
 42
0.0
 10
121.8584563127211
 20
385.5438739543785
 42
0.0
 10
123.7584563127211
 20
388.5438739543786
 42
0.6587915370342492
 97
        0
 75
     0
 76
     0
 52
0.0
 41
0.1
 77
     0
 78
     1
 53
0.0
 43
0.0
 44
15.0
 45
0.0
 46
0.1
 79
     0
 47
0.3441897678418482
 98
        2
 10
301.1094893769982
 20
387.1480235846241
 10
122.3412666327681
 20
387.8364033392477
  0
HATCH
  5
2103
330
1E
100
AcDbEntity
  8
SCHRAFF
100
AcDbHatch
 10
0.0
 20
0.0
 30
0.0
210
0.0
220
0.0
230
1.0
  2
_USER
 70
     0
 71
     1
 91
        1
 92
        7
 72
     1
 73
     1
 93
        4
 10
312.9584563127212
 20
243.5935647870006
 42
0.0300438571181866
 10
315.8584563127212
 20
244.1819878619445
 42
0.0
 10
315.8584563127212
 20
270.4822038290465
 42
0.0344853332505654
 10
312.9584563127212
 20
271.2884637385709
 42
0.0
 97
        3
330
2107
330
2105
330
2106
 75
     0
 76
     0
 52
45.0
 41
2.0
 77
     0
 78
     1
 53
45.0
 43
-14.14154368727881
 44
5.0
 45
-1.414213562373094
 46
1.414213562373095
 79
     0
 47
0.1037096143786296
 98
        1
 10
314.0947080369739
 20
261.3088582630435
  0
DIMENSION
  5
2104
330
1E
100
AcDbEntity
  8
BEM
100
AcDbDimension
  2
*D5
 10
315.8584563127212
 20
257.4410142627858
 30
0.0
 11
338.5917896460545
 21
263.9410142627858
 31
0.0
 70
    32
 71
     5
 42
2.899999999999977
  3
Standard
100
AcDbAlignedDimension
 13
312.9584563127212
 23
257.4410142627858
 33
0.0
 14
315.8584563127212
 24
257.4410142627858
 34
0.0
100
AcDbRotatedDimension
1001
ACAD
1000
DSTYLE
1002
{
1070
    40
1040
2.0
1070
    41
1040
3.5
1070
    42
1040
1.0
1070
    43
1040
7.0
1070
    44
1040
1.0
1070
    73
1070
     0
1070
    74
1070
     0
1070
    77
1070
     1
1070
    78
1070
     8
1070
    79
1070
     2
1070
   140
1040
3.5
1070
   141
1040
1.5
1070
   146
1040
0.5142857142857144
1070
   147
1040
1.5
1070
   172
1070
     1
1070
   178
1070
     1
1070
   179
1070
     2
1070
   271
1070
     2
1070
   272
1070
     2
1070
   284
1070
     8
1070
   285
1070
     8
1070
   286
1070
     8
1002
}
  0
LINE
  5
2105
102
{ACAD_REACTORS
330
2103
102
}
330
1E
100
AcDbEntity
  8
STEMPEL
100
AcDbLine
 10
312.9584563127212
 20
271.2884637385709
 30
0.0
 11
312.9584563127212
 21
243.5935647870006
 31
0.0
  0
LINE
  5
2106
102
{ACAD_REACTORS
330
2103
102
}
330
1E
100
AcDbEntity
  8
STEMPEL
100
AcDbLine
 10
315.858456312721
 20
334.6453151272095
 30
0.0
 11
315.8584563127212
 21
227.7456353155978
 31
0.0
  0
POLYLINE
  5
2107
102
{ACAD_REACTORS
330
2103
102
}
330
1E
100
AcDbEntity
  8
HILF
100
AcDb2dPolyline
 66
     1
 10
0.0
 20
0.0
 30
0.0
 70
     2
  0
VERTEX
  5
2108
330
2107
100
AcDbEntity
  8
HILF
100
AcDbVertex
100
AcDb2dVertex
 10
315.8584563127212
 20
270.4822038290465
 30
0.0
 42
0.1255862644123895
  0
VERTEX
  5
2109
330
2107
100
AcDbEntity
  8
HILF
100
AcDbVertex
100
AcDb2dVertex
 10
305.0982159310724
 20
271.4559744874473
 30
0.0
 42
0.2171643735928247
 70
     1
  0
VERTEX
  5
210A
330
2107
100
AcDbEntity
  8
HILF
100
AcDbVertex
100
AcDb2dVertex
 10
300.4349077089223
 20
267.2748604184243
 30
0.0
 42
0.0412550359984324
  0
VERTEX
  5
210B
330
2107
100
AcDbEntity
  8
HILF
100
AcDbVertex
100
AcDb2dVertex
 10
296.0857775207896
 20
262.981092132532
 30
0.0
 42
0.1053369606035964
 70
     1
  0
VERTEX
  5
210C
330
2107
100
AcDbEntity
  8
HILF
100
AcDbVertex
100
AcDb2dVertex
 10
294.9286551083328
 20
260.8601735971799
 30
0.0
 42
0.1137717792574769
  0
VERTEX
  5
210D
330
2107
100
AcDbEntity
  8
HILF
100
AcDbVertex
100
AcDb2dVertex
 10
294.6872135513096
 20
257.0310831815502
 30
0.0
 42
0.0906765593008431
 70
     1
  0
VERTEX
  5
210E
330
2107
100
AcDbEntity
  8
HILF
100
AcDbVertex
100
AcDb2dVertex
 10
296.3052182584802
 20
252.5210807295622
 30
0.0
 42
0.1015492392595481
  0
VERTEX
  5
210F
330
2107
100
AcDbEntity
  8
HILF
100
AcDbVertex
100
AcDb2dVertex
 10
299.4735237017799
 20
248.9644620865283
 30
0.0
 42
0.0581024541660469
 70
     1
  0
VERTEX
  5
2110
330
2107
100
AcDbEntity
  8
HILF
100
AcDbVertex
100
AcDb2dVertex
 10
306.6294418845855
 20
244.823456544069
 30
0.0
 42
0.257052312896121
  0
VERTEX
  5
2111
330
2107
100
AcDbEntity
  8
HILF
100
AcDbVertex
100
AcDb2dVertex
 10
308.3662441825798
 20
243.3788891086063
 30
0.0
 42
0.0768874907856573
 70
     1
  0
VERTEX
  5
2112
330
2107
100
AcDbEntity
  8
HILF
100
AcDbVertex
100
AcDb2dVertex
 10
315.8584563127212
 20
244.1819878619445
 30
0.0
  0
SEQEND
  5
2113
330
2107
100
AcDbEntity
  8
HILF
  0
LINE
  5
2114
330
1E
100
AcDbEntity
  8
STEMPEL
100
AcDbLine
 10
105.8584563127212
 20
334.6453151272096
 30
0.0
 11
105.858456312721
 21
227.7456353155978
 31
0.0
  0
DIMENSION
  5
2115
330
1E
100
AcDbEntity
  8
BEM
100
AcDbDimension
  2
*D6
 10
90.45888473732759
 20
335.5438739543785
 30
0.0
 11
83.95888473732753
 21
275.5438739543785
 31
0.0
 70
    32
 71
     5
 42
119.9999999999999
  3
Standard
100
AcDbAlignedDimension
 13
107.6082295832395
 23
215.5438739543785
 33
0.0
 14
105.8315185257358
 24
335.5438739543785
 34
0.0
 50
90.0
100
AcDbRotatedDimension
1001
ACAD
1000
DSTYLE
1002
{
1070
    40
1040
2.0
1070
    41
1040
3.5
1070
    42
1040
1.0
1070
    43
1040
7.0
1070
    44
1040
1.0
1070
    73
1070
     0
1070
    74
1070
     0
1070
    77
1070
     1
1070
    78
1070
     8
1070
    79
1070
     2
1070
   140
1040
3.5
1070
   141
1040
1.5
1070
   146
1040
0.5142857142857144
1070
   147
1040
1.5
1070
   172
1070
     1
1070
   178
1070
     1
1070
   179
1070
     2
1070
   271
1070
     2
1070
   272
1070
     2
1070
   284
1070
     8
1070
   285
1070
     8
1070
   286
1070
     8
1002
}
  0
LINE
  5
2116
330
1E
100
AcDbEntity
  8
HILF
100
AcDbLine
 10
312.981023833896
 20
335.5438739543786
 30
0.0
 11
108.7358887915462
 21
335.5438739543785
 31
0.0
  0
HATCH
  5
2117
330
1E
100
AcDbEntity
  8
DEFPOINTS
100
AcDbHatch
 10
0.0
 20
0.0
 30
0.0
210
0.0
220
0.0
230
1.0
  2
_USER
 70
     0
 71
     0
 91
        1
 92
        5
 93
        4
 72
     4
 94
        3
 73
     0
 74
     0
 95
        8
 96
        4
 40
0.0
 40
0.0
 40
0.0
 40
0.0
 40
3.334374009207531
 40
3.334374009207531
 40
3.334374009207531
 40
3.334374009207531
 10
118.0146134746101
 20
383.1373599254379
 10
118.9565337248297
 20
383.9095339636351
 10
119.9074950187754
 20
384.7089890360978
 10
120.858456312721
 20
385.5438739543786
 72
     1
 10
120.8584563127209
 20
385.5438739543785
 11
121.8584563127211
 21
385.5438739543785
 72
     1
 10
121.8584563127211
 20
385.5438739543785
 11
125.2334563127211
 21
388.5438739543785
 72
     2
 10
123.0843385501662
 20
383.8908018583662
 40
5.125406041282706
 50
65.20916745796359
 51
188.4531938425791
 73
     1
 97
        0
 75
     0
 76
     0
 52
0.0
 41
0.1
 77
     0
 78
     1
 53
0.0
 43
-14.14154368727881
 44
20.0
 45
0.0
 46
0.1
 79
     0
 47
0.0612829531942973
 98
        1
 10
121.116465304725
 20
388.0936791913491
  0
ARC
  5
2118
330
1E
100
AcDbEntity
  8
SCHRAFF
100
AcDbCircle
 10
123.0843385501662
 20
383.8908018583662
 30
0.0
 40
5.125406041282702
100
AcDbArc
 50
65.20916745796586
 51
189.4483849047197
  0
SPLINE
  5
211C
330
1E
100
AcDbEntity
  8
STEMPEL
100
AcDbSpline
210
0.0
220
0.0
230
1.0
 70
     8
 71
     3
 72
    11
 73
     7
 74
     0
 42
0.0000000001
 43
0.0000000001
 40
0.0
 40
0.0
 40
0.0
 40
0.0
 40
33.71201566207508
 40
46.54195758265695
 40
59.37189950323883
 40
61.28698819978382
 40
61.28698819978382
 40
61.28698819978382
 40
61.28698819978382
 10
300.8584563127211
 20
385.5438739543786
 30
0.0
 10
310.473101204685
 20
377.1028132445138
 30
0.0
 10
323.7468371693219
 20
370.4492979682641
 30
0.0
 10
317.9608351799966
 20
350.2906163574845
 30
0.0
 10
316.3616510979799
 20
341.374243047491
 30
0.0
 10
315.9566906713741
 20
336.4744213130072
 30
0.0
 10
315.9059081291657
 20
335.8374991811177
 30
0.0
  0
SPLINE
  5
2186
330
1E
100
AcDbEntity
  8
STEMPEL
100
AcDbSpline
210
0.0
220
0.0
230
1.0
 70
     8
 71
     3
 72
    11
 73
     7
 74
     0
 42
0.0000000001
 43
0.0000000001
 40
0.0
 40
0.0
 40
0.0
 40
0.0
 40
33.71201566207508
 40
46.54195758265695
 40
59.37189950323883
 40
61.28698819978382
 40
61.28698819978382
 40
61.28698819978382
 40
61.28698819978382
 10
120.8584563127211
 20
385.5438739543786
 30
0.0
 10
111.2438114207572
 20
377.1028132445138
 30
0.0
 10
97.97007545612036
 20
370.4492979682641
 30
0.0
 10
103.7560774454456
 20
350.2906163574845
 30
0.0
 10
105.3552615274623
 20
341.374243047491
 30
0.0
 10
105.7602219540682
 20
336.4744213130072
 30
0.0
 10
105.8110044962765
 20
335.8374991811177
 30
0.0
  0
ARC
  5
2187
330
1E
100
AcDbEntity
  8
STEMPEL
100
AcDbCircle
 10
330.8584563126702
 20
334.6453151271842
 30
0.0
 40
15.0
100
AcDbArc
 50
175.4413843481631
 51
180.0000000000069
  0
ARC
  5
2188
330
1E
100
AcDbEntity
  8
STEMPEL
100
AcDbCircle
 10
90.85845631270911
 20
334.6453151271832
 30
0.0
 40
15.0
100
AcDbArc
 50
0.0000000000015199
 51
4.558615651826208
  0
LINE
  5
2192
330
1E
100
AcDbEntity
  8
MITTEL
100
AcDbLine
 10
210.8584563127211
 20
348.9653621674904
 30
0.0
 11
210.8584563127211
 21
210.5438739543786
 31
0.0
  0
DIMENSION
  5
21C1
330
1E
100
AcDbEntity
  8
BEM
100
AcDbDimension
  2
*D7
 10
290.3584563127209
 20
354.7900945246202
 30
0.0
 11
210.8584563127211
 21
361.2900945246201
 31
0.0
 70
    32
  1
%%c<>
 71
     5
 42
158.9999999999998
  3
Standard
100
AcDbAlignedDimension
 13
131.3584563127211
 23
403.444169643394
 33
0.0
 14
290.3584563127209
 24
403.444169643394
 34
0.0
100
AcDbRotatedDimension
1001
ACAD
1000
DSTYLE
1002
{
1070
    40
1040
2.0
1070
    41
1040
3.5
1070
    42
1040
1.0
1070
    43
1040
7.0
1070
    44
1040
1.0
1070
    73
1070
     0
1070
    74
1070
     0
1070
    77
1070
     1
1070
    78
1070
     8
1070
    79
1070
     2
1070
   140
1040
3.5
1070
   141
1040
1.5
1070
   146
1040
0.5142857142857144
1070
   147
1040
1.5
1070
   172
1070
     1
1070
   178
1070
     1
1070
   179
1070
     2
1070
   271
1070
     2
1070
   272
1070
     2
1070
   284
1070
     8
1070
   285
1070
     8
1070
   286
1070
     8
1002
}
  0
ENDSEC
  0
SECTION
  2
OBJECTS
  0
DICTIONARY
  5
C
330
0
100
AcDbDictionary
281
     1
  3
ACAD_COLOR
350
DF
  3
ACAD_GROUP
350
D
  3
ACAD_LAYOUT
350
19
  3
ACAD_MATERIAL
350
DE
  3
ACAD_MLINESTYLE
350
16
  3
ACAD_PLOTSETTINGS
350
18
  3
ACAD_PLOTSTYLENAME
350
E
  3
AcDbVariableDictionary
350
EA
  0
DICTIONARY
  5
A0
330
1E
100
AcDbDictionary
280
     1
281
     1
  3
ACAD_LAYOUTSELFREF
360
D4
  0
DICTIONARY
  5
A2
330
1A
100
AcDbDictionary
280
     1
281
     1
  3
ACAD_LAYOUTSELFREF
360
D3
  0
DICTIONARY
  5
DF
102
{ACAD_REACTORS
330
C
102
}
330
C
100
AcDbDictionary
281
     1
  0
DICTIONARY
  5
D
102
{ACAD_REACTORS
330
C
102
}
330
C
100
AcDbDictionary
281
     1
  0
DICTIONARY
  5
19
102
{ACAD_REACTORS
330
C
102
}
330
C
100
AcDbDictionary
281
     1
  3
Layout1
350
1D
  3
Model
350
21
  0
DICTIONARY
  5
DE
102
{ACAD_REACTORS
330
C
102
}
330
C
100
AcDbDictionary
281
     1
  0
DICTIONARY
  5
16
102
{ACAD_REACTORS
330
C
102
}
330
C
100
AcDbDictionary
281
     1
  3
Standard
350
17
  0
DICTIONARY
  5
18
102
{ACAD_REACTORS
330
C
102
}
330
C
100
AcDbDictionary
281
     1
  0
ACDBDICTIONARYWDFLT
  5
E
102
{ACAD_REACTORS
330
C
102
}
330
C
100
AcDbDictionary
281
     1
  3
Normal
350
F
100
AcDbDictionaryWithDefault
340
F
  0
DICTIONARY
  5
EA
102
{ACAD_REACTORS
330
C
102
}
330
C
100
AcDbDictionary
281
     1
  3
DIMASSOC
350
EB
  3
PROJECTNAME
350
EC
  0
XRECORD
  5
D4
102
{ACAD_REACTORS
330
A0
102
}
330
A0
100
AcDbXrecord
280
     1
340
1E
  0
XRECORD
  5
D3
102
{ACAD_REACTORS
330
A2
102
}
330
A2
100
AcDbXrecord
280
     1
340
1A
  0
LAYOUT
  5
1D
102
{ACAD_REACTORS
330
19
102
}
330
19
100
AcDbPlotSettings
  1

  2
\\NT_WORK01\HP LaserJet 5000 PCL 6
  4

  6

 40
0.0
 41
0.0
 42
0.0
 43
0.0
 44
0.0
 45
0.0
 46
0.0
 47
0.0
 48
0.0
 49
0.0
140
0.0
141
0.0
142
1.0
143
1.0
 70
   688
 72
     0
 73
     0
 74
     5
  7

 75
    16
147
1.0
 76
     0
 77
     2
 78
   300
148
0.0
149
0.0
100
AcDbLayout
  1
Layout1
 70
     0
 71
     1
 10
0.0
 20
0.0
 11
12.0
 21
9.0
 12
0.0
 22
0.0
 32
0.0
 14
1.000000000000000E+20
 24
1.000000000000000E+20
 34
1.000000000000000E+20
 15
-1.000000000000000E+20
 25
-1.000000000000000E+20
 35
-1.000000000000000E+20
146
0.0
 13
0.0
 23
0.0
 33
0.0
 16
1.0
 26
0.0
 36
0.0
 17
0.0
 27
1.0
 37
0.0
 76
     0
330
1A
  0
LAYOUT
  5
21
102
{ACAD_REACTORS
330
19
102
}
330
19
100
AcDbPlotSettings
  1

  2
none_device
  4
Letter_(8.50_x_11.00_Inches)
  6

 40
6.349999904632568
 41
6.349999904632568
 42
6.350006103515625
 43
6.350006103515625
 44
215.8999938964844
 45
279.3999938964844
 46
0.0
 47
0.0
 48
0.0
 49
0.0
140
0.0
141
0.0
142
1.0
143
1.0
 70
 11952
 72
     0
 73
     1
 74
     0
  7

 75
     0
147
1.0
 76
     0
 77
     2
 78
   300
148
2300.337071619986
149
90.67191803301307
100
AcDbLayout
  1
Model
 70
     1
 71
     0
 10
0.0
 20
0.0
 11
12.0
 21
9.0
 12
0.0
 22
0.0
 32
0.0
 14
0.0
 24
0.0
 34
0.0
 15
0.0
 25
0.0
 35
0.0
146
0.0
 13
0.0
 23
0.0
 33
0.0
 16
1.0
 26
0.0
 36
0.0
 17
0.0
 27
1.0
 37
0.0
 76
     0
330
1E
  0
MLINESTYLE
  5
17
102
{ACAD_REACTORS
330
16
102
}
330
16
100
AcDbMlineStyle
  2
STANDARD
 70
     0
  3

 62
   256
 51
90.0
 52
90.0
 71
     2
 49
0.5
 62
   256
  6
BYLAYER
 49
-0.5
 62
   256
  6
BYLAYER
  0
ACDBPLACEHOLDER
  5
F
102
{ACAD_REACTORS
330
E
102
}
330
E
  0
DICTIONARYVAR
  5
EB
102
{ACAD_REACTORS
330
EA
102
}
330
EA
100
DictionaryVariables
280
     0
  1
1
  0
DICTIONARYVAR
  5
EC
102
{ACAD_REACTORS
330
EA
102
}
330
EA
100
DictionaryVariables
280
     0
  1

  0
ENDSEC
  0
EOF
