  0
SECTION
  2
HEADER
  9
$ACADVER
  1
AC1018
  9
$ACADMAINTVER
 70
     2
  9
$DWGCODEPAGE
  3
ANSI_1252
  9
$INSBASE
 10
0.0
 20
0.0
 30
0.0
  9
$EXTMIN
 10
-0.0064082024694017
 20
-0.0090630292066862
 30
-0.0015258207003583
  9
$EXTMAX
 10
210.006409180358
 20
297.0090644122208
 30
0.0000000349246037
  9
$LIMMIN
 10
0.0
 20
0.0
  9
$LIMMAX
 10
210.0
 20
297.0
  9
$ORTHOMODE
 70
     1
  9
$REGENMODE
 70
     1
  9
$FILLMODE
 70
     1
  9
$QTEXTMODE
 70
     0
  9
$MIRRTEXT
 70
     1
  9
$LTSCALE
 40
10.0
  9
$ATTMODE
 70
     1
  9
$TEXTSIZE
 40
3.5
  9
$TRACEWID
 40
0.5
  9
$TEXTSTYLE
  7
STANDARD
  9
$CLAYER
  8
VOLL
  9
$CELTYPE
  6
ByLayer
  9
$CECOLOR
 62
   256
  9
$CELTSCALE
 40
1.0
  9
$DISPSILH
 70
     0
  9
$DIMSCALE
 40
1.0
  9
$DIMASZ
 40
3.5
  9
$DIMEXO
 40
1.0
  9
$DIMDLI
 40
7.0
  9
$DIMRND
 40
0.0
  9
$DIMDLE
 40
0.0
  9
$DIMEXE
 40
1.0
  9
$DIMTP
 40
2.0
  9
$DIMTM
 40
1.0
  9
$DIMTXT
 40
3.5
  9
$DIMCEN
 40
1.5
  9
$DIMTSZ
 40
0.0
  9
$DIMTOL
 70
     0
  9
$DIMLIM
 70
     0
  9
$DIMTIH
 70
     0
  9
$DIMTOH
 70
     0
  9
$DIMSE1
 70
     0
  9
$DIMSE2
 70
     0
  9
$DIMTAD
 70
     1
  9
$DIMZIN
 70
     8
  9
$DIMBLK
  1

  9
$DIMASO
 70
     1
  9
$DIMSHO
 70
     0
  9
$DIMPOST
  1

  9
$DIMAPOST
  1

  9
$DIMALT
 70
     0
  9
$DIMALTD
 70
     2
  9
$DIMALTF
 40
25.4
  9
$DIMLFAC
 40
1.0
  9
$DIMTOFL
 70
     1
  9
$DIMTVP
 40
0.0
  9
$DIMTIX
 70
     0
  9
$DIMSOXD
 70
     0
  9
$DIMSAH
 70
     0
  9
$DIMBLK1
  1

  9
$DIMBLK2
  1

  9
$DIMSTYLE
  2
Standard
  9
$DIMCLRD
 70
     0
  9
$DIMCLRE
 70
     0
  9
$DIMCLRT
 70
     1
  9
$DIMTFAC
 40
0.5
  9
$DIMGAP
 40
1.5
  9
$DIMJUST
 70
     0
  9
$DIMSD1
 70
     0
  9
$DIMSD2
 70
     0
  9
$DIMTOLJ
 70
     1
  9
$DIMTZIN
 70
     8
  9
$DIMALTZ
 70
     8
  9
$DIMALTTZ
 70
     8
  9
$DIMUPT
 70
     0
  9
$DIMDEC
 70
     2
  9
$DIMTDEC
 70
     2
  9
$DIMALTU
 70
     2
  9
$DIMALTTD
 70
     2
  9
$DIMTXSTY
  7
STANDARD
  9
$DIMAUNIT
 70
     0
  9
$DIMADEC
 70
     2
  9
$DIMALTRND
 40
0.0
  9
$DIMAZIN
 70
     2
  9
$DIMDSEP
 70
    46
  9
$DIMATFIT
 70
     3
  9
$DIMFRAC
 70
     0
  9
$DIMLDRBLK
  1

  9
$DIMLUNIT
 70
     2
  9
$DIMLWD
 70
    -2
  9
$DIMLWE
 70
    -2
  9
$DIMTMOVE
 70
     0
  9
$LUNITS
 70
     2
  9
$LUPREC
 70
     2
  9
$SKETCHINC
 40
1.0
  9
$FILLETRAD
 40
0.0
  9
$AUNITS
 70
     0
  9
$AUPREC
 70
     0
  9
$MENU
  1
ACAD
  9
$ELEVATION
 40
0.0
  9
$PELEVATION
 40
0.0
  9
$THICKNESS
 40
0.0
  9
$LIMCHECK
 70
     0
  9
$CHAMFERA
 40
0.0
  9
$CHAMFERB
 40
0.0
  9
$CHAMFERC
 40
0.0
  9
$CHAMFERD
 40
0.0
  9
$SKPOLY
 70
     0
  9
$TDCREATE
 40
2455397.864709028
  9
$TDUCREATE
 40
2455397.781375695
  9
$TDUPDATE
 40
2455859.405166366
  9
$TDUUPDATE
 40
2455859.321833032
  9
$TDINDWG
 40
0.1218833449
  9
$TDUSRTIMER
 40
0.1218833449
  9
$USRTIMER
 70
     1
  9
$ANGBASE
 50
0.0
  9
$ANGDIR
 70
     0
  9
$PDMODE
 70
     0
  9
$PDSIZE
 40
0.0
  9
$PLINEWID
 40
0.0
  9
$SPLFRAME
 70
     0
  9
$SPLINETYPE
 70
     6
  9
$SPLINESEGS
 70
     8
  9
$HANDSEED
  5
BD5
  9
$SURFTAB1
 70
     6
  9
$SURFTAB2
 70
     6
  9
$SURFTYPE
 70
     6
  9
$SURFU
 70
     6
  9
$SURFV
 70
     6
  9
$UCSBASE
  2

  9
$UCSNAME
  2

  9
$UCSORG
 10
0.0
 20
0.0
 30
0.0
  9
$UCSXDIR
 10
1.0
 20
0.0
 30
0.0
  9
$UCSYDIR
 10
0.0
 20
1.0
 30
0.0
  9
$UCSORTHOREF
  2

  9
$UCSORTHOVIEW
 70
     0
  9
$UCSORGTOP
 10
0.0
 20
0.0
 30
0.0
  9
$UCSORGBOTTOM
 10
0.0
 20
0.0
 30
0.0
  9
$UCSORGLEFT
 10
0.0
 20
0.0
 30
0.0
  9
$UCSORGRIGHT
 10
0.0
 20
0.0
 30
0.0
  9
$UCSORGFRONT
 10
0.0
 20
0.0
 30
0.0
  9
$UCSORGBACK
 10
0.0
 20
0.0
 30
0.0
  9
$PUCSBASE
  2

  9
$PUCSNAME
  2

  9
$PUCSORG
 10
0.0
 20
0.0
 30
0.0
  9
$PUCSXDIR
 10
1.0
 20
0.0
 30
0.0
  9
$PUCSYDIR
 10
0.0
 20
1.0
 30
0.0
  9
$PUCSORTHOREF
  2

  9
$PUCSORTHOVIEW
 70
     0
  9
$PUCSORGTOP
 10
0.0
 20
0.0
 30
0.0
  9
$PUCSORGBOTTOM
 10
0.0
 20
0.0
 30
0.0
  9
$PUCSORGLEFT
 10
0.0
 20
0.0
 30
0.0
  9
$PUCSORGRIGHT
 10
0.0
 20
0.0
 30
0.0
  9
$PUCSORGFRONT
 10
0.0
 20
0.0
 30
0.0
  9
$PUCSORGBACK
 10
0.0
 20
0.0
 30
0.0
  9
$USERI1
 70
     0
  9
$USERI2
 70
     0
  9
$USERI3
 70
     0
  9
$USERI4
 70
     0
  9
$USERI5
 70
     0
  9
$USERR1
 40
0.0
  9
$USERR2
 40
0.0
  9
$USERR3
 40
0.0
  9
$USERR4
 40
0.0
  9
$USERR5
 40
0.0
  9
$WORLDVIEW
 70
     1
  9
$SHADEDGE
 70
     3
  9
$SHADEDIF
 70
    70
  9
$TILEMODE
 70
     1
  9
$MAXACTVP
 70
    16
  9
$PINSBASE
 10
0.0
 20
0.0
 30
0.0
  9
$PLIMCHECK
 70
     0
  9
$PEXTMIN
 10
1.000000000000000E+20
 20
1.000000000000000E+20
 30
1.000000000000000E+20
  9
$PEXTMAX
 10
-1.000000000000000E+20
 20
-1.000000000000000E+20
 30
-1.000000000000000E+20
  9
$PLIMMIN
 10
0.0
 20
0.0
  9
$PLIMMAX
 10
12.0
 20
9.0
  9
$UNITMODE
 70
     0
  9
$VISRETAIN
 70
     0
  9
$PLINEGEN
 70
     0
  9
$PSLTSCALE
 70
     0
  9
$TREEDEPTH
 70
  3020
  9
$CMLSTYLE
  2
Standard
  9
$CMLJUST
 70
     0
  9
$CMLSCALE
 40
1.0
  9
$PROXYGRAPHICS
 70
     1
  9
$MEASUREMENT
 70
     0
  9
$CELWEIGHT
370
    -1
  9
$ENDCAPS
280
     0
  9
$JOINSTYLE
280
     0
  9
$LWDISPLAY
290
     0
  9
$INSUNITS
 70
     0
  9
$HYPERLINKBASE
  1

  9
$STYLESHEET
  1
monochrome1.ctb
  9
$XEDIT
290
     1
  9
$CEPSNTYPE
380
     0
  9
$PSTYLEMODE
290
     1
  9
$FINGERPRINTGUID
  2
{D68B0D02-A558-11D7-B632-000102183313}
  9
$VERSIONGUID
  2
{E09ACC37-7536-4F7B-89D6-0CD200CAA255}
  9
$EXTNAMES
290
     1
  9
$PSVPSCALE
 40
0.0
  9
$OLESTARTUP
290
     0
  9
$SORTENTS
280
   127
  9
$INDEXCTL
280
     0
  9
$HIDETEXT
280
     0
  9
$XCLIPFRAME
290
     0
  9
$HALOGAP
280
     0
  9
$OBSCOLOR
 70
   257
  9
$OBSLTYPE
280
     0
  9
$INTERSECTIONDISPLAY
280
     0
  9
$INTERSECTIONCOLOR
 70
   257
  9
$DIMASSOC
280
     1
  9
$PROJECTNAME
  1

  0
ENDSEC
  0
SECTION
  2
CLASSES
  0
CLASS
  1
ACDBDICTIONARYWDFLT
  2
AcDbDictionaryWithDefault
  3
ObjectDBX Classes
 90
        0
 91
        1
280
     0
281
     0
  0
CLASS
  1
DICTIONARYVAR
  2
AcDbDictionaryVar
  3
ObjectDBX Classes
 90
        0
 91
        2
280
     0
281
     0
  0
ENDSEC
  0
SECTION
  2
TABLES
  0
TABLE
  2
VPORT
  5
8
330
0
100
AcDbSymbolTable
 70
     2
  0
VPORT
  5
BD4
330
8
100
AcDbSymbolTableRecord
100
AcDbViewportTableRecord
  2
*Active
 70
     0
 10
0.0
 20
0.0
 11
1.0
 21
1.0
 12
105.0
 22
148.5
 13
0.0
 23
0.0
 14
1.0
 24
1.0
 15
10.0
 25
10.0
 16
0.0
 26
0.0
 36
1.0
 17
0.0
 27
0.0
 37
0.0
 40
297.1037167964897
 41
1.36388140161725
 42
50.0
 43
0.0
 44
0.0
 50
0.0
 51
0.0
 71
     0
 72
  1500
 73
     1
 74
     0
 75
     0
 76
     0
 77
     0
 78
     0
281
     0
 65
     1
110
0.0
120
0.0
130
0.0
111
1.0
121
0.0
131
0.0
112
0.0
122
1.0
132
0.0
 79
     0
146
0.0
  0
ENDTAB
  0
TABLE
  2
LTYPE
  5
5
330
0
100
AcDbSymbolTable
 70
     3
  0
LTYPE
  5
13
330
5
100
AcDbSymbolTableRecord
100
AcDbLinetypeTableRecord
  2
ByBlock
 70
     0
  3

 72
    65
 73
     0
 40
0.0
  0
LTYPE
  5
14
330
5
100
AcDbSymbolTableRecord
100
AcDbLinetypeTableRecord
  2
ByLayer
 70
     0
  3

 72
    65
 73
     0
 40
0.0
  0
LTYPE
  5
15
330
5
100
AcDbSymbolTableRecord
100
AcDbLinetypeTableRecord
  2
Continuous
 70
     0
  3
Solid line
 72
    65
 73
     0
 40
0.0
  0
LTYPE
  5
25
330
5
100
AcDbSymbolTableRecord
100
AcDbLinetypeTableRecord
  2
STRICHPUNKT
 70
     0
  3
__ . __ . __ . __ . __ . __ . __ . __ . __ . __
 72
    65
 73
     4
 40
1.0
 49
0.5
 74
     0
 49
-0.25
 74
     0
 49
0.0
 74
     0
 49
-0.25
 74
     0
  0
LTYPE
  5
32
330
5
100
AcDbSymbolTableRecord
100
AcDbLinetypeTableRecord
  2
AUSGEZOGEN
 70
     0
  3
Ausgezogene Linie
 72
    65
 73
     0
 40
0.0
  0
ENDTAB
  0
TABLE
  2
LAYER
  5
2
330
0
100
AcDbSymbolTable
 70
     9
  0
LAYER
  5
10
330
2
100
AcDbSymbolTableRecord
100
AcDbLayerTableRecord
  2
0
 70
     0
 62
     7
  6
Continuous
370
    -3
390
F
  0
LAYER
  5
2A
330
2
100
AcDbSymbolTableRecord
100
AcDbLayerTableRecord
  2
VOLL
 70
     0
 62
     1
  6
Continuous
370
    -3
390
F
  0
LAYER
  5
2B
330
2
100
AcDbSymbolTableRecord
100
AcDbLayerTableRecord
  2
HILF
 70
     0
 62
     2
  6
Continuous
370
    -3
390
F
  0
LAYER
  5
2C
330
2
100
AcDbSymbolTableRecord
100
AcDbLayerTableRecord
  2
MITTEL
 70
     0
 62
     2
  6
STRICHPUNKT
370
    -3
390
F
  0
LAYER
  5
2F
330
2
100
AcDbSymbolTableRecord
100
AcDbLayerTableRecord
  2
BEM
 70
     0
 62
     7
  6
Continuous
370
    -3
390
F
  0
LAYER
  5
30
330
2
100
AcDbSymbolTableRecord
100
AcDbLayerTableRecord
  2
STEMPEL
 70
     0
 62
     3
  6
Continuous
370
    -3
390
F
  0
LAYER
  5
31
330
2
100
AcDbSymbolTableRecord
100
AcDbLayerTableRecord
  2
TEXT
 70
     0
 62
     7
  6
Continuous
370
    -3
390
F
  0
LAYER
  5
19E
330
2
100
AcDbSymbolTableRecord
100
AcDbLayerTableRecord
  2
DEFPOINTS
 70
     0
 62
     7
  6
AUSGEZOGEN
290
     0
370
    -3
390
F
  0
LAYER
  5
404
330
2
100
AcDbSymbolTableRecord
100
AcDbLayerTableRecord
  2
SCHRAFF
 70
     0
 62
     7
  6
Continuous
370
    -3
390
F
  0
ENDTAB
  0
TABLE
  2
STYLE
  5
3
330
0
100
AcDbSymbolTable
 70
     2
  0
STYLE
  5
11
330
3
100
AcDbSymbolTableRecord
100
AcDbTextStyleTableRecord
  2
STANDARD
 70
     0
 40
0.0
 41
0.8
 50
0.0
 71
     0
 42
3.5
  3
simplex.shx
  4

  0
STYLE
  5
24
330
3
100
AcDbSymbolTableRecord
100
AcDbTextStyleTableRecord
  2
GREEKS
 70
     0
 40
0.0
 41
0.8
 50
0.0
 71
     0
 42
2.5
  3
SIMPLEX.shx
  4

  0
ENDTAB
  0
TABLE
  2
VIEW
  5
6
330
0
100
AcDbSymbolTable
 70
     0
  0
ENDTAB
  0
TABLE
  2
UCS
  5
7
330
0
100
AcDbSymbolTable
 70
     0
  0
ENDTAB
  0
TABLE
  2
APPID
  5
9
330
0
100
AcDbSymbolTable
 70
     1
  0
APPID
  5
12
330
9
100
AcDbSymbolTableRecord
100
AcDbRegAppTableRecord
  2
ACAD
 70
     0
  0
ENDTAB
  0
TABLE
  2
DIMSTYLE
  5
A
330
0
100
AcDbSymbolTable
 70
     1
100
AcDbDimStyleTable
 71
     1
340
9D
  0
DIMSTYLE
105
9D
102
{ACAD_REACTORS
330
942
330
973
330
ABD
330
93F
102
}
330
A
100
AcDbSymbolTableRecord
100
AcDbDimStyleTableRecord
  2
Standard
 70
     0
340
11
  0
ENDTAB
  0
TABLE
  2
BLOCK_RECORD
  5
1
330
0
100
AcDbSymbolTable
 70
     5
  0
BLOCK_RECORD
  5
1E
102
{ACAD_XDICTIONARY
360
A0
102
}
330
1
100
AcDbSymbolTableRecord
100
AcDbBlockTableRecord
  2
*Model_Space
340
21
  0
BLOCK_RECORD
  5
1A
102
{ACAD_XDICTIONARY
360
A2
102
}
330
1
100
AcDbSymbolTableRecord
100
AcDbBlockTableRecord
  2
*Paper_Space
340
1D
  0
BLOCK_RECORD
  5
22
330
1
100
AcDbSymbolTableRecord
100
AcDbBlockTableRecord
  2
LOGO
340
0
102
{BLKREFS
331
9B
102
}
  0
BLOCK_RECORD
  5
99A
330
1
100
AcDbSymbolTableRecord
100
AcDbBlockTableRecord
  2
*D1
340
0
  0
BLOCK_RECORD
  5
9B4
330
1
100
AcDbSymbolTableRecord
100
AcDbBlockTableRecord
  2
*D2
340
0
  0
BLOCK_RECORD
  5
9DB
330
1
100
AcDbSymbolTableRecord
100
AcDbBlockTableRecord
  2
*D3
340
0
  0
BLOCK_RECORD
  5
ABE
330
1
100
AcDbSymbolTableRecord
100
AcDbBlockTableRecord
  2
*D4
340
0
  0
ENDTAB
  0
ENDSEC
  0
SECTION
  2
BLOCKS
  0
BLOCK
  5
35
330
1E
100
AcDbEntity
  8
0
100
AcDbBlockBegin
  2
*Model_Space
 70
     0
 10
0.0
 20
0.0
 30
0.0
  3
*Model_Space
  1

  0
ENDBLK
  5
36
330
1E
100
AcDbEntity
  8
0
100
AcDbBlockEnd
  0
BLOCK
  5
33
330
1A
100
AcDbEntity
 67
     1
  8
0
100
AcDbBlockBegin
  2
*Paper_Space
 70
     0
 10
0.0
 20
0.0
 30
0.0
  3
*Paper_Space
  1

  0
ENDBLK
  5
34
330
1A
100
AcDbEntity
 67
     1
  8
0
100
AcDbBlockEnd
  0
BLOCK
  5
37
330
22
100
AcDbEntity
  8
0
100
AcDbBlockBegin
  2
LOGO
 70
     0
 10
0.0
 20
0.0
 30
0.0
  3
LOGO
  1

  0
ARC
  5
38
330
22
100
AcDbEntity
  8
0
100
AcDbCircle
 10
11.59973089678112
 20
-9.271599258481501
 30
0.0
 40
4.5
100
AcDbArc
 50
270.0
 51
231.0575587310159
  0
LINE
  5
39
330
22
100
AcDbEntity
  8
0
100
AcDbLine
 10
3.599730896781125
 20
-4.771599258481529
 30
0.0
 11
3.599730896781153
 21
-11.77159925848133
 31
0.0
  0
LINE
  5
3A
330
22
100
AcDbEntity
  8
0
100
AcDbLine
 10
2.599730896781125
 20
-4.771599258481529
 30
0.0
 11
2.599730896781153
 21
-11.77159925848133
 31
0.0
  0
CIRCLE
  5
3B
330
22
100
AcDbEntity
  8
0
100
AcDbCircle
 10
11.59973089678112
 20
-9.271599258481501
 30
0.0
 40
3.5
  0
ARC
  5
3C
330
22
100
AcDbEntity
  8
0
100
AcDbCircle
 10
31.59973089678115
 20
-9.271599258481472
 30
0.0
 40
4.5
100
AcDbArc
 50
270.0
 51
231.0575587310182
  0
LINE
  5
3D
330
22
100
AcDbEntity
  8
0
100
AcDbLine
 10
17.59973089678112
 20
-4.771599258481472
 30
0.0
 11
17.59973089678115
 21
-13.77159925848147
 31
0.0
  0
ARC
  5
3E
330
22
100
AcDbEntity
  8
0
100
AcDbCircle
 10
22.59973089678116
 20
-7.271599258481472
 30
0.0
 40
2.5
100
AcDbArc
 50
293.1161887722295
 51
90.0
  0
CIRCLE
  5
3F
330
22
100
AcDbEntity
  8
0
100
AcDbCircle
 10
31.59973089678115
 20
-9.271599258481472
 30
0.0
 40
3.5
  0
ARC
  5
40
330
22
100
AcDbEntity
  8
0
100
AcDbCircle
 10
4.599730896781153
 20
-11.77159925848133
 30
0.0
 40
1.0
100
AcDbArc
 50
180.0
 51
270.0
  0
ARC
  5
41
330
22
100
AcDbEntity
  8
0
100
AcDbCircle
 10
4.599730896781153
 20
-11.77159925848133
 30
0.0
 40
2.0
100
AcDbArc
 50
179.9999999999992
 51
270.0
  0
LINE
  5
42
330
22
100
AcDbEntity
  8
0
100
AcDbLine
 10
11.59973089678115
 20
-13.77159925848144
 30
0.0
 11
4.599730896781153
 21
-13.77159925848147
 31
0.0
  0
LINE
  5
43
330
22
100
AcDbEntity
  8
0
100
AcDbLine
 10
8.771303772034769
 20
-12.77159925848136
 30
0.0
 11
4.599730896781153
 21
-12.77159925848133
 31
0.0
  0
LINE
  5
44
330
22
100
AcDbEntity
  8
0
100
AcDbLine
 10
31.59973089678115
 20
-13.77159925848147
 30
0.0
 11
23.6715276665056
 21
-13.77159925848144
 31
0.0
  0
LINE
  5
45
330
22
100
AcDbEntity
  8
0
100
AcDbLine
 10
23.56565672307022
 20
-9.51278021337896
 30
0.0
 11
24.4388546544846
 21
-12.77159925848144
 31
0.0
  0
LINE
  5
46
330
22
100
AcDbEntity
  8
0
100
AcDbLine
 10
22.59973089678116
 20
-9.771599258481472
 30
0.0
 11
18.59973089678112
 21
-9.771599258481472
 31
0.0
  0
LINE
  5
47
330
22
100
AcDbEntity
  8
0
100
AcDbLine
 10
18.59973089678115
 20
-13.77159925848144
 30
0.0
 11
17.59973089678115
 21
-13.77159925848144
 31
0.0
  0
LINE
  5
48
330
22
100
AcDbEntity
  8
0
100
AcDbLine
 10
18.59973089678115
 20
-9.771599258481472
 30
0.0
 11
18.59973089678115
 21
-13.77159925848144
 31
0.0
  0
LINE
  5
49
330
22
100
AcDbEntity
  8
0
100
AcDbLine
 10
22.59973089678116
 20
-9.771599258481472
 30
0.0
 11
23.67152766650562
 21
-13.77159925848147
 31
0.0
  0
ARC
  5
4A
330
22
100
AcDbEntity
  8
0
100
AcDbCircle
 10
22.59973089678116
 20
-7.271599258481472
 30
0.0
 40
2.5
100
AcDbArc
 50
270.0
 51
270.0000000000007
  0
LINE
  5
4B
330
22
100
AcDbEntity
  8
0
100
AcDbLine
 10
28.77130377203494
 20
-12.77159925848147
 30
0.0
 11
24.43885465448463
 21
-12.77159925848144
 31
0.0
  0
LINE
  5
4C
330
22
100
AcDbEntity
  8
0
100
AcDbLine
 10
3.599730896781125
 20
-4.771599258481472
 30
0.0
 11
2.599730896781125
 21
-4.771599258481472
 31
0.0
  0
LINE
  5
4D
330
22
100
AcDbEntity
  8
0
100
AcDbLine
 10
22.59973089678116
 20
-8.771599258481472
 30
0.0
 11
18.59973089678115
 21
-8.771599258481472
 31
0.0
  0
LINE
  5
4E
330
22
100
AcDbEntity
  8
0
100
AcDbLine
 10
22.59973089678116
 20
-5.771599258481472
 30
0.0
 11
18.59973089678115
 21
-5.771599258481472
 31
0.0
  0
LINE
  5
4F
330
22
100
AcDbEntity
  8
0
100
AcDbLine
 10
22.59973089678116
 20
-4.771599258481472
 30
0.0
 11
17.59973089678115
 21
-4.771599258481472
 31
0.0
  0
LINE
  5
50
330
22
100
AcDbEntity
  8
0
100
AcDbLine
 10
18.59973089678115
 20
-5.771599258481472
 30
0.0
 11
18.59973089678115
 21
-8.771599258481472
 31
0.0
  0
ARC
  5
51
330
22
100
AcDbEntity
  8
0
100
AcDbCircle
 10
22.59973089678116
 20
-7.271599258481472
 30
0.0
 40
1.5
100
AcDbArc
 50
270.0
 51
90.0
  0
ENDBLK
  5
52
330
22
100
AcDbEntity
  8
0
100
AcDbBlockEnd
  0
BLOCK
  5
9A5
330
99A
100
AcDbEntity
  8
0
100
AcDbBlockBegin
  2
*D1
 70
     1
 10
0.0
 20
0.0
 30
0.0
  3
*D1
  1

  0
LINE
  5
BC7
330
99A
100
AcDbEntity
  8
BEM
 62
     0
370
    -2
100
AcDbLine
 10
57.50000000000006
 20
106.6946753946663
 30
0.0
 11
57.50000000000006
 21
82.95583230341838
 31
0.0
  0
LINE
  5
BC8
330
99A
100
AcDbEntity
  8
BEM
 62
     0
370
    -2
100
AcDbLine
 10
167.5
 20
106.6946753946667
 30
0.0
 11
167.5
 21
82.95583230341838
 31
0.0
  0
LINE
  5
BC9
330
99A
100
AcDbEntity
  8
BEM
 62
     0
370
    -2
100
AcDbLine
 10
61.00000000000005
 20
83.9558323034184
 30
0.0
 11
164.0
 21
83.9558323034184
 31
0.0
  0
SOLID
  5
BCA
330
99A
100
AcDbEntity
  8
BEM
 62
     0
100
AcDbTrace
 10
61.00000000000005
 20
84.53916563675171
 30
0.0
 11
61.00000000000005
 21
83.37249897008506
 31
0.0
 12
57.50000000000006
 22
83.9558323034184
 32
0.0
 13
57.50000000000006
 23
83.9558323034184
 33
0.0
  0
SOLID
  5
BCB
330
99A
100
AcDbEntity
  8
BEM
 62
     0
100
AcDbTrace
 10
164.0
 20
84.53916563675171
 30
0.0
 11
164.0
 21
83.37249897008506
 31
0.0
 12
167.5
 22
83.9558323034184
 32
0.0
 13
167.5
 23
83.9558323034184
 33
0.0
  0
MTEXT
  5
BCC
330
99A
100
AcDbEntity
  8
BEM
 62
     1
100
AcDbMText
 10
112.5
 20
87.20583230341839
 30
0.0
 40
3.5
 41
0.0
 71
     5
 72
     1
  1
\A1;%%C110
 73
     1
 44
1.0
  0
POINT
  5
BCD
330
99A
100
AcDbEntity
  8
DEFPOINTS
 62
     0
100
AcDbPoint
 10
57.50000000000006
 20
107.6946753946663
 30
0.0
  0
POINT
  5
BCE
330
99A
100
AcDbEntity
  8
DEFPOINTS
 62
     0
100
AcDbPoint
 10
167.5
 20
107.6946753946667
 30
0.0
  0
POINT
  5
BCF
330
99A
100
AcDbEntity
  8
DEFPOINTS
 62
     0
100
AcDbPoint
 10
167.5
 20
83.9558323034184
 30
0.0
  0
ENDBLK
  5
9A6
330
99A
100
AcDbEntity
  8
0
100
AcDbBlockEnd
  0
BLOCK
  5
9BF
330
9B4
100
AcDbEntity
  8
0
100
AcDbBlockBegin
  2
*D2
 70
     1
 10
0.0
 20
0.0
 30
0.0
  3
*D2
  1

  0
LINE
  5
BA3
330
9B4
100
AcDbEntity
  8
BEM
 62
     0
370
    -2
100
AcDbLine
 10
76.0
 20
211.3880757300976
 30
0.0
 11
76.0
 21
204.6569888664965
 31
0.0
  0
LINE
  5
BA4
330
9B4
100
AcDbEntity
  8
BEM
 62
     0
370
    -2
100
AcDbLine
 10
149.0
 20
211.3880757300976
 30
0.0
 11
149.0
 21
204.6569888664965
 31
0.0
  0
LINE
  5
BA5
330
9B4
100
AcDbEntity
  8
BEM
 62
     0
370
    -2
100
AcDbLine
 10
79.5
 20
205.6569888664965
 30
0.0
 11
145.5
 21
205.6569888664965
 31
0.0
  0
SOLID
  5
BA6
330
9B4
100
AcDbEntity
  8
BEM
 62
     0
100
AcDbTrace
 10
79.5
 20
206.2403221998298
 30
0.0
 11
79.5
 21
205.0736555331631
 31
0.0
 12
76.0
 22
205.6569888664965
 32
0.0
 13
76.0
 23
205.6569888664965
 33
0.0
  0
SOLID
  5
BA7
330
9B4
100
AcDbEntity
  8
BEM
 62
     0
100
AcDbTrace
 10
145.5
 20
206.2403221998298
 30
0.0
 11
145.5
 21
205.0736555331631
 31
0.0
 12
149.0
 22
205.6569888664965
 32
0.0
 13
149.0
 23
205.6569888664965
 33
0.0
  0
MTEXT
  5
BA8
330
9B4
100
AcDbEntity
  8
BEM
 62
     1
100
AcDbMText
 10
112.5
 20
208.9069888664965
 30
0.0
 40
3.5
 41
0.0
 71
     5
 72
     1
  1
\A1;%%C73
 73
     1
 44
1.0
  0
POINT
  5
BA9
330
9B4
100
AcDbEntity
  8
DEFPOINTS
 62
     0
100
AcDbPoint
 10
76.0
 20
212.3880757300976
 30
0.0
  0
POINT
  5
BAA
330
9B4
100
AcDbEntity
  8
DEFPOINTS
 62
     0
100
AcDbPoint
 10
149.0
 20
212.3880757300976
 30
0.0
  0
POINT
  5
BAB
330
9B4
100
AcDbEntity
  8
DEFPOINTS
 62
     0
100
AcDbPoint
 10
149.0
 20
205.6569888664965
 30
0.0
  0
ENDBLK
  5
9C0
330
9B4
100
AcDbEntity
  8
0
100
AcDbBlockEnd
  0
BLOCK
  5
9E6
330
9DB
100
AcDbEntity
  8
0
100
AcDbBlockBegin
  2
*D3
 70
     1
 10
0.0
 20
0.0
 30
0.0
  3
*D3
  1

  0
LINE
  5
B08
330
9DB
100
AcDbEntity
  8
BEM
 62
     0
370
    -2
100
AcDbLine
 10
57.37488663525929
 20
97.69467539466626
 30
0.0
 11
47.99826089774596
 21
97.69467539466626
 31
0.0
  0
LINE
  5
B09
330
9DB
100
AcDbEntity
  8
BEM
 62
     0
370
    -2
100
AcDbLine
 10
56.5
 20
177.6946753946662
 30
0.0
 11
47.99826089774597
 21
177.6946753946662
 31
0.0
  0
LINE
  5
B0A
330
9DB
100
AcDbEntity
  8
BEM
 62
     0
370
    -2
100
AcDbLine
 10
48.99826089774595
 20
101.1946753946662
 30
0.0
 11
48.99826089774597
 21
174.1946753946662
 31
0.0
  0
SOLID
  5
B0B
330
9DB
100
AcDbEntity
  8
BEM
 62
     0
100
AcDbTrace
 10
48.41492756441262
 20
101.1946753946662
 30
0.0
 11
49.58159423107929
 21
101.1946753946662
 31
0.0
 12
48.99826089774595
 22
97.69467539466626
 32
0.0
 13
48.99826089774595
 23
97.69467539466626
 33
0.0
  0
SOLID
  5
B0C
330
9DB
100
AcDbEntity
  8
BEM
 62
     0
100
AcDbTrace
 10
48.41492756441263
 20
174.1946753946662
 30
0.0
 11
49.58159423107931
 21
174.1946753946662
 31
0.0
 12
48.99826089774598
 22
177.6946753946662
 32
0.0
 13
48.99826089774598
 23
177.6946753946662
 33
0.0
  0
MTEXT
  5
B0D
330
9DB
100
AcDbEntity
  8
BEM
 62
     1
100
AcDbMText
 10
45.74826089774594
 20
137.6946753946662
 30
0.0
 40
3.5
 41
0.0
 71
     5
 72
     1
  1
\A1;80
 11
0.0000000000000001
 21
1.0
 31
0.0
 73
     1
 44
1.0
  0
POINT
  5
B0E
330
9DB
100
AcDbEntity
  8
DEFPOINTS
 62
     0
100
AcDbPoint
 10
58.37488663525928
 20
97.69467539466626
 30
0.0
  0
POINT
  5
B0F
330
9DB
100
AcDbEntity
  8
DEFPOINTS
 62
     0
100
AcDbPoint
 10
57.5
 20
177.6946753946662
 30
0.0
  0
POINT
  5
B10
330
9DB
100
AcDbEntity
  8
DEFPOINTS
 62
     0
100
AcDbPoint
 10
48.99826089774598
 20
177.6946753946662
 30
0.0
  0
ENDBLK
  5
9E7
330
9DB
100
AcDbEntity
  8
0
100
AcDbBlockEnd
  0
BLOCK
  5
AC8
330
ABE
100
AcDbEntity
  8
0
100
AcDbBlockBegin
  2
*D4
 70
     1
 10
0.0
 20
0.0
 30
0.0
  3
*D4
  1

  0
LINE
  5
AED
330
ABE
100
AcDbEntity
  8
BEM
 62
     0
370
    -2
100
AcDbLine
 10
71.73460267172481
 20
272.6946753946661
 30
0.0
 11
39.72308511021932
 21
272.6946753946661
 31
0.0
  0
LINE
  5
AEE
330
ABE
100
AcDbEntity
  8
BEM
 62
     0
370
    -2
100
AcDbLine
 10
57.37488663525929
 20
97.69467539466626
 30
0.0
 11
39.72308511021927
 21
97.69467539466626
 31
0.0
  0
LINE
  5
AEF
330
ABE
100
AcDbEntity
  8
BEM
 62
     0
370
    -2
100
AcDbLine
 10
40.72308511021931
 20
269.1946753946662
 30
0.0
 11
40.72308511021927
 21
101.1946753946662
 31
0.0
  0
SOLID
  5
AF0
330
ABE
100
AcDbEntity
  8
BEM
 62
     0
100
AcDbTrace
 10
40.13975177688597
 20
269.1946753946662
 30
0.0
 11
41.30641844355264
 21
269.1946753946662
 31
0.0
 12
40.72308511021931
 22
272.6946753946661
 32
0.0
 13
40.72308511021931
 23
272.6946753946661
 33
0.0
  0
SOLID
  5
AF1
330
ABE
100
AcDbEntity
  8
BEM
 62
     0
100
AcDbTrace
 10
40.13975177688593
 20
101.1946753946662
 30
0.0
 11
41.30641844355261
 21
101.1946753946662
 31
0.0
 12
40.72308511021927
 22
97.69467539466626
 32
0.0
 13
40.72308511021927
 23
97.69467539466626
 33
0.0
  0
MTEXT
  5
AF2
330
ABE
100
AcDbEntity
  8
BEM
 62
     1
100
AcDbMText
 10
37.47308511021927
 20
185.1946753946662
 30
0.0
 40
3.5
 41
0.0
 71
     5
 72
     1
  1
\A1;175
 11
0.0000000000000001
 21
1.0
 31
0.0
 73
     1
 44
1.0
  0
POINT
  5
AF3
330
ABE
100
AcDbEntity
  8
DEFPOINTS
 62
     0
100
AcDbPoint
 10
72.73460267172481
 20
272.6946753946661
 30
0.0
  0
POINT
  5
AF4
330
ABE
100
AcDbEntity
  8
DEFPOINTS
 62
     0
100
AcDbPoint
 10
58.37488663525928
 20
97.69467539466626
 30
0.0
  0
POINT
  5
AF5
330
ABE
100
AcDbEntity
  8
DEFPOINTS
 62
     0
100
AcDbPoint
 10
40.72308511021927
 20
97.69467539466626
 30
0.0
  0
ENDBLK
  5
AC9
330
ABE
100
AcDbEntity
  8
0
100
AcDbBlockEnd
  0
ENDSEC
  0
SECTION
  2
ENTITIES
  0
LINE
  5
57
330
1E
100
AcDbEntity
  8
STEMPEL
100
AcDbLine
 10
205.0
 20
55.00000000000003
 30
0.0
 11
19.99999999999998
 21
55.0
 31
0.0
  0
LINE
  5
58
330
1E
100
AcDbEntity
  8
STEMPEL
100
AcDbLine
 10
68.00000000000006
 20
54.99999999999997
 30
0.0
 11
68.0
 21
4.999999999999985
 31
0.0
  0
LINE
  5
59
330
1E
100
AcDbEntity
  8
STEMPEL
100
AcDbLine
 10
110.0
 20
55.00000000000003
 30
0.0
 11
110.0
 21
4.999999999999985
 31
0.0
  0
LINE
  5
5A
330
1E
100
AcDbEntity
  8
STEMPEL
100
AcDbLine
 10
166.0
 20
54.99999999999989
 30
0.0
 11
166.0
 21
20.0
 31
0.0
  0
LINE
  5
5B
330
1E
100
AcDbEntity
  8
STEMPEL
100
AcDbLine
 10
67.99999999999994
 20
14.99999999999998
 30
0.0
 11
19.99999999999998
 21
14.99999999999998
 31
0.0
  0
LINE
  5
5C
330
1E
100
AcDbEntity
  8
STEMPEL
100
AcDbLine
 10
205.0
 20
20.0
 30
0.0
 11
68.00000000000006
 21
19.99999999999998
 31
0.0
  0
LINE
  5
5D
330
1E
100
AcDbEntity
  8
STEMPEL
100
AcDbLine
 10
205.0
 20
40.0
 30
0.0
 11
68.00000000000006
 21
39.99999999999997
 31
0.0
  0
LINE
  5
5E
330
1E
100
AcDbEntity
  8
VOLL
100
AcDbLine
 10
27.00000000000005
 20
55.00000000000003
 30
0.0
 11
26.99999999999999
 21
4.999999999999985
 31
0.0
  0
LINE
  5
5F
330
1E
100
AcDbEntity
  8
VOLL
100
AcDbLine
 10
47.00000000000005
 20
54.99999999999997
 30
0.0
 11
47.0
 21
4.999999999999985
 31
0.0
  0
LINE
  5
60
330
1E
100
AcDbEntity
  8
VOLL
100
AcDbLine
 10
57.00000000000006
 20
54.99999999999997
 30
0.0
 11
57.0
 21
4.999999999999985
 31
0.0
  0
LINE
  5
61
330
1E
100
AcDbEntity
  8
VOLL
100
AcDbLine
 10
77.00000000000006
 20
39.99999999999997
 30
0.0
 11
77.00000000000006
 21
19.99999999999998
 31
0.0
  0
LINE
  5
62
330
1E
100
AcDbEntity
  8
VOLL
100
AcDbLine
 10
90.00000000000005
 20
54.99999999999992
 30
0.0
 11
90.0
 21
19.99999999999998
 31
0.0
  0
LINE
  5
63
330
1E
100
AcDbEntity
  8
HILF
100
AcDbLine
 10
20.00000000000004
 20
50.00000000000003
 30
0.0
 11
68.00000000000006
 21
50.00000000000003
 31
0.0
  0
LINE
  5
64
330
1E
100
AcDbEntity
  8
HILF
100
AcDbLine
 10
20.00000000000004
 20
45.00000000000002
 30
0.0
 11
68.00000000000006
 21
45.00000000000002
 31
0.0
  0
LINE
  5
65
330
1E
100
AcDbEntity
  8
HILF
100
AcDbLine
 10
20.00000000000004
 20
39.99999999999997
 30
0.0
 11
68.00000000000006
 21
39.99999999999997
 31
0.0
  0
LINE
  5
66
330
1E
100
AcDbEntity
  8
HILF
100
AcDbLine
 10
20.00000000000004
 20
34.99999999999997
 30
0.0
 11
68.00000000000006
 21
34.99999999999997
 31
0.0
  0
LINE
  5
67
330
1E
100
AcDbEntity
  8
HILF
100
AcDbLine
 10
20.00000000000004
 20
29.99999999999999
 30
0.0
 11
68.00000000000006
 21
29.99999999999999
 31
0.0
  0
LINE
  5
68
330
1E
100
AcDbEntity
  8
HILF
100
AcDbLine
 10
20.00000000000004
 20
24.99999999999999
 30
0.0
 11
68.00000000000006
 21
24.99999999999999
 31
0.0
  0
LINE
  5
69
330
1E
100
AcDbEntity
  8
HILF
100
AcDbLine
 10
20.00000000000004
 20
19.99999999999998
 30
0.0
 11
68.00000000000006
 21
19.99999999999998
 31
0.0
  0
LINE
  5
6A
330
1E
100
AcDbEntity
  8
HILF
100
AcDbLine
 10
68.00000000000006
 20
34.99999999999997
 30
0.0
 11
110.0
 21
34.99999999999997
 31
0.0
  0
LINE
  5
6B
330
1E
100
AcDbEntity
  8
HILF
100
AcDbLine
 10
68.00000000000006
 20
29.99999999999999
 30
0.0
 11
110.0
 21
29.99999999999999
 31
0.0
  0
LINE
  5
6C
330
1E
100
AcDbEntity
  8
HILF
100
AcDbLine
 10
68.00000000000006
 20
24.99999999999999
 30
0.0
 11
110.0
 21
24.99999999999999
 31
0.0
  0
LINE
  5
6D
330
1E
100
AcDbEntity
  8
HILF
100
AcDbLine
 10
112.3868400548474
 20
42.01879123782069
 30
0.0
 11
162.4176958278155
 21
42.01879123782069
 31
0.0
  0
LINE
  5
6E
330
1E
100
AcDbEntity
  8
HILF
100
AcDbLine
 10
112.3868400548474
 20
34.99999999999997
 30
0.0
 11
162.4176958278155
 21
34.99999999999997
 31
0.0
  0
LINE
  5
6F
330
1E
100
AcDbEntity
  8
HILF
100
AcDbLine
 10
112.3868400548474
 20
29.99999999999999
 30
0.0
 11
162.4176958278155
 21
29.99999999999999
 31
0.0
  0
LINE
  5
70
330
1E
100
AcDbEntity
  8
HILF
100
AcDbLine
 10
112.3868400548474
 20
24.99999999999999
 30
0.0
 11
162.4176958278155
 21
24.99999999999999
 31
0.0
  0
LINE
  5
71
330
1E
100
AcDbEntity
  8
VOLL
100
AcDbLine
 10
166.0
 20
30.0
 30
0.0
 11
205.0
 21
30.0
 31
0.0
  0
LINE
  5
72
330
1E
100
AcDbEntity
  8
HILF
100
AcDbLine
 10
168.3619308148496
 20
41.88991818477913
 30
0.0
 11
202.4294419663364
 21
41.88991818477913
 31
0.0
  0
LINE
  5
73
330
1E
100
AcDbEntity
  8
HILF
100
AcDbLine
 10
111.7454849644942
 20
7.446991290141568
 30
0.0
 11
202.4294419663364
 21
7.446991290141568
 31
0.0
  0
TEXT
  5
74
330
1E
100
AcDbEntity
  8
TEXT
100
AcDbText
 10
31.38191383106503
 20
9.336909474920659
 30
0.0
 40
2.0
  1
Änderung
 41
0.8
  7
GREEKS
 72
     1
 11
36.7533424024936
 21
9.336909474920659
 31
0.0
100
AcDbText
  0
TEXT
  5
75
330
1E
100
AcDbEntity
  8
TEXT
100
AcDbText
 10
71.75817860751886
 20
51.23104475435443
 30
0.0
 40
2.5
  1
Maßstab
 41
0.8
  7
GREEKS
100
AcDbText
  0
TEXT
  5
76
330
1E
100
AcDbEntity
  8
TEXT
100
AcDbText
 10
92.14294773670257
 20
51.20920842174095
 30
0.0
 40
2.5
  1
Zul. Abw.
 41
0.8
  7
GREEKS
100
AcDbText
  0
TEXT
  5
77
330
1E
100
AcDbEntity
  8
TEXT
100
AcDbText
 10
112.4389701904505
 20
51.27446640058898
 30
0.0
 40
2.5
  1
Benennung
 41
0.8
  7
GREEKS
100
AcDbText
  0
TEXT
  5
78
330
1E
100
AcDbEntity
  8
TEXT
100
AcDbText
 10
168.089377478817
 20
51.15660172685682
 30
0.0
 40
2.5
  1
Zeichnungs Nr.
 41
0.8
  7
GREEKS
100
AcDbText
  0
TEXT
  5
79
330
1E
100
AcDbEntity
  8
TEXT
100
AcDbText
 10
112.371119195568
 20
15.42280285096528
 30
0.0
 40
2.5
  1
Bauvorhaben
 41
0.8
  7
GREEKS
100
AcDbText
  0
TEXT
  5
7A
330
1E
100
AcDbEntity
  8
TEXT
100
AcDbText
 10
168.3619308148496
 20
36.59059118549985
 30
0.0
 40
2.5
  1
Ersatz für:
 41
0.8
  7
GREEKS
100
AcDbText
  0
TEXT
  5
7B
330
1E
100
AcDbEntity
  8
TEXT
100
AcDbText
 10
24.13320553522878
 20
6.827329230135958
 30
0.0
 40
2.0
  1
Index
 50
90.0
 41
0.8
  7
GREEKS
100
AcDbText
  0
TEXT
  5
7C
330
1E
100
AcDbEntity
  8
TEXT
100
AcDbText
 10
49.79027596647531
 20
9.33578134669905
 30
0.0
 40
2.0
  1
Tag
 41
0.8
  7
GREEKS
 72
     1
 11
51.65694263314198
 21
9.33578134669905
 31
0.0
100
AcDbText
  0
TEXT
  5
7D
330
1E
100
AcDbEntity
  8
TEXT
100
AcDbText
 10
59.50613721932963
 20
9.29662108483204
 30
0.0
 40
2.0
  1
Name
 41
0.8
  7
GREEKS
 72
     1
 11
62.66804198123439
 21
9.29662108483204
 31
0.0
100
AcDbText
  0
TEXT
  5
7E
330
1E
100
AcDbEntity
  8
TEXT
100
AcDbText
 10
81.16558365768254
 20
36.65940250614963
 30
0.0
 40
2.0
  1
Tag
 41
0.8
  7
GREEKS
100
AcDbText
  0
TEXT
  5
7F
330
1E
100
AcDbEntity
  8
TEXT
100
AcDbText
 10
96.23132921131475
 20
36.65480545957612
 30
0.0
 40
2.0
  1
Name
 41
0.8
  7
GREEKS
100
AcDbText
  0
TEXT
  5
80
330
1E
100
AcDbEntity
  8
TEXT
100
AcDbText
 10
68.79180635838077
 20
31.81495184808982
 30
0.0
 40
2.0
  1
Gez.
 41
0.8
  7
GREEKS
100
AcDbText
  0
TEXT
  5
81
330
1E
100
AcDbEntity
  8
TEXT
100
AcDbText
 10
68.77575432858361
 20
26.84463145714189
 30
0.0
 40
2.0
  1
Gepr.
 41
0.8
  7
GREEKS
100
AcDbText
  0
TEXT
  5
82
330
1E
100
AcDbEntity
  8
TEXT
100
AcDbText
 10
68.80033886936519
 20
21.76473194824904
 30
0.0
 40
2.0
  1
Norm.
 41
0.8
  7
GREEKS
100
AcDbText
  0
LINE
  5
83
330
1E
100
AcDbEntity
  8
STEMPEL
100
AcDbLine
 10
24.99999999999995
 20
5.0
 30
0.0
 11
205.0
 21
5.0
 31
0.0
  0
TEXT
  5
84
330
1E
100
AcDbEntity
  8
TEXT
100
AcDbText
 10
168.6200430748503
 20
26.03708088939301
 30
0.0
 40
2.5
  1
ersetzt durch:
 41
0.8
  7
GREEKS
100
AcDbText
  0
LINE
  5
85
330
1E
100
AcDbEntity
  8
STEMPEL
100
AcDbLine
 10
205.0
 20
5.0
 30
0.0
 11
19.99999999999994
 21
5.0
 31
0.0
  0
LINE
  5
86
330
1E
100
AcDbEntity
  8
STEMPEL
100
AcDbLine
 10
205.0
 20
5.0
 30
0.0
 11
205.0
 21
292.0
 31
0.0
  0
LINE
  5
87
330
1E
100
AcDbEntity
  8
STEMPEL
100
AcDbLine
 10
20.0
 20
5.0
 30
0.0
 11
19.99999999999994
 21
292.0
 31
0.0
  0
LINE
  5
88
330
1E
100
AcDbEntity
  8
STEMPEL
100
AcDbLine
 10
205.0
 20
292.0
 30
0.0
 11
19.99999999999994
 21
292.0
 31
0.0
  0
LINE
  5
89
330
1E
100
AcDbEntity
  8
HILF
100
AcDbLine
 10
0.0
 20
0.0
 30
0.0
 11
-0.0000000000000568
 21
297.0
 31
0.0
  0
LINE
  5
8A
330
1E
100
AcDbEntity
  8
HILF
100
AcDbLine
 10
210.0
 20
297.0000000000001
 30
0.0
 11
0.0
 21
297.0
 31
0.0
  0
LINE
  5
8B
330
1E
100
AcDbEntity
  8
HILF
100
AcDbLine
 10
210.0
 20
0.0
 30
0.0
 11
0.0
 21
0.0
 31
0.0
  0
LINE
  5
8C
330
1E
100
AcDbEntity
  8
HILF
100
AcDbLine
 10
15.54383567856928
 20
148.5
 30
0.0
 11
0.0000000000000568
 21
148.5
 31
0.0
  0
TEXT
  5
8D
330
1E
100
AcDbEntity
  8
TEXT
100
AcDbText
 10
69.31105491105199
 20
36.57012735575833
 30
0.0
 40
2.0
  1
2011
 41
0.8
  7
GREEKS
100
AcDbText
  0
LINE
  5
8E
330
1E
100
AcDbEntity
  8
HILF
100
AcDbLine
 10
210.0
 20
-0.0000000000000568
 30
0.0
 11
210.0
 21
297.0
 31
0.0
  0
TEXT
  5
8F
330
1E
100
AcDbEntity
  8
VOLL
100
AcDbText
 10
78.07675471698113
 20
31.02594776470585
 30
0.0
 40
1.8
  1

  7
GREEKS
100
AcDbText
  0
TEXT
  5
90
330
1E
100
AcDbEntity
  8
TEXT
100
AcDbText
 10
20.92754975488837
 20
55.83599999999997
 30
0.0
 40
2.5
  1
Erstellt mit AUTOCAD 2004
 41
0.8
  7
GREEKS
100
AcDbText
  0
TEXT
  5
91
330
1E
100
AcDbEntity
  8
TEXT
100
AcDbText
 10
97.21080242906285
 20
31.54481959861755
 30
0.0
 40
2.0
  1
Koeh
 41
0.8
  7
GREEKS
 72
     1
 11
99.83937385763429
 21
31.54481959861755
 31
0.0
100
AcDbText
  0
TEXT
  5
92
330
1E
100
AcDbEntity
  8
TEXT
 62
     1
100
AcDbText
 10
173.141918717722
 20
44.07450714456979
 30
0.0
 40
3.5
  1
00630070N
 41
0.8
  7
GREEKS
 72
     1
 11
184.741918717722
 21
44.07450714456979
 31
0.0
100
AcDbText
  0
TEXT
  5
93
330
1E
100
AcDbEntity
  8
TEXT
 62
     1
100
AcDbText
 10
75.25031532409435
 20
44.07450714456979
 30
0.0
 40
3.5
  1
1:1
 41
0.8
  7
GREEKS
100
AcDbText
  0
TEXT
  5
94
330
1E
100
AcDbEntity
  8
TEXT
100
AcDbText
 10
80.35187950649897
 20
31.55382520412866
 30
0.0
 40
2.0
  1
24.10.
 41
0.8
  7
GREEKS
 72
     1
 11
83.70426045887993
 21
31.55382520412866
 31
0.0
100
AcDbText
  0
TEXT
  5
95
330
1E
100
AcDbEntity
  8
TEXT
 62
     1
100
AcDbText
 10
113.4467865528701
 20
43.70874394626889
 30
0.0
 40
3.5
  1
Anschlußstück DN70
 41
0.8
  7
GREEKS
100
AcDbText
  0
TEXT
  5
96
330
1E
100
AcDbEntity
  8
TEXT
100
AcDbText
 10
112.5648195562657
 20
35.75167208792644
 30
0.0
 40
2.5
  1
zum Anschluß an verschiedene
 41
0.8
  7
GREEKS
100
AcDbText
  0
TEXT
  5
97
330
1E
100
AcDbEntity
  8
TEXT
100
AcDbText
 10
112.5648195562657
 20
31.05790353387428
 30
0.0
 40
2.5
  1
Abflußrohre DN100
 41
0.8
  7
GREEKS
100
AcDbText
  0
TEXT
  5
98
330
1E
100
AcDbEntity
  8
TEXT
100
AcDbText
 10
112.5648195562657
 20
25.82005971521079
 30
0.0
 40
2.5
  1
EDV-Art.Nr. 00630.070N
 41
0.8
  7
GREEKS
100
AcDbText
  0
TEXT
  5
99
330
1E
100
AcDbEntity
  8
TEXT
100
AcDbText
 10
112.4918750788913
 20
21.31487076511316
 30
0.0
 40
2.0
  1
00630.070N.DWG
 41
0.8
  7
GREEKS
100
AcDbText
  0
TEXT
  5
9A
330
1E
100
AcDbEntity
  8
TEXT
100
AcDbText
 10
91.31306610404202
 20
45.38181920511511
 30
0.0
 40
2.0
  1
DIN EN1123-2
 41
0.8
  7
GREEKS
 72
     1
 11
99.80830419928011
 21
45.38181920511511
 31
0.0
100
AcDbText
  0
INSERT
  5
9B
330
1E
100
AcDbEntity
  8
STEMPEL
100
AcDbBlockReference
  2
LOGO
 10
70.4977742728897
 20
22.51052638224161
 30
0.0
  0
TEXT
  5
118
330
1E
100
AcDbEntity
  8
BEM
100
AcDbText
 10
208.6511461928583
 20
5.083950539994247
 30
0.0
 40
2.0
  1
Diese Zeichnung ist urheberrechtlich geschützt und bleibt unser Eigentum. Sie darf weder ganz noch teilweise verfielfältigt und nicht an Dritte weitergegeben werden.
 50
90.0
 41
0.8
  7
GREEKS
100
AcDbText
  0
TEXT
  5
3F9
330
1E
100
AcDbEntity
  8
TEXT
 62
     1
100
AcDbText
 10
28.72028760750493
 20
70.89517476188825
 30
0.0
 40
3.5
  1
Rohrende leicht eingezogen
 41
0.8
  7
GREEKS
100
AcDbText
  0
TEXT
  5
581
330
1E
100
AcDbEntity
  8
TEXT
 62
     1
100
AcDbText
 10
109.4505479813809
 20
124.0937063976959
 30
0.0
 40
3.5
  1
DN100
 50
90.0
 41
0.8
  7
GREEKS
100
AcDbText
  0
TEXT
  5
5A2
330
1E
100
AcDbEntity
  8
TEXT
 62
     1
100
AcDbText
 10
109.4505479813809
 20
256.0366124477346
 30
0.0
 40
3.5
  1
DN70
 50
90.0
 41
0.8
  7
GREEKS
100
AcDbText
  0
DIMENSION
  5
93F
330
1E
100
AcDbEntity
  8
BEM
100
AcDbDimension
  2
*D1
 10
167.5
 20
83.9558323034184
 30
0.0
 11
112.5
 21
87.20583230341839
 31
0.0
 70
    32
  1
%%C<>
 71
     5
 42
109.9999999999999
  3
Standard
100
AcDbAlignedDimension
 13
57.50000000000006
 23
107.6946753946663
 33
0.0
 14
167.5
 24
107.6946753946667
 34
0.0
100
AcDbRotatedDimension
1001
ACAD
1000
DSTYLE
1002
{
1070
    41
1040
3.5
1070
    42
1040
1.0
1070
    43
1040
7.0
1070
    44
1040
1.0
1070
    47
1040
2.0
1070
    48
1040
1.0
1070
    73
1070
     0
1070
    74
1070
     0
1070
    77
1070
     1
1070
    78
1070
     8
1070
    79
1070
     2
1070
   140
1040
3.5
1070
   141
1040
1.5
1070
   146
1040
0.5
1070
   147
1040
1.5
1070
   172
1070
     1
1070
   178
1070
     1
1070
   179
1070
     2
1070
   271
1070
     2
1070
   272
1070
     2
1070
   284
1070
     8
1070
   285
1070
     8
1070
   286
1070
     8
1002
}
  0
LINE
  5
940
330
1E
100
AcDbEntity
  8
MITTEL
100
AcDbLine
 10
112.5
 20
204.3506413300368
 30
0.0
 11
112.5
 21
92.69467539466608
 31
0.0
  0
DIMENSION
  5
942
330
1E
100
AcDbEntity
  8
BEM
100
AcDbDimension
  2
*D2
 10
149.0
 20
205.6569888664965
 30
0.0
 11
112.5
 21
208.9069888664965
 31
0.0
 70
    32
  1
%%C<>
 71
     5
 42
73.00000000000003
  3
Standard
100
AcDbAlignedDimension
 13
76.0
 23
212.3880757300976
 33
0.0
 14
149.0
 24
212.3880757300976
 34
0.0
100
AcDbRotatedDimension
1001
ACAD
1000
DSTYLE
1002
{
1070
    41
1040
3.5
1070
    42
1040
1.0
1070
    43
1040
7.0
1070
    44
1040
1.0
1070
    73
1070
     0
1070
    74
1070
     0
1070
    77
1070
     1
1070
    78
1070
     8
1070
    79
1070
     2
1070
   140
1040
3.5
1070
   141
1040
1.5
1070
   146
1040
0.5142857142857144
1070
   147
1040
1.5
1070
   172
1070
     1
1070
   178
1070
     1
1070
   179
1070
     2
1070
   271
1070
     2
1070
   272
1070
     2
1070
   284
1070
     8
1070
   285
1070
     8
1070
   286
1070
     8
1002
}
  0
ARC
  5
948
330
1E
100
AcDbEntity
  8
SCHRAFF
100
AcDbCircle
 10
142.8239059919736
 20
197.6946753946661
 30
0.0
 40
5.824109300105286
100
AcDbArc
 50
328.9958457256832
 51
31.00415427431732
  0
ARC
  5
949
330
1E
100
AcDbEntity
  8
SCHRAFF
100
AcDbCircle
 10
146.9606063444426
 20
197.6946753946661
 30
0.0
 40
5.824109300105286
100
AcDbArc
 50
328.9958457256832
 51
356.6213475199392
  0
ARC
  5
94A
330
1E
100
AcDbEntity
  8
SCHRAFF
100
AcDbCircle
 10
138.6872056395046
 20
197.6946753946661
 30
0.0
 40
5.824109300105286
100
AcDbArc
 50
328.9958457256832
 51
31.00415427431732
  0
ARC
  5
94B
330
1E
100
AcDbEntity
  8
SCHRAFF
100
AcDbCircle
 10
134.5505052870355
 20
197.6946753946661
 30
0.0
 40
5.824109300105286
100
AcDbArc
 50
328.9958457256833
 51
31.00415427431746
  0
ARC
  5
94C
330
1E
100
AcDbEntity
  8
SCHRAFF
100
AcDbCircle
 10
130.4138049345665
 20
197.6946753946661
 30
0.0
 40
5.824109300105286
100
AcDbArc
 50
328.9958457256833
 51
31.00415427431746
  0
ARC
  5
94D
330
1E
100
AcDbEntity
  8
SCHRAFF
100
AcDbCircle
 10
126.2771045820974
 20
197.6946753946661
 30
0.0
 40
5.824109300105286
100
AcDbArc
 50
328.9958457256833
 51
31.00415427431746
  0
ARC
  5
94E
330
1E
100
AcDbEntity
  8
SCHRAFF
100
AcDbCircle
 10
118.0037038771594
 20
197.6946753946661
 30
0.0
 40
5.824109300105286
100
AcDbArc
 50
328.9958457256829
 51
31.00415427431708
  0
ARC
  5
94F
330
1E
100
AcDbEntity
  8
SCHRAFF
100
AcDbCircle
 10
122.1404042296284
 20
197.6946753946661
 30
0.0
 40
5.824109300105286
100
AcDbArc
 50
328.9958457256833
 51
31.00415427431746
  0
ARC
  5
950
330
1E
100
AcDbEntity
  8
SCHRAFF
100
AcDbCircle
 10
109.7303031722213
 20
197.6946753946661
 30
0.0
 40
5.824109300105286
100
AcDbArc
 50
328.9958457256829
 51
31.00415427431708
  0
ARC
  5
951
330
1E
100
AcDbEntity
  8
SCHRAFF
100
AcDbCircle
 10
113.8670035246903
 20
197.6946753946661
 30
0.0
 40
5.824109300105286
100
AcDbArc
 50
328.9958457256829
 51
31.00415427431708
  0
ARC
  5
952
330
1E
100
AcDbEntity
  8
SCHRAFF
100
AcDbCircle
 10
105.5936028197522
 20
197.6946753946661
 30
0.0
 40
5.824109300105286
100
AcDbArc
 50
328.9958457256829
 51
31.00415427431708
  0
ARC
  5
953
330
1E
100
AcDbEntity
  8
SCHRAFF
100
AcDbCircle
 10
93.18350176234517
 20
197.6946753946661
 30
0.0
 40
5.824109300105286
100
AcDbArc
 50
328.9958457256832
 51
31.00415427431739
  0
ARC
  5
954
330
1E
100
AcDbEntity
  8
SCHRAFF
100
AcDbCircle
 10
97.32020211481421
 20
197.6946753946661
 30
0.0
 40
5.824109300105286
100
AcDbArc
 50
328.9958457256832
 51
31.00415427431739
  0
ARC
  5
955
330
1E
100
AcDbEntity
  8
SCHRAFF
100
AcDbCircle
 10
89.04680140987613
 20
197.6946753946661
 30
0.0
 40
5.824109300105286
100
AcDbArc
 50
328.9958457256832
 51
31.00415427431739
  0
ARC
  5
956
330
1E
100
AcDbEntity
  8
SCHRAFF
100
AcDbCircle
 10
101.4569024672832
 20
197.6946753946661
 30
0.0
 40
5.824109300105286
100
AcDbArc
 50
328.9958457256832
 51
31.00415427431739
  0
ARC
  5
957
330
1E
100
AcDbEntity
  8
SCHRAFF
100
AcDbCircle
 10
84.91010105740711
 20
197.6946753946662
 30
0.0
 40
5.824109300105286
100
AcDbArc
 50
328.9958457256829
 51
31.00415427431708
  0
ARC
  5
958
330
1E
100
AcDbEntity
  8
SCHRAFF
100
AcDbCircle
 10
80.77340070493807
 20
197.6946753946662
 30
0.0
 40
5.824109300105286
100
AcDbArc
 50
328.9958457256829
 51
31.00415427431708
  0
ARC
  5
959
330
1E
100
AcDbEntity
  8
SCHRAFF
100
AcDbCircle
 10
76.63670035246903
 20
197.6946753946662
 30
0.0
 40
5.824109300105286
100
AcDbArc
 50
328.9958457256829
 51
31.00415427431708
  0
ARC
  5
95A
330
1E
100
AcDbEntity
  8
SCHRAFF
100
AcDbCircle
 10
68.36329964753097
 20
197.6946753946662
 30
0.0
 40
5.824109300105286
100
AcDbArc
 50
328.9958457256832
 51
19.42528951205769
  0
ARC
  5
95B
330
1E
100
AcDbEntity
  8
SCHRAFF
100
AcDbCircle
 10
72.5
 20
197.6946753946662
 30
0.0
 40
5.824109300105286
100
AcDbArc
 50
328.9958457256829
 51
31.00415427431708
  0
ARC
  5
95C
330
1E
100
AcDbEntity
  8
STEMPEL
100
AcDbCircle
 10
69.5
 20
173.4853026823676
 30
0.0
 40
12.0
100
AcDbArc
 50
141.3401917459108
 51
180.0
  0
ARC
  5
95D
330
1E
100
AcDbEntity
  8
STEMPEL
100
AcDbCircle
 10
155.5
 20
173.4853026823674
 30
0.0
 40
12.0
100
AcDbArc
 50
0.0
 51
38.6598082540892
  0
ARC
  5
96F
330
1E
100
AcDbEntity
  8
STEMPEL
100
AcDbCircle
 10
68.00000000000017
 20
205.2164532412191
 30
0.0
 40
8.0
100
AcDbArc
 50
325.0079798014399
 51
0.0
  0
ARC
  5
970
102
{ACAD_REACTORS
330
B54
102
}
330
1E
100
AcDbEntity
  8
STEMPEL
100
AcDbCircle
 10
157.0
 20
205.216453241219
 30
0.0
 40
8.0
100
AcDbArc
 50
180.0
 51
214.9920201985583
  0
DIMENSION
  5
973
330
1E
100
AcDbEntity
  8
BEM
100
AcDbDimension
  2
*D3
 10
48.99826089774598
 20
177.6946753946662
 30
0.0
 11
45.74826089774594
 21
137.6946753946662
 31
0.0
 70
    32
 71
     5
 42
79.99999999999992
  3
Standard
100
AcDbAlignedDimension
 13
58.37488663525928
 23
97.69467539466626
 33
0.0
 14
57.5
 24
177.6946753946662
 34
0.0
 50
90.0
100
AcDbRotatedDimension
1001
ACAD
1000
DSTYLE
1002
{
1070
    41
1040
3.5
1070
    42
1040
1.0
1070
    43
1040
7.0
1070
    44
1040
1.0
1070
    73
1070
     0
1070
    74
1070
     0
1070
    77
1070
     1
1070
    78
1070
     8
1070
    79
1070
     2
1070
   140
1040
3.5
1070
   141
1040
1.5
1070
   146
1040
0.5142857142857144
1070
   147
1040
1.5
1070
   172
1070
     1
1070
   178
1070
     1
1070
   179
1070
     2
1070
   271
1070
     2
1070
   272
1070
     2
1070
   284
1070
     8
1070
   285
1070
     8
1070
   286
1070
     8
1002
}
  0
LINE
  5
97B
330
1E
100
AcDbEntity
  8
STEMPEL
100
AcDbLine
 10
74.55385536415241
 20
200.6287544863124
 30
0.0
 11
72.5
 21
197.6946753946662
 31
0.0
  0
LINE
  5
97C
102
{ACAD_REACTORS
330
B54
102
}
330
1E
100
AcDbEntity
  8
STEMPEL
100
AcDbLine
 10
152.5
 20
197.6946753946661
 30
0.0
 11
150.4461446358478
 21
200.6287544863124
 31
0.0
  0
LINE
  5
97D
330
1E
100
AcDbEntity
  8
HILF
100
AcDbLine
 10
147.7371367011796
 20
202.6946753946661
 30
0.0
 11
77.26286329882063
 21
202.6946753946662
 31
0.0
  0
LINE
  5
97E
330
1E
100
AcDbEntity
  8
STEMPEL
100
AcDbLine
 10
60.12957428668364
 20
180.9816432530207
 30
0.0
 11
72.5
 21
197.6946753946662
 31
0.0
  0
LINE
  5
97F
102
{ACAD_REACTORS
330
B54
102
}
330
1E
100
AcDbEntity
  8
STEMPEL
100
AcDbLine
 10
164.8704257133164
 20
180.9816432530205
 30
0.0
 11
152.5
 21
197.6946753946661
 31
0.0
  0
LINE
  5
980
330
1E
100
AcDbEntity
  8
STEMPEL
100
AcDbLine
 10
167.5
 20
107.6946753946667
 30
0.0
 11
166.6251133647407
 21
97.69467539466603
 31
0.0
  0
LINE
  5
981
330
1E
100
AcDbEntity
  8
STEMPEL
100
AcDbLine
 10
57.50000000000006
 20
107.6946753946663
 30
0.0
 11
58.37488663525928
 21
97.69467539466626
 31
0.0
  0
LINE
  5
982
330
1E
100
AcDbEntity
  8
HILF
100
AcDbLine
 10
165.5
 20
107.694675394666
 30
0.0
 11
59.50000000000006
 21
107.6946753946662
 31
0.0
  0
LINE
  5
983
330
1E
100
AcDbEntity
  8
STEMPEL
100
AcDbLine
 10
167.5
 20
173.4853026823674
 30
0.0
 11
167.5
 21
107.6946753946667
 31
0.0
  0
LINE
  5
984
330
1E
100
AcDbEntity
  8
STEMPEL
100
AcDbLine
 10
57.5
 20
173.4853026823676
 30
0.0
 11
57.50000000000006
 21
107.6946753946663
 31
0.0
  0
LINE
  5
985
330
1E
100
AcDbEntity
  8
STEMPEL
100
AcDbLine
 10
152.5
 20
197.6946753946661
 30
0.0
 11
72.5
 21
197.6946753946662
 31
0.0
  0
LINE
  5
986
330
1E
100
AcDbEntity
  8
HILF
100
AcDbLine
 10
164.5708974952293
 20
177.694675394666
 30
0.0
 11
60.42910250477075
 21
177.6946753946662
 31
0.0
  0
LINE
  5
987
330
1E
100
AcDbEntity
  8
STEMPEL
100
AcDbLine
 10
166.6251133647407
 20
97.69467539466603
 30
0.0
 11
58.37488663525928
 21
97.69467539466626
 31
0.0
  0
ARC
  5
988
330
1E
100
AcDbEntity
  8
STEMPEL
100
AcDbCircle
 10
129.6
 20
262.1457529875475
 30
0.0
 40
25.0
100
AcDbArc
 50
0.0
 51
24.95819631230604
  0
ARC
  5
989
330
1E
100
AcDbEntity
  8
STEMPEL
100
AcDbCircle
 10
164.1
 20
239.6946753946661
 30
0.0
 40
12.0
100
AcDbArc
 50
158.8168456069652
 51
180.0
  0
ARC
  5
98A
330
1E
100
AcDbEntity
  8
STEMPEL
100
AcDbCircle
 10
129.6
 20
253.0646753946661
 30
0.0
 40
25.00009324312574
100
AcDbArc
 50
338.8168456069653
 51
0.1564859543310871
  0
LINE
  5
98B
330
1E
100
AcDbEntity
  8
STEMPEL
100
AcDbLine
 10
154.6
 20
262.1457529875474
 30
0.0
 11
154.6
 21
252.9963953464724
 31
0.0
  0
ARC
  5
98C
330
1E
100
AcDbEntity
  8
STEMPEL
100
AcDbCircle
 10
157.0
 20
212.3880757300976
 30
0.0
 40
8.0
100
AcDbArc
 50
147.6719358778385
 51
180.0
  0
ARC
  5
98D
330
1E
100
AcDbEntity
  8
STEMPEL
100
AcDbCircle
 10
140.1
 20
223.0834018120831
 30
0.0
 40
12.0
100
AcDbArc
 50
327.6719358778385
 51
0.0
  0
LINE
  5
98E
330
1E
100
AcDbEntity
  8
STEMPEL
100
AcDbLine
 10
149.0
 20
212.3880757300976
 30
0.0
 11
149.0
 21
205.216453241219
 31
0.0
  0
LINE
  5
98F
330
1E
100
AcDbEntity
  8
STEMPEL
100
AcDbLine
 10
152.1
 20
239.6946753946662
 30
0.0
 11
152.1
 21
223.0834018120832
 31
0.0
  0
LINE
  5
990
330
1E
100
AcDbEntity
  8
MITTEL
100
AcDbLine
 10
112.5
 20
277.6946753946662
 30
0.0
 11
112.5
 21
212.9463209731079
 31
0.0
  0
ARC
  5
991
330
1E
100
AcDbEntity
  8
STEMPEL
100
AcDbCircle
 10
95.40000000000004
 20
262.1457529875475
 30
0.0
 40
25.0
100
AcDbArc
 50
155.0418036876904
 51
180.0
  0
ARC
  5
992
330
1E
100
AcDbEntity
  8
STEMPEL
100
AcDbCircle
 10
60.90000000000009
 20
239.6946753946661
 30
0.0
 40
12.0
100
AcDbArc
 50
0.0
 51
21.18315439303474
  0
ARC
  5
993
330
1E
100
AcDbEntity
  8
STEMPEL
100
AcDbCircle
 10
95.40000000000004
 20
253.0646753946661
 30
0.0
 40
25.00009324312574
100
AcDbArc
 50
179.8435140456689
 51
201.1831543930347
  0
LINE
  5
994
330
1E
100
AcDbEntity
  8
STEMPEL
100
AcDbLine
 10
70.40000000000003
 20
262.1457529875474
 30
0.0
 11
70.40000000000003
 21
252.9963953464724
 31
0.0
  0
ARC
  5
995
330
1E
100
AcDbEntity
  8
STEMPEL
100
AcDbCircle
 10
68.00000000000006
 20
212.3880757300976
 30
0.0
 40
8.0
100
AcDbArc
 50
0.0
 51
32.32806412216149
  0
ARC
  5
996
330
1E
100
AcDbEntity
  8
STEMPEL
100
AcDbCircle
 10
84.90000000000003
 20
223.0834018120831
 30
0.0
 40
12.0
100
AcDbArc
 50
180.0
 51
212.3280641221615
  0
LINE
  5
997
330
1E
100
AcDbEntity
  8
STEMPEL
100
AcDbLine
 10
76.0
 20
212.3880757300976
 30
0.0
 11
76.00000000000017
 21
205.2164532412192
 31
0.0
  0
LINE
  5
998
330
1E
100
AcDbEntity
  8
STEMPEL
100
AcDbLine
 10
72.90000000000009
 20
239.6946753946662
 30
0.0
 11
72.90000000000009
 21
223.0834018120832
 31
0.0
  0
LINE
  5
999
330
1E
100
AcDbEntity
  8
STEMPEL
100
AcDbLine
 10
152.2653973282748
 20
272.6946753946661
 30
0.0
 11
72.73460267172481
 21
272.6946753946661
 31
0.0
  0
DIMENSION
  5
ABD
330
1E
100
AcDbEntity
  8
BEM
100
AcDbDimension
  2
*D4
 10
40.72308511021927
 20
97.69467539466626
 30
0.0
 11
37.47308511021927
 21
185.1946753946662
 31
0.0
 70
    32
 71
     5
 42
174.9999999999999
  3
Standard
100
AcDbAlignedDimension
 13
72.73460267172481
 23
272.6946753946661
 33
0.0
 14
58.37488663525928
 24
97.69467539466626
 34
0.0
 50
90.0
100
AcDbRotatedDimension
1001
ACAD
1000
DSTYLE
1002
{
1070
    41
1040
3.5
1070
    42
1040
1.0
1070
    43
1040
7.0
1070
    44
1040
1.0
1070
    73
1070
     0
1070
    74
1070
     0
1070
    77
1070
     1
1070
    78
1070
     8
1070
    79
1070
     2
1070
   140
1040
3.5
1070
   141
1040
1.5
1070
   146
1040
0.5142857142857144
1070
   147
1040
1.5
1070
   172
1070
     1
1070
   178
1070
     1
1070
   179
1070
     2
1070
   271
1070
     2
1070
   272
1070
     2
1070
   284
1070
     8
1070
   285
1070
     8
1070
   286
1070
     8
1002
}
  0
ARC
  5
B4A
102
{ACAD_REACTORS
330
B54
102
}
330
1E
100
AcDbEntity
  8
SCHRAFF
100
AcDbCircle
 10
149.4958546006861
 20
195.4881298399932
 30
0.0
 40
5.284551333503372
100
AcDbArc
 50
351.3646102337896
 51
80.14327518220438
  0
HATCH
  5
B54
330
1E
100
AcDbEntity
  8
SCHRAFF
100
AcDbHatch
 10
0.0
 20
0.0
 30
0.0
210
0.0
220
0.0
230
1.0
  2
_USER
 70
     0
 71
     1
 91
        1
 92
        7
 72
     1
 73
     1
 93
        4
 10
150.4004905404702
 20
200.6946753946661
 42
0.0025058414825438
 10
150.4461446358478
 20
200.6287544863124
 42
0.0
 10
152.5000000000005
 20
197.6946753946657
 42
0.0
 10
154.7204993579517
 20
194.6946753946663
 42
0.4079838497556747
 97
        4
330
970
330
97C
330
97F
330
B4A
 75
     0
 76
     0
 52
0.0
 41
0.1
 77
     0
 78
     1
 53
0.0
 43
0.0
 44
0.0
 45
0.0
 46
0.1
 79
     0
 47
0.1218245571591271
 98
        1
 10
153.205201812545
 20
198.524763569837
  0
HATCH
  5
B55
330
1E
100
AcDbEntity
  8
SCHRAFF
100
AcDbHatch
 10
0.0
 20
0.0
 30
0.0
210
0.0
220
0.0
230
1.0
  2
_USER
 70
     0
 71
     0
 91
        1
 92
        7
 72
     1
 73
     1
 93
        4
 10
74.5995094595298
 20
200.6946753946661
 42
-0.0025058414825438
 10
74.55385536415224
 20
200.6287544863124
 42
0.0
 10
72.49999999999949
 20
197.6946753946657
 42
0.0
 10
70.27950064204834
 20
194.6946753946663
 42
-0.4079838497556747
 97
        0
 75
     0
 76
     0
 52
0.0
 41
0.1
 77
     0
 78
     1
 53
180.0
 43
225.0000000000002
 44
0.0000000000000853
 45
-0.0000000000000001
 46
0.1
 79
     0
 47
0.1218245571591271
 98
        1
 10
71.79479818745497
 20
198.5247635698369
  0
ARC
  5
B56
330
1E
100
AcDbEntity
  8
SCHRAFF
100
AcDbCircle
 10
75.50414539931395
 20
195.4881298399932
 30
0.0
 40
5.284551333503372
100
AcDbArc
 50
99.85672481779564
 51
188.6353897662104
  0
LINE
  5
B57
330
1E
100
AcDbEntity
  8
HILF
100
AcDbLine
 10
77.33809402394307
 20
214.6151814752295
 30
0.0
 11
147.661905976057
 21
214.6151814752295
 31
0.0
  0
LINE
  5
B58
330
1E
100
AcDbEntity
  8
HILF
100
AcDbLine
 10
75.05114219820389
 20
219.7427431943852
 30
0.0
 11
149.9488578017962
 21
219.7427431943852
 31
0.0
  0
LINE
  5
B59
330
1E
100
AcDbEntity
  8
HILF
100
AcDbLine
 10
74.31994657028679
 20
241.9003576135386
 30
0.0
 11
150.6800534297133
 21
241.9003576135386
 31
0.0
  0
TEXT
  5
B98
330
1E
100
AcDbEntity
  8
TEXT
 62
     1
100
AcDbText
 10
112.1317115166384
 20
65.85378649178483
 30
0.0
 40
3.5
  1
Werkstoff: SF-Cu DIN1754/1786
 41
0.8
  7
GREEKS
100
AcDbText
  0
ENDSEC
  0
SECTION
  2
OBJECTS
  0
DICTIONARY
  5
C
330
0
100
AcDbDictionary
281
     1
  3
ACAD_COLOR
350
DF
  3
ACAD_GROUP
350
D
  3
ACAD_LAYOUT
350
19
  3
ACAD_MATERIAL
350
DE
  3
ACAD_MLINESTYLE
350
16
  3
ACAD_PLOTSETTINGS
350
18
  3
ACAD_PLOTSTYLENAME
350
E
  3
AcDbVariableDictionary
350
EA
  0
DICTIONARY
  5
A0
330
1E
100
AcDbDictionary
280
     1
281
     1
  3
ACAD_LAYOUTSELFREF
360
D4
  0
DICTIONARY
  5
A2
330
1A
100
AcDbDictionary
280
     1
281
     1
  3
ACAD_LAYOUTSELFREF
360
D3
  0
DICTIONARY
  5
DF
102
{ACAD_REACTORS
330
C
102
}
330
C
100
AcDbDictionary
281
     1
  0
DICTIONARY
  5
D
102
{ACAD_REACTORS
330
C
102
}
330
C
100
AcDbDictionary
281
     1
  0
DICTIONARY
  5
19
102
{ACAD_REACTORS
330
C
102
}
330
C
100
AcDbDictionary
281
     1
  3
Layout1
350
1D
  3
Model
350
21
  0
DICTIONARY
  5
DE
102
{ACAD_REACTORS
330
C
102
}
330
C
100
AcDbDictionary
281
     1
  0
DICTIONARY
  5
16
102
{ACAD_REACTORS
330
C
102
}
330
C
100
AcDbDictionary
281
     1
  3
Standard
350
17
  0
DICTIONARY
  5
18
102
{ACAD_REACTORS
330
C
102
}
330
C
100
AcDbDictionary
281
     1
  0
ACDBDICTIONARYWDFLT
  5
E
102
{ACAD_REACTORS
330
C
102
}
330
C
100
AcDbDictionary
281
     1
  3
Normal
350
F
100
AcDbDictionaryWithDefault
340
F
  0
DICTIONARY
  5
EA
102
{ACAD_REACTORS
330
C
102
}
330
C
100
AcDbDictionary
281
     1
  3
DIMASSOC
350
EB
  3
PROJECTNAME
350
EC
  0
XRECORD
  5
D4
102
{ACAD_REACTORS
330
A0
102
}
330
A0
100
AcDbXrecord
280
     1
340
1E
  0
XRECORD
  5
D3
102
{ACAD_REACTORS
330
A2
102
}
330
A2
100
AcDbXrecord
280
     1
340
1A
  0
LAYOUT
  5
1D
102
{ACAD_REACTORS
330
19
102
}
330
19
100
AcDbPlotSettings
  1

  2
\\NT_WORK01\HP LaserJet 5000 PCL 6
  4

  6

 40
0.0
 41
0.0
 42
0.0
 43
0.0
 44
0.0
 45
0.0
 46
0.0
 47
0.0
 48
0.0
 49
0.0
140
0.0
141
0.0
142
1.0
143
1.0
 70
   688
 72
     0
 73
     0
 74
     5
  7

 75
    16
147
1.0
 76
     0
 77
     2
 78
   300
148
0.0
149
0.0
100
AcDbLayout
  1
Layout1
 70
     0
 71
     1
 10
0.0
 20
0.0
 11
12.0
 21
9.0
 12
0.0
 22
0.0
 32
0.0
 14
1.000000000000000E+20
 24
1.000000000000000E+20
 34
1.000000000000000E+20
 15
-1.000000000000000E+20
 25
-1.000000000000000E+20
 35
-1.000000000000000E+20
146
0.0
 13
0.0
 23
0.0
 33
0.0
 16
1.0
 26
0.0
 36
0.0
 17
0.0
 27
1.0
 37
0.0
 76
     0
330
1A
  0
LAYOUT
  5
21
102
{ACAD_REACTORS
330
19
102
}
330
19
100
AcDbPlotSettings
  1

  2
none_device
  4
Letter_(8.50_x_11.00_Inches)
  6

 40
6.349999904632568
 41
6.349999904632568
 42
6.350006103515625
 43
6.350006103515625
 44
215.8999938964844
 45
279.3999938964844
 46
0.0
 47
0.0
 48
0.0
 49
0.0
140
0.0
141
0.0
142
1.0
143
1.0
 70
 11952
 72
     0
 73
     1
 74
     0
  7

 75
     0
147
1.0
 76
     0
 77
     2
 78
   300
148
1151.641831603024
149
46.74179687150638
100
AcDbLayout
  1
Model
 70
     1
 71
     0
 10
0.0
 20
0.0
 11
12.0
 21
9.0
 12
0.0
 22
0.0
 32
0.0
 14
0.0
 24
0.0
 34
0.0
 15
0.0
 25
0.0
 35
0.0
146
0.0
 13
0.0
 23
0.0
 33
0.0
 16
1.0
 26
0.0
 36
0.0
 17
0.0
 27
1.0
 37
0.0
 76
     0
330
1E
  0
MLINESTYLE
  5
17
102
{ACAD_REACTORS
330
16
102
}
330
16
100
AcDbMlineStyle
  2
STANDARD
 70
     0
  3

 62
   256
 51
90.0
 52
90.0
 71
     2
 49
0.5
 62
   256
  6
BYLAYER
 49
-0.5
 62
   256
  6
BYLAYER
  0
ACDBPLACEHOLDER
  5
F
102
{ACAD_REACTORS
330
E
102
}
330
E
  0
DICTIONARYVAR
  5
EB
102
{ACAD_REACTORS
330
EA
102
}
330
EA
100
DictionaryVariables
280
     0
  1
1
  0
DICTIONARYVAR
  5
EC
102
{ACAD_REACTORS
330
EA
102
}
330
EA
100
DictionaryVariables
280
     0
  1

  0
ENDSEC
  0
EOF
