  0
SECTION
  2
HEADER
  9
$ACADVER
  1
AC1018
  9
$ACADMAINTVER
 70
     2
  9
$DWGCODEPAGE
  3
ANSI_1252
  9
$INSBASE
 10
0.0
 20
0.0
 30
0.0
  9
$EXTMIN
 10
-0.0288269351949566
 20
-0.0407695226328997
 30
-0.0000000000000129
  9
$EXTMAX
 10
420.0032069865897
 20
594.00453559532
 30
0.0000000000000023
  9
$LIMMIN
 10
0.0
 20
0.0
  9
$LIMMAX
 10
419.9999999999999
 20
594.0
  9
$ORTHOMODE
 70
     1
  9
$REGENMODE
 70
     1
  9
$FILLMODE
 70
     1
  9
$QTEXTMODE
 70
     0
  9
$MIRRTEXT
 70
     1
  9
$LTSCALE
 40
20.0
  9
$ATTMODE
 70
     1
  9
$TEXTSIZE
 40
3.5
  9
$TRACEWID
 40
0.5
  9
$TEXTSTYLE
  7
STANDARD
  9
$CLAYER
  8
SCHRAFF
  9
$CELTYPE
  6
ByLayer
  9
$CECOLOR
 62
   256
  9
$CELTSCALE
 40
1.0
  9
$DISPSILH
 70
     0
  9
$DIMSCALE
 40
2.0
  9
$DIMASZ
 40
3.5
  9
$DIMEXO
 40
1.0
  9
$DIMDLI
 40
7.0
  9
$DIMRND
 40
0.0
  9
$DIMDLE
 40
0.0
  9
$DIMEXE
 40
1.0
  9
$DIMTP
 40
0.0
  9
$DIMTM
 40
0.0
  9
$DIMTXT
 40
3.5
  9
$DIMCEN
 40
1.5
  9
$DIMTSZ
 40
0.0
  9
$DIMTOL
 70
     0
  9
$DIMLIM
 70
     0
  9
$DIMTIH
 70
     0
  9
$DIMTOH
 70
     0
  9
$DIMSE1
 70
     0
  9
$DIMSE2
 70
     0
  9
$DIMTAD
 70
     1
  9
$DIMZIN
 70
     8
  9
$DIMBLK
  1

  9
$DIMASO
 70
     1
  9
$DIMSHO
 70
     0
  9
$DIMPOST
  1

  9
$DIMAPOST
  1

  9
$DIMALT
 70
     0
  9
$DIMALTD
 70
     2
  9
$DIMALTF
 40
25.4
  9
$DIMLFAC
 40
1.0
  9
$DIMTOFL
 70
     1
  9
$DIMTVP
 40
0.0
  9
$DIMTIX
 70
     0
  9
$DIMSOXD
 70
     0
  9
$DIMSAH
 70
     0
  9
$DIMBLK1
  1

  9
$DIMBLK2
  1

  9
$DIMSTYLE
  2
Standard
  9
$DIMCLRD
 70
     0
  9
$DIMCLRE
 70
     0
  9
$DIMCLRT
 70
     1
  9
$DIMTFAC
 40
0.5142857142857144
  9
$DIMGAP
 40
1.5
  9
$DIMJUST
 70
     0
  9
$DIMSD1
 70
     0
  9
$DIMSD2
 70
     0
  9
$DIMTOLJ
 70
     1
  9
$DIMTZIN
 70
     8
  9
$DIMALTZ
 70
     8
  9
$DIMALTTZ
 70
     8
  9
$DIMUPT
 70
     0
  9
$DIMDEC
 70
     2
  9
$DIMTDEC
 70
     2
  9
$DIMALTU
 70
     2
  9
$DIMALTTD
 70
     2
  9
$DIMTXSTY
  7
STANDARD
  9
$DIMAUNIT
 70
     0
  9
$DIMADEC
 70
     2
  9
$DIMALTRND
 40
0.0
  9
$DIMAZIN
 70
     2
  9
$DIMDSEP
 70
    46
  9
$DIMATFIT
 70
     3
  9
$DIMFRAC
 70
     0
  9
$DIMLDRBLK
  1

  9
$DIMLUNIT
 70
     2
  9
$DIMLWD
 70
    -2
  9
$DIMLWE
 70
    -2
  9
$DIMTMOVE
 70
     0
  9
$LUNITS
 70
     2
  9
$LUPREC
 70
     2
  9
$SKETCHINC
 40
1.0
  9
$FILLETRAD
 40
0.0
  9
$AUNITS
 70
     0
  9
$AUPREC
 70
     0
  9
$MENU
  1
ACAD
  9
$ELEVATION
 40
0.0
  9
$PELEVATION
 40
0.0
  9
$THICKNESS
 40
0.0
  9
$LIMCHECK
 70
     0
  9
$CHAMFERA
 40
0.0
  9
$CHAMFERB
 40
0.0
  9
$CHAMFERC
 40
0.0
  9
$CHAMFERD
 40
0.0
  9
$SKPOLY
 70
     0
  9
$TDCREATE
 40
2455397.864709028
  9
$TDUCREATE
 40
2455397.781375695
  9
$TDUPDATE
 40
2455656.353730220
  9
$TDUUPDATE
 40
2455656.270396886
  9
$TDINDWG
 40
0.1735709375
  9
$TDUSRTIMER
 40
0.1735709375
  9
$USRTIMER
 70
     1
  9
$ANGBASE
 50
0.0
  9
$ANGDIR
 70
     0
  9
$PDMODE
 70
     0
  9
$PDSIZE
 40
0.0
  9
$PLINEWID
 40
0.0
  9
$SPLFRAME
 70
     0
  9
$SPLINETYPE
 70
     6
  9
$SPLINESEGS
 70
     8
  9
$HANDSEED
  5
39F3
  9
$SURFTAB1
 70
     6
  9
$SURFTAB2
 70
     6
  9
$SURFTYPE
 70
     6
  9
$SURFU
 70
     6
  9
$SURFV
 70
     6
  9
$UCSBASE
  2

  9
$UCSNAME
  2

  9
$UCSORG
 10
0.0
 20
0.0
 30
0.0
  9
$UCSXDIR
 10
1.0
 20
0.0
 30
0.0
  9
$UCSYDIR
 10
0.0
 20
1.0
 30
0.0
  9
$UCSORTHOREF
  2

  9
$UCSORTHOVIEW
 70
     0
  9
$UCSORGTOP
 10
0.0
 20
0.0
 30
0.0
  9
$UCSORGBOTTOM
 10
0.0
 20
0.0
 30
0.0
  9
$UCSORGLEFT
 10
0.0
 20
0.0
 30
0.0
  9
$UCSORGRIGHT
 10
0.0
 20
0.0
 30
0.0
  9
$UCSORGFRONT
 10
0.0
 20
0.0
 30
0.0
  9
$UCSORGBACK
 10
0.0
 20
0.0
 30
0.0
  9
$PUCSBASE
  2

  9
$PUCSNAME
  2

  9
$PUCSORG
 10
0.0
 20
0.0
 30
0.0
  9
$PUCSXDIR
 10
1.0
 20
0.0
 30
0.0
  9
$PUCSYDIR
 10
0.0
 20
1.0
 30
0.0
  9
$PUCSORTHOREF
  2

  9
$PUCSORTHOVIEW
 70
     0
  9
$PUCSORGTOP
 10
0.0
 20
0.0
 30
0.0
  9
$PUCSORGBOTTOM
 10
0.0
 20
0.0
 30
0.0
  9
$PUCSORGLEFT
 10
0.0
 20
0.0
 30
0.0
  9
$PUCSORGRIGHT
 10
0.0
 20
0.0
 30
0.0
  9
$PUCSORGFRONT
 10
0.0
 20
0.0
 30
0.0
  9
$PUCSORGBACK
 10
0.0
 20
0.0
 30
0.0
  9
$USERI1
 70
     0
  9
$USERI2
 70
     0
  9
$USERI3
 70
     0
  9
$USERI4
 70
     0
  9
$USERI5
 70
     0
  9
$USERR1
 40
0.0
  9
$USERR2
 40
0.0
  9
$USERR3
 40
0.0
  9
$USERR4
 40
0.0
  9
$USERR5
 40
0.0
  9
$WORLDVIEW
 70
     1
  9
$SHADEDGE
 70
     3
  9
$SHADEDIF
 70
    70
  9
$TILEMODE
 70
     1
  9
$MAXACTVP
 70
    16
  9
$PINSBASE
 10
0.0
 20
0.0
 30
0.0
  9
$PLIMCHECK
 70
     0
  9
$PEXTMIN
 10
1.000000000000000E+20
 20
1.000000000000000E+20
 30
1.000000000000000E+20
  9
$PEXTMAX
 10
-1.000000000000000E+20
 20
-1.000000000000000E+20
 30
-1.000000000000000E+20
  9
$PLIMMIN
 10
0.0
 20
0.0
  9
$PLIMMAX
 10
12.0
 20
9.0
  9
$UNITMODE
 70
     0
  9
$VISRETAIN
 70
     0
  9
$PLINEGEN
 70
     0
  9
$PSLTSCALE
 70
     0
  9
$TREEDEPTH
 70
  3020
  9
$CMLSTYLE
  2
Standard
  9
$CMLJUST
 70
     0
  9
$CMLSCALE
 40
1.0
  9
$PROXYGRAPHICS
 70
     1
  9
$MEASUREMENT
 70
     0
  9
$CELWEIGHT
370
    -1
  9
$ENDCAPS
280
     0
  9
$JOINSTYLE
280
     0
  9
$LWDISPLAY
290
     0
  9
$INSUNITS
 70
     0
  9
$HYPERLINKBASE
  1

  9
$STYLESHEET
  1
monochrome 1.ctb
  9
$XEDIT
290
     1
  9
$CEPSNTYPE
380
     0
  9
$PSTYLEMODE
290
     1
  9
$FINGERPRINTGUID
  2
{D68B0D02-A558-11D7-B632-000102183313}
  9
$VERSIONGUID
  2
{E29A992E-C7E6-496E-ABC6-DA11D742BD7F}
  9
$EXTNAMES
290
     1
  9
$PSVPSCALE
 40
0.0
  9
$OLESTARTUP
290
     0
  9
$SORTENTS
280
   127
  9
$INDEXCTL
280
     0
  9
$HIDETEXT
280
     0
  9
$XCLIPFRAME
290
     0
  9
$HALOGAP
280
     0
  9
$OBSCOLOR
 70
   257
  9
$OBSLTYPE
280
     0
  9
$INTERSECTIONDISPLAY
280
     0
  9
$INTERSECTIONCOLOR
 70
   257
  9
$DIMASSOC
280
     1
  9
$PROJECTNAME
  1

  0
ENDSEC
  0
SECTION
  2
CLASSES
  0
CLASS
  1
ACDBDICTIONARYWDFLT
  2
AcDbDictionaryWithDefault
  3
ObjectDBX Classes
 90
        0
 91
        1
280
     0
281
     0
  0
CLASS
  1
DICTIONARYVAR
  2
AcDbDictionaryVar
  3
ObjectDBX Classes
 90
        0
 91
        2
280
     0
281
     0
  0
CLASS
  1
DIMASSOC
  2
AcDbDimAssoc
  3
"AcDbDimAssoc|Product Desc:     AcDim ARX App For Dimension|Company:          Autodesk, Inc.|WEB Address:      www.autodesk.com"
 90
        0
 91
        0
280
     0
281
     0
  0
ENDSEC
  0
SECTION
  2
TABLES
  0
TABLE
  2
VPORT
  5
8
330
0
100
AcDbSymbolTable
 70
     3
  0
VPORT
  5
39F2
330
8
100
AcDbSymbolTableRecord
100
AcDbViewportTableRecord
  2
*Active
 70
     0
 10
0.0
 20
0.0
 11
1.0
 21
1.0
 12
210.0
 22
297.0
 13
0.0
 23
0.0
 14
1.0
 24
1.0
 15
10.0
 25
10.0
 16
0.0
 26
0.0
 36
1.0
 17
0.0
 27
0.0
 37
0.0
 40
594.0
 41
1.334231805929919
 42
50.0
 43
0.0
 44
0.0
 50
0.0
 51
0.0
 71
     0
 72
  1500
 73
     1
 74
     0
 75
     0
 76
     0
 77
     0
 78
     0
281
     0
 65
     1
110
0.0
120
0.0
130
0.0
111
1.0
121
0.0
131
0.0
112
0.0
122
1.0
132
0.0
 79
     0
146
0.0
  0
ENDTAB
  0
TABLE
  2
LTYPE
  5
5
330
0
100
AcDbSymbolTable
 70
     3
  0
LTYPE
  5
13
330
5
100
AcDbSymbolTableRecord
100
AcDbLinetypeTableRecord
  2
ByBlock
 70
     0
  3

 72
    65
 73
     0
 40
0.0
  0
LTYPE
  5
14
330
5
100
AcDbSymbolTableRecord
100
AcDbLinetypeTableRecord
  2
ByLayer
 70
     0
  3

 72
    65
 73
     0
 40
0.0
  0
LTYPE
  5
15
330
5
100
AcDbSymbolTableRecord
100
AcDbLinetypeTableRecord
  2
Continuous
 70
     0
  3
Solid line
 72
    65
 73
     0
 40
0.0
  0
LTYPE
  5
25
330
5
100
AcDbSymbolTableRecord
100
AcDbLinetypeTableRecord
  2
STRICHPUNKT
 70
     0
  3
__ . __ . __ . __ . __ . __ . __ . __ . __ . __
 72
    65
 73
     4
 40
1.0
 49
0.5
 74
     0
 49
-0.25
 74
     0
 49
0.0
 74
     0
 49
-0.25
 74
     0
  0
LTYPE
  5
32
330
5
100
AcDbSymbolTableRecord
100
AcDbLinetypeTableRecord
  2
AUSGEZOGEN
 70
     0
  3
Ausgezogene Linie
 72
    65
 73
     0
 40
0.0
  0
ENDTAB
  0
TABLE
  2
LAYER
  5
2
330
0
100
AcDbSymbolTable
 70
     9
  0
LAYER
  5
10
330
2
100
AcDbSymbolTableRecord
100
AcDbLayerTableRecord
  2
0
 70
     0
 62
     7
  6
Continuous
370
    -3
390
F
  0
LAYER
  5
2A
330
2
100
AcDbSymbolTableRecord
100
AcDbLayerTableRecord
  2
VOLL
 70
     0
 62
     1
  6
Continuous
370
    -3
390
F
  0
LAYER
  5
2B
330
2
100
AcDbSymbolTableRecord
100
AcDbLayerTableRecord
  2
HILF
 70
     0
 62
     2
  6
Continuous
370
    -3
390
F
  0
LAYER
  5
2C
330
2
100
AcDbSymbolTableRecord
100
AcDbLayerTableRecord
  2
MITTEL
 70
     0
 62
     2
  6
STRICHPUNKT
370
    -3
390
F
  0
LAYER
  5
2F
330
2
100
AcDbSymbolTableRecord
100
AcDbLayerTableRecord
  2
BEM
 70
     0
 62
     7
  6
Continuous
370
    -3
390
F
  0
LAYER
  5
30
330
2
100
AcDbSymbolTableRecord
100
AcDbLayerTableRecord
  2
STEMPEL
 70
     0
 62
     3
  6
Continuous
370
    -3
390
F
  0
LAYER
  5
31
330
2
100
AcDbSymbolTableRecord
100
AcDbLayerTableRecord
  2
TEXT
 70
     0
 62
     7
  6
Continuous
370
    -3
390
F
  0
LAYER
  5
195
330
2
100
AcDbSymbolTableRecord
100
AcDbLayerTableRecord
  2
DEFPOINTS
 70
     0
 62
     7
  6
AUSGEZOGEN
290
     0
370
    -3
390
F
  0
LAYER
  5
3B7
330
2
100
AcDbSymbolTableRecord
100
AcDbLayerTableRecord
  2
SCHRAFF
 70
     0
 62
     7
  6
Continuous
370
    -3
390
F
  0
ENDTAB
  0
TABLE
  2
STYLE
  5
3
330
0
100
AcDbSymbolTable
 70
     2
  0
STYLE
  5
11
330
3
100
AcDbSymbolTableRecord
100
AcDbTextStyleTableRecord
  2
STANDARD
 70
     0
 40
0.0
 41
0.8
 50
0.0
 71
     0
 42
3.5
  3
simplex.shx
  4

  0
STYLE
  5
24
330
3
100
AcDbSymbolTableRecord
100
AcDbTextStyleTableRecord
  2
GREEKS
 70
     0
 40
0.0
 41
0.8
 50
0.0
 71
     0
 42
2.5
  3
SIMPLEX.shx
  4

  0
ENDTAB
  0
TABLE
  2
VIEW
  5
6
330
0
100
AcDbSymbolTable
 70
     0
  0
ENDTAB
  0
TABLE
  2
UCS
  5
7
330
0
100
AcDbSymbolTable
 70
     0
  0
ENDTAB
  0
TABLE
  2
APPID
  5
9
330
0
100
AcDbSymbolTable
 70
     1
  0
APPID
  5
12
330
9
100
AcDbSymbolTableRecord
100
AcDbRegAppTableRecord
  2
ACAD
 70
     0
  0
ENDTAB
  0
TABLE
  2
DIMSTYLE
  5
A
330
0
100
AcDbSymbolTable
 70
     1
100
AcDbDimStyleTable
 71
     1
340
9D
  0
DIMSTYLE
105
9D
102
{ACAD_REACTORS
330
368A
330
3663
330
3660
330
3890
102
}
330
A
100
AcDbSymbolTableRecord
100
AcDbDimStyleTableRecord
  2
Standard
 70
     0
340
11
  0
ENDTAB
  0
TABLE
  2
BLOCK_RECORD
  5
1
330
0
100
AcDbSymbolTable
 70
    12
  0
BLOCK_RECORD
  5
1E
102
{ACAD_XDICTIONARY
360
A0
102
}
330
1
100
AcDbSymbolTableRecord
100
AcDbBlockTableRecord
  2
*Model_Space
340
21
  0
BLOCK_RECORD
  5
1A
102
{ACAD_XDICTIONARY
360
A2
102
}
330
1
100
AcDbSymbolTableRecord
100
AcDbBlockTableRecord
  2
*Paper_Space
340
1D
  0
BLOCK_RECORD
  5
22
330
1
100
AcDbSymbolTableRecord
100
AcDbBlockTableRecord
  2
LOGO
340
0
102
{BLKREFS
331
9B
102
}
  0
BLOCK_RECORD
  5
36CF
330
1
100
AcDbSymbolTableRecord
100
AcDbBlockTableRecord
  2
*D4
340
0
  0
BLOCK_RECORD
  5
36F6
330
1
100
AcDbSymbolTableRecord
100
AcDbBlockTableRecord
  2
*D5
340
0
  0
BLOCK_RECORD
  5
3737
330
1
100
AcDbSymbolTableRecord
100
AcDbBlockTableRecord
  2
*D9
340
0
  0
BLOCK_RECORD
  5
3891
330
1
100
AcDbSymbolTableRecord
100
AcDbBlockTableRecord
  2
*D11
340
0
  0
ENDTAB
  0
ENDSEC
  0
SECTION
  2
BLOCKS
  0
BLOCK
  5
35
330
1E
100
AcDbEntity
  8
0
100
AcDbBlockBegin
  2
*Model_Space
 70
     0
 10
0.0
 20
0.0
 30
0.0
  3
*Model_Space
  1

  0
ENDBLK
  5
36
330
1E
100
AcDbEntity
  8
0
100
AcDbBlockEnd
  0
BLOCK
  5
33
330
1A
100
AcDbEntity
 67
     1
  8
0
100
AcDbBlockBegin
  2
*Paper_Space
 70
     0
 10
0.0
 20
0.0
 30
0.0
  3
*Paper_Space
  1

  0
ENDBLK
  5
34
330
1A
100
AcDbEntity
 67
     1
  8
0
100
AcDbBlockEnd
  0
BLOCK
  5
37
330
22
100
AcDbEntity
  8
0
100
AcDbBlockBegin
  2
LOGO
 70
     0
 10
0.0
 20
0.0
 30
0.0
  3
LOGO
  1

  0
ARC
  5
38
330
22
100
AcDbEntity
  8
0
100
AcDbCircle
 10
11.59973089678112
 20
-9.271599258481501
 30
0.0
 40
4.5
100
AcDbArc
 50
270.0
 51
231.0575587310159
  0
LINE
  5
39
330
22
100
AcDbEntity
  8
0
100
AcDbLine
 10
3.599730896781125
 20
-4.771599258481529
 30
0.0
 11
3.599730896781153
 21
-11.77159925848133
 31
0.0
  0
LINE
  5
3A
330
22
100
AcDbEntity
  8
0
100
AcDbLine
 10
2.599730896781125
 20
-4.771599258481529
 30
0.0
 11
2.599730896781153
 21
-11.77159925848133
 31
0.0
  0
CIRCLE
  5
3B
330
22
100
AcDbEntity
  8
0
100
AcDbCircle
 10
11.59973089678112
 20
-9.271599258481501
 30
0.0
 40
3.5
  0
ARC
  5
3C
330
22
100
AcDbEntity
  8
0
100
AcDbCircle
 10
31.59973089678115
 20
-9.271599258481472
 30
0.0
 40
4.5
100
AcDbArc
 50
270.0
 51
231.0575587310182
  0
LINE
  5
3D
330
22
100
AcDbEntity
  8
0
100
AcDbLine
 10
17.59973089678112
 20
-4.771599258481472
 30
0.0
 11
17.59973089678115
 21
-13.77159925848147
 31
0.0
  0
ARC
  5
3E
330
22
100
AcDbEntity
  8
0
100
AcDbCircle
 10
22.59973089678116
 20
-7.271599258481472
 30
0.0
 40
2.5
100
AcDbArc
 50
293.1161887722295
 51
90.0
  0
CIRCLE
  5
3F
330
22
100
AcDbEntity
  8
0
100
AcDbCircle
 10
31.59973089678115
 20
-9.271599258481472
 30
0.0
 40
3.5
  0
ARC
  5
40
330
22
100
AcDbEntity
  8
0
100
AcDbCircle
 10
4.599730896781153
 20
-11.77159925848133
 30
0.0
 40
1.0
100
AcDbArc
 50
180.0
 51
270.0
  0
ARC
  5
41
330
22
100
AcDbEntity
  8
0
100
AcDbCircle
 10
4.599730896781153
 20
-11.77159925848133
 30
0.0
 40
2.0
100
AcDbArc
 50
179.9999999999992
 51
270.0
  0
LINE
  5
42
330
22
100
AcDbEntity
  8
0
100
AcDbLine
 10
11.59973089678115
 20
-13.77159925848144
 30
0.0
 11
4.599730896781153
 21
-13.77159925848147
 31
0.0
  0
LINE
  5
43
330
22
100
AcDbEntity
  8
0
100
AcDbLine
 10
8.771303772034769
 20
-12.77159925848136
 30
0.0
 11
4.599730896781153
 21
-12.77159925848133
 31
0.0
  0
LINE
  5
44
330
22
100
AcDbEntity
  8
0
100
AcDbLine
 10
31.59973089678115
 20
-13.77159925848147
 30
0.0
 11
23.6715276665056
 21
-13.77159925848144
 31
0.0
  0
LINE
  5
45
330
22
100
AcDbEntity
  8
0
100
AcDbLine
 10
23.56565672307022
 20
-9.51278021337896
 30
0.0
 11
24.4388546544846
 21
-12.77159925848144
 31
0.0
  0
LINE
  5
46
330
22
100
AcDbEntity
  8
0
100
AcDbLine
 10
22.59973089678116
 20
-9.771599258481472
 30
0.0
 11
18.59973089678112
 21
-9.771599258481472
 31
0.0
  0
LINE
  5
47
330
22
100
AcDbEntity
  8
0
100
AcDbLine
 10
18.59973089678115
 20
-13.77159925848144
 30
0.0
 11
17.59973089678115
 21
-13.77159925848144
 31
0.0
  0
LINE
  5
48
330
22
100
AcDbEntity
  8
0
100
AcDbLine
 10
18.59973089678115
 20
-9.771599258481472
 30
0.0
 11
18.59973089678115
 21
-13.77159925848144
 31
0.0
  0
LINE
  5
49
330
22
100
AcDbEntity
  8
0
100
AcDbLine
 10
22.59973089678116
 20
-9.771599258481472
 30
0.0
 11
23.67152766650562
 21
-13.77159925848147
 31
0.0
  0
ARC
  5
4A
330
22
100
AcDbEntity
  8
0
100
AcDbCircle
 10
22.59973089678116
 20
-7.271599258481472
 30
0.0
 40
2.5
100
AcDbArc
 50
270.0
 51
270.0000000000007
  0
LINE
  5
4B
330
22
100
AcDbEntity
  8
0
100
AcDbLine
 10
28.77130377203494
 20
-12.77159925848147
 30
0.0
 11
24.43885465448463
 21
-12.77159925848144
 31
0.0
  0
LINE
  5
4C
330
22
100
AcDbEntity
  8
0
100
AcDbLine
 10
3.599730896781125
 20
-4.771599258481472
 30
0.0
 11
2.599730896781125
 21
-4.771599258481472
 31
0.0
  0
LINE
  5
4D
330
22
100
AcDbEntity
  8
0
100
AcDbLine
 10
22.59973089678116
 20
-8.771599258481472
 30
0.0
 11
18.59973089678115
 21
-8.771599258481472
 31
0.0
  0
LINE
  5
4E
330
22
100
AcDbEntity
  8
0
100
AcDbLine
 10
22.59973089678116
 20
-5.771599258481472
 30
0.0
 11
18.59973089678115
 21
-5.771599258481472
 31
0.0
  0
LINE
  5
4F
330
22
100
AcDbEntity
  8
0
100
AcDbLine
 10
22.59973089678116
 20
-4.771599258481472
 30
0.0
 11
17.59973089678115
 21
-4.771599258481472
 31
0.0
  0
LINE
  5
50
330
22
100
AcDbEntity
  8
0
100
AcDbLine
 10
18.59973089678115
 20
-5.771599258481472
 30
0.0
 11
18.59973089678115
 21
-8.771599258481472
 31
0.0
  0
ARC
  5
51
330
22
100
AcDbEntity
  8
0
100
AcDbCircle
 10
22.59973089678116
 20
-7.271599258481472
 30
0.0
 40
1.5
100
AcDbArc
 50
270.0
 51
90.0
  0
ENDBLK
  5
52
330
22
100
AcDbEntity
  8
0
100
AcDbBlockEnd
  0
BLOCK
  5
36DA
330
36CF
100
AcDbEntity
  8
0
100
AcDbBlockBegin
  2
*D4
 70
     1
 10
0.0
 20
0.0
 30
0.0
  3
*D4
  1

  0
LINE
  5
39E8
330
36CF
100
AcDbEntity
  8
BEM
 62
     0
370
    -2
100
AcDbLine
 10
115.4999999999999
 20
232.7857908738769
 30
0.0
 11
115.4999999999999
 21
189.2300379351574
 31
0.0
  0
LINE
  5
39E9
330
36CF
100
AcDbEntity
  8
BEM
 62
     0
370
    -2
100
AcDbLine
 10
334.5
 20
232.7857908738769
 30
0.0
 11
334.5
 21
189.2300379351574
 31
0.0
  0
LINE
  5
39EA
330
36CF
100
AcDbEntity
  8
BEM
 62
     0
370
    -2
100
AcDbLine
 10
122.4999999999999
 20
191.2300379351574
 30
0.0
 11
327.5
 21
191.2300379351574
 31
0.0
  0
SOLID
  5
39EB
330
36CF
100
AcDbEntity
  8
BEM
 62
     0
100
AcDbTrace
 10
122.4999999999999
 20
192.3967046018241
 30
0.0
 11
122.4999999999999
 21
190.0633712684907
 31
0.0
 12
115.4999999999999
 22
191.2300379351574
 32
0.0
 13
115.4999999999999
 23
191.2300379351574
 33
0.0
  0
SOLID
  5
39EC
330
36CF
100
AcDbEntity
  8
BEM
 62
     0
100
AcDbTrace
 10
327.5
 20
192.3967046018241
 30
0.0
 11
327.5
 21
190.0633712684907
 31
0.0
 12
334.5
 22
191.2300379351574
 32
0.0
 13
334.5
 23
191.2300379351574
 33
0.0
  0
MTEXT
  5
39ED
330
36CF
100
AcDbEntity
  8
BEM
 62
     1
100
AcDbMText
 10
225.0
 20
197.7300379351574
 30
0.0
 40
7.0
 41
0.0
 71
     5
 72
     1
  1
\A1;%%C219
 73
     1
 44
1.0
  0
POINT
  5
39EE
330
36CF
100
AcDbEntity
  8
DEFPOINTS
 62
     0
100
AcDbPoint
 10
115.4999999999999
 20
234.7857908738769
 30
0.0
  0
POINT
  5
39EF
330
36CF
100
AcDbEntity
  8
DEFPOINTS
 62
     0
100
AcDbPoint
 10
334.5
 20
234.7857908738769
 30
0.0
  0
POINT
  5
39F0
330
36CF
100
AcDbEntity
  8
DEFPOINTS
 62
     0
100
AcDbPoint
 10
334.5
 20
191.2300379351574
 30
0.0
  0
ENDBLK
  5
36DB
330
36CF
100
AcDbEntity
  8
0
100
AcDbBlockEnd
  0
BLOCK
  5
3701
330
36F6
100
AcDbEntity
  8
0
100
AcDbBlockBegin
  2
*D5
 70
     1
 10
0.0
 20
0.0
 30
0.0
  3
*D5
  1

  0
LINE
  5
39DF
330
36F6
100
AcDbEntity
  8
BEM
 62
     0
370
    -2
100
AcDbLine
 10
145.4999999999999
 20
440.2580429592727
 30
0.0
 11
145.4999999999999
 21
419.4646625925344
 31
0.0
  0
LINE
  5
39E0
330
36F6
100
AcDbEntity
  8
BEM
 62
     0
370
    -2
100
AcDbLine
 10
304.4999999999999
 20
440.2580429592727
 30
0.0
 11
304.4999999999999
 21
419.4646625925344
 31
0.0
  0
LINE
  5
39E1
330
36F6
100
AcDbEntity
  8
BEM
 62
     0
370
    -2
100
AcDbLine
 10
152.4999999999999
 20
421.4646625925345
 30
0.0
 11
297.4999999999999
 21
421.4646625925345
 31
0.0
  0
SOLID
  5
39E2
330
36F6
100
AcDbEntity
  8
BEM
 62
     0
100
AcDbTrace
 10
152.4999999999999
 20
422.6313292592012
 30
0.0
 11
152.4999999999999
 21
420.2979959258678
 31
0.0
 12
145.4999999999999
 22
421.4646625925345
 32
0.0
 13
145.4999999999999
 23
421.4646625925345
 33
0.0
  0
SOLID
  5
39E3
330
36F6
100
AcDbEntity
  8
BEM
 62
     0
100
AcDbTrace
 10
297.4999999999999
 20
422.6313292592012
 30
0.0
 11
297.4999999999999
 21
420.2979959258678
 31
0.0
 12
304.4999999999999
 22
421.4646625925345
 32
0.0
 13
304.4999999999999
 23
421.4646625925345
 33
0.0
  0
MTEXT
  5
39E4
330
36F6
100
AcDbEntity
  8
BEM
 62
     1
100
AcDbMText
 10
224.9999999999999
 20
427.9646625925344
 30
0.0
 40
7.0
 41
0.0
 71
     5
 72
     1
  1
\A1;%%C159
 73
     1
 44
1.0
  0
POINT
  5
39E5
330
36F6
100
AcDbEntity
  8
DEFPOINTS
 62
     0
100
AcDbPoint
 10
145.4999999999999
 20
442.2580429592726
 30
0.0
  0
POINT
  5
39E6
330
36F6
100
AcDbEntity
  8
DEFPOINTS
 62
     0
100
AcDbPoint
 10
304.4999999999999
 20
442.2580429592726
 30
0.0
  0
POINT
  5
39E7
330
36F6
100
AcDbEntity
  8
DEFPOINTS
 62
     0
100
AcDbPoint
 10
304.4999999999999
 20
421.4646625925345
 30
0.0
  0
ENDBLK
  5
3702
330
36F6
100
AcDbEntity
  8
0
100
AcDbBlockEnd
  0
BLOCK
  5
3742
330
3737
100
AcDbEntity
  8
0
100
AcDbBlockBegin
  2
*D9
 70
     1
 10
0.0
 20
0.0
 30
0.0
  3
*D9
  1

  0
LINE
  5
39D6
330
3737
100
AcDbEntity
  8
BEM
 62
     0
370
    -2
100
AcDbLine
 10
115.2497732705183
 20
214.7857908738769
 30
0.0
 11
92.32634737262101
 21
214.7857908738769
 31
0.0
  0
LINE
  5
39D7
330
3737
100
AcDbEntity
  8
BEM
 62
     0
370
    -2
100
AcDbLine
 10
115.833372795654
 20
354.7857908738769
 30
0.0
 11
92.32634737262106
 21
354.7857908738769
 31
0.0
  0
LINE
  5
39D8
330
3737
100
AcDbEntity
  8
BEM
 62
     0
370
    -2
100
AcDbLine
 10
94.32634737262102
 20
221.7857908738769
 30
0.0
 11
94.32634737262103
 21
347.7857908738769
 31
0.0
  0
SOLID
  5
39D9
330
3737
100
AcDbEntity
  8
BEM
 62
     0
100
AcDbTrace
 10
93.15968070595435
 20
221.7857908738769
 30
0.0
 11
95.49301403928769
 21
221.7857908738769
 31
0.0
 12
94.32634737262102
 22
214.7857908738769
 32
0.0
 13
94.32634737262102
 23
214.7857908738769
 33
0.0
  0
SOLID
  5
39DA
330
3737
100
AcDbEntity
  8
BEM
 62
     0
100
AcDbTrace
 10
93.15968070595436
 20
347.7857908738769
 30
0.0
 11
95.49301403928771
 21
347.7857908738769
 31
0.0
 12
94.32634737262105
 22
354.7857908738769
 32
0.0
 13
94.32634737262105
 23
354.7857908738769
 33
0.0
  0
MTEXT
  5
39DB
330
3737
100
AcDbEntity
  8
BEM
 62
     1
100
AcDbMText
 10
87.82634737262098
 20
284.7857908738769
 30
0.0
 40
7.0
 41
0.0
 71
     5
 72
     1
  1
\A1;140
 11
0.0000000000000001
 21
1.0
 31
0.0
 73
     1
 44
1.0
  0
POINT
  5
39DC
330
3737
100
AcDbEntity
  8
DEFPOINTS
 62
     0
100
AcDbPoint
 10
117.2497732705183
 20
214.7857908738769
 30
0.0
  0
POINT
  5
39DD
330
3737
100
AcDbEntity
  8
DEFPOINTS
 62
     0
100
AcDbPoint
 10
117.833372795654
 20
354.7857908738769
 30
0.0
  0
POINT
  5
39DE
330
3737
100
AcDbEntity
  8
DEFPOINTS
 62
     0
100
AcDbPoint
 10
94.32634737262105
 20
354.7857908738769
 30
0.0
  0
ENDBLK
  5
3743
330
3737
100
AcDbEntity
  8
0
100
AcDbBlockEnd
  0
BLOCK
  5
389B
330
3891
100
AcDbEntity
  8
0
100
AcDbBlockBegin
  2
*D11
 70
     1
 10
0.0
 20
0.0
 30
0.0
  3
*D11
  1

  0
LINE
  5
39CD
330
3891
100
AcDbEntity
  8
BEM
 62
     0
370
    -2
100
AcDbLine
 10
136.2415552025937
 20
529.7857908738769
 30
0.0
 11
76.83112593355365
 21
529.7857908738769
 31
0.0
  0
LINE
  5
39CE
330
3891
100
AcDbEntity
  8
BEM
 62
     0
370
    -2
100
AcDbLine
 10
115.2497732705183
 20
214.7857908738769
 30
0.0
 11
76.83112593355358
 21
214.7857908738769
 31
0.0
  0
LINE
  5
39CF
330
3891
100
AcDbEntity
  8
BEM
 62
     0
370
    -2
100
AcDbLine
 10
78.83112593355365
 20
522.7857908738768
 30
0.0
 11
78.83112593355358
 21
221.7857908738769
 31
0.0
  0
SOLID
  5
39D0
330
3891
100
AcDbEntity
  8
BEM
 62
     0
100
AcDbTrace
 10
77.66445926688698
 20
522.7857908738768
 30
0.0
 11
79.99779260022032
 21
522.7857908738768
 31
0.0
 12
78.83112593355365
 22
529.7857908738769
 32
0.0
 13
78.83112593355365
 23
529.7857908738769
 33
0.0
  0
SOLID
  5
39D1
330
3891
100
AcDbEntity
  8
BEM
 62
     0
100
AcDbTrace
 10
77.66445926688691
 20
221.7857908738769
 30
0.0
 11
79.99779260022025
 21
221.7857908738769
 31
0.0
 12
78.83112593355358
 22
214.7857908738769
 32
0.0
 13
78.83112593355358
 23
214.7857908738769
 33
0.0
  0
MTEXT
  5
39D2
330
3891
100
AcDbEntity
  8
BEM
 62
     1
100
AcDbMText
 10
72.33112593355357
 20
372.2857908738769
 30
0.0
 40
7.0
 41
0.0
 71
     5
 72
     1
  1
\A1;315
 11
0.0000000000000001
 21
1.0
 31
0.0
 73
     1
 44
1.0
  0
POINT
  5
39D3
330
3891
100
AcDbEntity
  8
DEFPOINTS
 62
     0
100
AcDbPoint
 10
138.2415552025937
 20
529.7857908738769
 30
0.0
  0
POINT
  5
39D4
330
3891
100
AcDbEntity
  8
DEFPOINTS
 62
     0
100
AcDbPoint
 10
117.2497732705183
 20
214.7857908738769
 30
0.0
  0
POINT
  5
39D5
330
3891
100
AcDbEntity
  8
DEFPOINTS
 62
     0
100
AcDbPoint
 10
78.83112593355358
 20
214.7857908738769
 30
0.0
  0
ENDBLK
  5
389C
330
3891
100
AcDbEntity
  8
0
100
AcDbBlockEnd
  0
ENDSEC
  0
SECTION
  2
ENTITIES
  0
LINE
  5
57
330
1E
100
AcDbEntity
  8
STEMPEL
100
AcDbLine
 10
410.0
 20
110.0
 30
0.0
 11
39.99999999999997
 21
110.0
 31
0.0
  0
LINE
  5
58
330
1E
100
AcDbEntity
  8
STEMPEL
100
AcDbLine
 10
136.0000000000001
 20
109.9999999999999
 30
0.0
 11
136.0
 21
9.999999999999971
 31
0.0
  0
LINE
  5
59
330
1E
100
AcDbEntity
  8
STEMPEL
100
AcDbLine
 10
220.0
 20
110.0
 30
0.0
 11
220.0
 21
9.999999999999971
 31
0.0
  0
LINE
  5
5A
330
1E
100
AcDbEntity
  8
STEMPEL
100
AcDbLine
 10
332.0
 20
109.9999999999997
 30
0.0
 11
332.0
 21
40.0
 31
0.0
  0
LINE
  5
5B
330
1E
100
AcDbEntity
  8
STEMPEL
100
AcDbLine
 10
135.9999999999999
 20
29.99999999999997
 30
0.0
 11
39.99999999999997
 21
29.99999999999997
 31
0.0
  0
LINE
  5
5C
330
1E
100
AcDbEntity
  8
STEMPEL
100
AcDbLine
 10
410.0
 20
40.0
 30
0.0
 11
136.0000000000001
 21
39.99999999999997
 31
0.0
  0
LINE
  5
5D
330
1E
100
AcDbEntity
  8
STEMPEL
100
AcDbLine
 10
410.0
 20
80.0
 30
0.0
 11
136.0000000000001
 21
79.99999999999994
 31
0.0
  0
LINE
  5
5E
330
1E
100
AcDbEntity
  8
VOLL
100
AcDbLine
 10
54.00000000000009
 20
110.0
 30
0.0
 11
53.99999999999997
 21
9.999999999999971
 31
0.0
  0
LINE
  5
5F
330
1E
100
AcDbEntity
  8
VOLL
100
AcDbLine
 10
94.00000000000011
 20
109.9999999999999
 30
0.0
 11
94.0
 21
9.999999999999971
 31
0.0
  0
LINE
  5
60
330
1E
100
AcDbEntity
  8
VOLL
100
AcDbLine
 10
114.0000000000001
 20
109.9999999999999
 30
0.0
 11
114.0
 21
9.999999999999971
 31
0.0
  0
LINE
  5
61
330
1E
100
AcDbEntity
  8
VOLL
100
AcDbLine
 10
154.0000000000001
 20
79.99999999999994
 30
0.0
 11
154.0000000000001
 21
39.99999999999997
 31
0.0
  0
LINE
  5
62
330
1E
100
AcDbEntity
  8
VOLL
100
AcDbLine
 10
180.0000000000001
 20
109.9999999999998
 30
0.0
 11
180.0
 21
39.99999999999997
 31
0.0
  0
LINE
  5
63
330
1E
100
AcDbEntity
  8
HILF
100
AcDbLine
 10
40.00000000000008
 20
100.0
 30
0.0
 11
136.0000000000001
 21
100.0
 31
0.0
  0
LINE
  5
64
330
1E
100
AcDbEntity
  8
HILF
100
AcDbLine
 10
40.00000000000008
 20
90.00000000000005
 30
0.0
 11
136.0000000000001
 21
90.00000000000005
 31
0.0
  0
LINE
  5
65
330
1E
100
AcDbEntity
  8
HILF
100
AcDbLine
 10
40.00000000000008
 20
79.99999999999994
 30
0.0
 11
136.0000000000001
 21
79.99999999999994
 31
0.0
  0
LINE
  5
66
330
1E
100
AcDbEntity
  8
HILF
100
AcDbLine
 10
40.00000000000008
 20
69.99999999999994
 30
0.0
 11
136.0000000000001
 21
69.99999999999994
 31
0.0
  0
LINE
  5
67
330
1E
100
AcDbEntity
  8
HILF
100
AcDbLine
 10
40.00000000000008
 20
59.99999999999997
 30
0.0
 11
136.0000000000001
 21
59.99999999999997
 31
0.0
  0
LINE
  5
68
330
1E
100
AcDbEntity
  8
HILF
100
AcDbLine
 10
40.00000000000008
 20
49.99999999999997
 30
0.0
 11
136.0000000000001
 21
49.99999999999997
 31
0.0
  0
LINE
  5
69
330
1E
100
AcDbEntity
  8
HILF
100
AcDbLine
 10
40.00000000000008
 20
39.99999999999997
 30
0.0
 11
136.0000000000001
 21
39.99999999999997
 31
0.0
  0
LINE
  5
6A
330
1E
100
AcDbEntity
  8
HILF
100
AcDbLine
 10
136.0000000000001
 20
69.99999999999994
 30
0.0
 11
220.0
 21
69.99999999999994
 31
0.0
  0
LINE
  5
6B
330
1E
100
AcDbEntity
  8
HILF
100
AcDbLine
 10
136.0000000000001
 20
59.99999999999997
 30
0.0
 11
220.0
 21
59.99999999999997
 31
0.0
  0
LINE
  5
6C
330
1E
100
AcDbEntity
  8
HILF
100
AcDbLine
 10
136.0000000000001
 20
49.99999999999997
 30
0.0
 11
220.0
 21
49.99999999999997
 31
0.0
  0
LINE
  5
6D
330
1E
100
AcDbEntity
  8
HILF
100
AcDbLine
 10
224.7736801096948
 20
84.03758247564139
 30
0.0
 11
324.8353916556311
 21
84.03758247564139
 31
0.0
  0
LINE
  5
6E
330
1E
100
AcDbEntity
  8
HILF
100
AcDbLine
 10
224.7736801096948
 20
69.99999999999994
 30
0.0
 11
324.835391655631
 21
69.99999999999994
 31
0.0
  0
LINE
  5
6F
330
1E
100
AcDbEntity
  8
HILF
100
AcDbLine
 10
224.7736801096948
 20
59.99999999999997
 30
0.0
 11
324.835391655631
 21
59.99999999999997
 31
0.0
  0
LINE
  5
70
330
1E
100
AcDbEntity
  8
HILF
100
AcDbLine
 10
224.7736801096948
 20
49.99999999999997
 30
0.0
 11
324.835391655631
 21
49.99999999999997
 31
0.0
  0
LINE
  5
71
330
1E
100
AcDbEntity
  8
VOLL
100
AcDbLine
 10
332.0
 20
60.0
 30
0.0
 11
410.0
 21
60.0
 31
0.0
  0
LINE
  5
72
330
1E
100
AcDbEntity
  8
HILF
100
AcDbLine
 10
336.7238616296993
 20
83.77983636955827
 30
0.0
 11
404.8588839326728
 21
83.77983636955827
 31
0.0
  0
LINE
  5
73
330
1E
100
AcDbEntity
  8
HILF
100
AcDbLine
 10
223.4909699289885
 20
14.89398258028314
 30
0.0
 11
404.8588839326728
 21
14.89398258028314
 31
0.0
  0
TEXT
  5
74
330
1E
100
AcDbEntity
  8
TEXT
100
AcDbText
 10
63.86165979631819
 20
18.67381894984132
 30
0.0
 40
4.0
  1
Änderung
 41
0.8
  7
GREEKS
 72
     1
 11
74.60451693917534
 21
18.67381894984132
 31
0.0
100
AcDbText
  0
TEXT
  5
75
330
1E
100
AcDbEntity
  8
TEXT
100
AcDbText
 10
143.5163572150377
 20
102.4620895087088
 30
0.0
 40
5.0
  1
Maßstab
 41
0.8
  7
GREEKS
100
AcDbText
  0
TEXT
  5
76
330
1E
100
AcDbEntity
  8
TEXT
100
AcDbText
 10
184.2858954734051
 20
102.4184168434819
 30
0.0
 40
5.0
  1
Zul. Abw.
 41
0.8
  7
GREEKS
100
AcDbText
  0
TEXT
  5
77
330
1E
100
AcDbEntity
  8
TEXT
100
AcDbText
 10
224.877940380901
 20
102.5489328011779
 30
0.0
 40
5.0
  1
Benennung
 41
0.8
  7
GREEKS
100
AcDbText
  0
TEXT
  5
78
330
1E
100
AcDbEntity
  8
TEXT
100
AcDbText
 10
336.178754957634
 20
102.3132034537136
 30
0.0
 40
5.0
  1
Zeichnungs Nr.
 41
0.8
  7
GREEKS
100
AcDbText
  0
TEXT
  5
79
330
1E
100
AcDbEntity
  8
TEXT
100
AcDbText
 10
224.742238391136
 20
30.84560570193057
 30
0.0
 40
5.0
  1
Bauvorhaben
 41
0.8
  7
GREEKS
100
AcDbText
  0
TEXT
  5
7A
330
1E
100
AcDbEntity
  8
TEXT
100
AcDbText
 10
336.7238616296993
 20
73.1811823709997
 30
0.0
 40
5.0
  1
Ersatz für:
 41
0.8
  7
GREEKS
100
AcDbText
  0
TEXT
  5
7B
330
1E
100
AcDbEntity
  8
TEXT
100
AcDbText
 10
48.26641107045756
 20
13.65465846027192
 30
0.0
 40
4.0
  1
Index
 50
90.0
 41
0.8
  7
GREEKS
100
AcDbText
  0
TEXT
  5
7C
330
1E
100
AcDbEntity
  8
TEXT
100
AcDbText
 10
100.0934676075481
 20
18.6715626933981
 30
0.0
 40
4.0
  1
Tag
 41
0.8
  7
GREEKS
 72
     1
 11
103.8268009408814
 21
18.6715626933981
 31
0.0
100
AcDbText
  0
TEXT
  5
7D
330
1E
100
AcDbEntity
  8
TEXT
100
AcDbText
 10
119.0122744386592
 20
18.59324216966408
 30
0.0
 40
4.0
  1
Name
 41
0.8
  7
GREEKS
 72
     1
 11
125.3360839624688
 21
18.59324216966408
 31
0.0
100
AcDbText
  0
TEXT
  5
7E
330
1E
100
AcDbEntity
  8
TEXT
100
AcDbText
 10
162.3311673153651
 20
73.31880501229926
 30
0.0
 40
4.0
  1
Tag
 41
0.8
  7
GREEKS
100
AcDbText
  0
TEXT
  5
7F
330
1E
100
AcDbEntity
  8
TEXT
100
AcDbText
 10
192.4626584226295
 20
73.30961091915225
 30
0.0
 40
4.0
  1
Name
 41
0.8
  7
GREEKS
100
AcDbText
  0
TEXT
  5
80
330
1E
100
AcDbEntity
  8
TEXT
100
AcDbText
 10
137.5836127167615
 20
63.62990369617964
 30
0.0
 40
4.0
  1
Gez.
 41
0.8
  7
GREEKS
100
AcDbText
  0
TEXT
  5
81
330
1E
100
AcDbEntity
  8
TEXT
100
AcDbText
 10
137.5515086571672
 20
53.68926291428377
 30
0.0
 40
4.0
  1
Gepr.
 41
0.8
  7
GREEKS
100
AcDbText
  0
TEXT
  5
82
330
1E
100
AcDbEntity
  8
TEXT
100
AcDbText
 10
137.6006777387304
 20
43.52946389649807
 30
0.0
 40
4.0
  1
Norm.
 41
0.8
  7
GREEKS
100
AcDbText
  0
LINE
  5
83
330
1E
100
AcDbEntity
  8
STEMPEL
100
AcDbLine
 10
49.99999999999989
 20
10.0
 30
0.0
 11
410.0
 21
10.0
 31
0.0
  0
TEXT
  5
84
330
1E
100
AcDbEntity
  8
TEXT
100
AcDbText
 10
337.2400861497006
 20
52.07416177878602
 30
0.0
 40
5.0
  1
ersetzt durch:
 41
0.8
  7
GREEKS
100
AcDbText
  0
LINE
  5
85
330
1E
100
AcDbEntity
  8
STEMPEL
100
AcDbLine
 10
410.0
 20
10.0
 30
0.0
 11
39.99999999999989
 21
10.0
 31
0.0
  0
LINE
  5
86
330
1E
100
AcDbEntity
  8
STEMPEL
100
AcDbLine
 10
410.0
 20
10.0
 30
0.0
 11
410.0
 21
584.0
 31
0.0
  0
LINE
  5
87
330
1E
100
AcDbEntity
  8
STEMPEL
100
AcDbLine
 10
40.0
 20
10.0
 30
0.0
 11
39.99999999999989
 21
584.0
 31
0.0
  0
LINE
  5
88
330
1E
100
AcDbEntity
  8
STEMPEL
100
AcDbLine
 10
410.0
 20
584.0
 30
0.0
 11
39.99999999999989
 21
584.0
 31
0.0
  0
LINE
  5
89
330
1E
100
AcDbEntity
  8
HILF
100
AcDbLine
 10
0.0
 20
0.0
 30
0.0
 11
-0.0000000000001137
 21
594.0
 31
0.0
  0
LINE
  5
8A
330
1E
100
AcDbEntity
  8
HILF
100
AcDbLine
 10
419.9999999999999
 20
594.0000000000002
 30
0.0
 11
0.0
 21
594.0
 31
0.0
  0
LINE
  5
8B
330
1E
100
AcDbEntity
  8
HILF
100
AcDbLine
 10
420.0
 20
0.0
 30
0.0
 11
0.0
 21
0.0
 31
0.0
  0
LINE
  5
8C
330
1E
100
AcDbEntity
  8
HILF
100
AcDbLine
 10
31.08767135713856
 20
297.0
 30
0.0
 11
0.0000000000001137
 21
297.0
 31
0.0
  0
TEXT
  5
8D
330
1E
100
AcDbEntity
  8
TEXT
100
AcDbText
 10
138.622109822104
 20
73.14025471151666
 30
0.0
 40
4.0
  1
2011
 41
0.8
  7
GREEKS
100
AcDbText
  0
LINE
  5
8E
330
1E
100
AcDbEntity
  8
HILF
100
AcDbLine
 10
420.0
 20
-0.0000000000001137
 30
0.0
 11
419.9999999999999
 21
594.0
 31
0.0
  0
TEXT
  5
8F
330
1E
100
AcDbEntity
  8
VOLL
100
AcDbText
 10
78.07675471698113
 20
31.02594776470585
 30
0.0
 40
1.8
  1

  7
GREEKS
100
AcDbText
  0
TEXT
  5
90
330
1E
100
AcDbEntity
  8
TEXT
100
AcDbText
 10
41.85509950977674
 20
111.6719999999999
 30
0.0
 40
5.0
  1
Erstellt mit AUTOCAD 2004
 41
0.8
  7
GREEKS
100
AcDbText
  0
TEXT
  5
91
330
1E
100
AcDbEntity
  8
TEXT
100
AcDbText
 10
194.4216048581257
 20
63.0896391972351
 30
0.0
 40
4.0
  1
Koeh
 41
0.8
  7
GREEKS
 72
     1
 11
199.6787477152685
 21
63.0896391972351
 31
0.0
100
AcDbText
  0
TEXT
  5
92
330
1E
100
AcDbEntity
  8
TEXT
 62
     1
100
AcDbText
 10
347.2850229399057
 20
88.14901428913959
 30
0.0
 40
7.0
  1
00600FG0W
 41
0.8
  7
GREEKS
 72
     1
 11
371.1516896065724
 21
88.14901428913959
 31
0.0
100
AcDbText
  0
TEXT
  5
93
330
1E
100
AcDbEntity
  8
TEXT
 62
     1
100
AcDbText
 10
150.5006306481887
 20
88.14901428913959
 30
0.0
 40
7.0
  1
1:2
 41
0.8
  7
GREEKS
100
AcDbText
  0
TEXT
  5
94
330
1E
100
AcDbEntity
  8
TEXT
100
AcDbText
 10
160.398997108236
 20
63.10765040825732
 30
0.0
 40
4.0
  1
04.04.
 41
0.8
  7
GREEKS
 72
     1
 11
167.4085209177598
 21
63.10765040825732
 31
0.0
100
AcDbText
  0
TEXT
  5
95
330
1E
100
AcDbEntity
  8
TEXT
 62
     1
100
AcDbText
 10
224.2909241008022
 20
87.41748789253779
 30
0.0
 40
7.0
  1
Übergangsrohr DN150/200
 41
0.72
  7
GREEKS
100
AcDbText
  0
TEXT
  5
96
330
1E
100
AcDbEntity
  8
TEXT
100
AcDbText
 10
225.1296391125315
 20
71.50334417585288
 30
0.0
 40
5.0
  1
konzentrisches Red.-Stück
 41
0.8
  7
GREEKS
100
AcDbText
  0
TEXT
  5
98
330
1E
100
AcDbEntity
  8
TEXT
100
AcDbText
 10
225.1296391125315
 20
51.64011943042158
 30
0.0
 40
5.0
  1
EDV-Art.Nr. 00600.FG0X
 41
0.8
  7
GREEKS
100
AcDbText
  0
TEXT
  5
99
330
1E
100
AcDbEntity
  8
TEXT
100
AcDbText
 10
224.9837501577827
 20
42.62974153022632
 30
0.0
 40
4.0
  1
00600FG0W.DWG
 41
0.8
  7
GREEKS
100
AcDbText
  0
TEXT
  5
9A
330
1E
100
AcDbEntity
  8
TEXT
100
AcDbText
 10
182.626132208084
 20
90.76363841023022
 30
0.0
 40
4.0
  1
DIN EN1123-2
 41
0.8
  7
GREEKS
 72
     1
 11
199.6166083985602
 21
90.76363841023022
 31
0.0
100
AcDbText
  0
INSERT
  5
9B
330
1E
100
AcDbEntity
  8
STEMPEL
100
AcDbBlockReference
  2
LOGO
 10
140.9955485457794
 20
45.02105276448322
 30
0.0
 41
2.0
 42
2.0
 43
2.0
  0
TEXT
  5
118
330
1E
100
AcDbEntity
  8
BEM
100
AcDbText
 10
417.3022923857165
 20
10.16790107998849
 30
0.0
 40
4.0
  1
Diese Zeichnung ist urheberrechtlich geschützt und bleibt unser Eigentum. Sie darf weder ganz noch teilweise verfielfältigt und nicht an Dritte weitergegeben werden.
 50
90.0
 41
0.8
  7
GREEKS
100
AcDbText
  0
TEXT
  5
2B5
330
1E
100
AcDbEntity
  8
TEXT
 62
     1
100
AcDbText
 10
55.87395933336921
 20
155.3929853351618
 30
0.0
 40
7.0
  1
Rohrende leicht eingezogen
 41
0.8
  7
GREEKS
100
AcDbText
  0
TEXT
  5
3CA
330
1E
100
AcDbEntity
  8
TEXT
 62
     1
100
AcDbText
 10
230.7848671941443
 20
131.6541182112294
 30
0.0
 40
7.0
  1
feuerverzinkt und innen beschichtet
 41
0.8
  7
GREEKS
100
AcDbText
  0
TEXT
  5
3CB
330
1E
100
AcDbEntity
  8
TEXT
 62
     1
100
AcDbText
 10
182.8351497567465
 20
142.3762300262328
 30
0.0
 40
7.0
  1
Werkstoff: E195 EN10305, P235 TR1 EN10217-1
 41
0.8
  7
GREEKS
100
AcDbText
  0
TEXT
  5
27CD
330
1E
100
AcDbEntity
  8
TEXT
 62
     1
100
AcDbText
 10
217.6316059912119
 20
258.208069715677
 30
0.0
 40
7.0
  1
DN200
 50
90.0
 41
0.8
  7
GREEKS
100
AcDbText
  0
TEXT
  5
2817
330
1E
100
AcDbEntity
  8
TEXT
 62
     1
100
AcDbText
 10
217.6316059912119
 20
486.5870899734127
 30
0.0
 40
7.0
  1
DN150
 50
90.0
 41
0.8
  7
GREEKS
100
AcDbText
  0
ARC
  5
3640
330
1E
100
AcDbEntity
  8
SCHRAFF
100
AcDbCircle
 10
302.3467894339936
 20
391.785790873877
 30
0.0
 40
6.105960184964732
100
AcDbArc
 50
319.0729473791959
 51
40.92705262080416
  0
ARC
  5
3641
330
1E
100
AcDbEntity
  8
SCHRAFF
100
AcDbCircle
 10
296.2408292490289
 20
391.785790873877
 30
0.0
 40
6.105960184964732
100
AcDbArc
 50
319.0729473791959
 51
40.92705262080416
  0
ARC
  5
3642
330
1E
100
AcDbEntity
  8
SCHRAFF
100
AcDbCircle
 10
284.0289088790995
 20
391.785790873877
 30
0.0
 40
6.105960184964732
100
AcDbArc
 50
319.0729473791959
 51
40.92705262080416
  0
ARC
  5
3643
330
1E
100
AcDbEntity
  8
SCHRAFF
100
AcDbCircle
 10
277.9229486941347
 20
391.785790873877
 30
0.0
 40
6.105960184964732
100
AcDbArc
 50
319.0729473791959
 51
40.92705262080416
  0
ARC
  5
3644
330
1E
100
AcDbEntity
  8
SCHRAFF
100
AcDbCircle
 10
290.1348690640642
 20
391.785790873877
 30
0.0
 40
6.105960184964732
100
AcDbArc
 50
319.0729473791959
 51
40.92705262080416
  0
ARC
  5
3645
330
1E
100
AcDbEntity
  8
SCHRAFF
100
AcDbCircle
 10
271.8169885091699
 20
391.785790873877
 30
0.0
 40
6.105960184964732
100
AcDbArc
 50
319.0729473791959
 51
40.92705262080416
  0
ARC
  5
3646
330
1E
100
AcDbEntity
  8
SCHRAFF
100
AcDbCircle
 10
265.7110283242052
 20
391.785790873877
 30
0.0
 40
6.105960184964732
100
AcDbArc
 50
319.0729473791959
 51
40.92705262080416
  0
ARC
  5
3647
330
1E
100
AcDbEntity
  8
SCHRAFF
100
AcDbCircle
 10
253.4991079542758
 20
391.785790873877
 30
0.0
 40
6.105960184964732
100
AcDbArc
 50
319.0729473791959
 51
40.92705262080416
  0
ARC
  5
3648
330
1E
100
AcDbEntity
  8
SCHRAFF
100
AcDbCircle
 10
247.3931477693111
 20
391.785790873877
 30
0.0
 40
6.105960184964732
100
AcDbArc
 50
319.0729473791959
 51
40.92705262080416
  0
ARC
  5
3649
330
1E
100
AcDbEntity
  8
SCHRAFF
100
AcDbCircle
 10
259.6050681392405
 20
391.785790873877
 30
0.0
 40
6.105960184964732
100
AcDbArc
 50
319.0729473791959
 51
40.92705262080416
  0
ARC
  5
364A
330
1E
100
AcDbEntity
  8
SCHRAFF
100
AcDbCircle
 10
241.2871875843463
 20
391.785790873877
 30
0.0
 40
6.105960184964732
100
AcDbArc
 50
319.0729473791959
 51
40.92705262080416
  0
ARC
  5
364B
330
1E
100
AcDbEntity
  8
SCHRAFF
100
AcDbCircle
 10
235.1812273993816
 20
391.785790873877
 30
0.0
 40
6.105960184964732
100
AcDbArc
 50
319.0729473791959
 51
40.92705262080416
  0
ARC
  5
364D
330
1E
100
AcDbEntity
  8
SCHRAFF
100
AcDbCircle
 10
229.0752672144169
 20
391.785790873877
 30
0.0
 40
6.105960184964732
100
AcDbArc
 50
319.0729473791959
 51
40.92705262080416
  0
ARC
  5
364E
330
1E
100
AcDbEntity
  8
SCHRAFF
100
AcDbCircle
 10
222.9693070294521
 20
391.785790873877
 30
0.0
 40
6.105960184964732
100
AcDbArc
 50
319.0729473791959
 51
40.92705262080416
  0
ARC
  5
364F
330
1E
100
AcDbEntity
  8
SCHRAFF
100
AcDbCircle
 10
210.7573866595227
 20
391.785790873877
 30
0.0
 40
6.105960184964732
100
AcDbArc
 50
319.0729473791959
 51
40.92705262080416
  0
ARC
  5
3650
330
1E
100
AcDbEntity
  8
SCHRAFF
100
AcDbCircle
 10
204.6514264745579
 20
391.785790873877
 30
0.0
 40
6.105960184964732
100
AcDbArc
 50
319.0729473791959
 51
40.92705262080416
  0
ARC
  5
3651
330
1E
100
AcDbEntity
  8
SCHRAFF
100
AcDbCircle
 10
216.8633468444874
 20
391.785790873877
 30
0.0
 40
6.105960184964732
100
AcDbArc
 50
319.0729473791959
 51
40.92705262080416
  0
ARC
  5
3652
330
1E
100
AcDbEntity
  8
SCHRAFF
100
AcDbCircle
 10
198.5454662895932
 20
391.785790873877
 30
0.0
 40
6.105960184964732
100
AcDbArc
 50
319.0729473791959
 51
40.92705262080416
  0
ARC
  5
3653
330
1E
100
AcDbEntity
  8
SCHRAFF
100
AcDbCircle
 10
192.4395061046285
 20
391.785790873877
 30
0.0
 40
6.105960184964732
100
AcDbArc
 50
319.0729473791959
 51
40.92705262080416
  0
ARC
  5
3654
330
1E
100
AcDbEntity
  8
SCHRAFF
100
AcDbCircle
 10
186.3335459196638
 20
391.785790873877
 30
0.0
 40
6.105960184964732
100
AcDbArc
 50
319.0729473791959
 51
40.92705262080416
  0
ARC
  5
3655
330
1E
100
AcDbEntity
  8
SCHRAFF
100
AcDbCircle
 10
180.227585734699
 20
391.785790873877
 30
0.0
 40
6.105960184964732
100
AcDbArc
 50
319.0729473791959
 51
40.92705262080416
  0
ARC
  5
3656
330
1E
100
AcDbEntity
  8
SCHRAFF
100
AcDbCircle
 10
174.1216255497343
 20
391.785790873877
 30
0.0
 40
6.105960184964732
100
AcDbArc
 50
319.0729473791959
 51
40.92705262080416
  0
ARC
  5
3657
330
1E
100
AcDbEntity
  8
SCHRAFF
100
AcDbCircle
 10
168.0156653647696
 20
391.785790873877
 30
0.0
 40
6.105960184964732
100
AcDbArc
 50
319.0729473791959
 51
40.92705262080416
  0
ARC
  5
3658
330
1E
100
AcDbEntity
  8
SCHRAFF
100
AcDbCircle
 10
161.9097051798048
 20
391.785790873877
 30
0.0
 40
6.105960184964732
100
AcDbArc
 50
319.0729473791959
 51
40.92705262080416
  0
ARC
  5
3659
330
1E
100
AcDbEntity
  8
SCHRAFF
100
AcDbCircle
 10
155.8037449948401
 20
391.785790873877
 30
0.0
 40
6.105960184964732
100
AcDbArc
 50
319.0729473791959
 51
40.92705262080416
  0
ARC
  5
365A
330
1E
100
AcDbEntity
  8
SCHRAFF
100
AcDbCircle
 10
149.6977848098754
 20
391.785790873877
 30
0.0
 40
6.105960184964732
100
AcDbArc
 50
319.0729473791959
 51
40.92705262080416
  0
ARC
  5
365B
330
1E
100
AcDbEntity
  8
SCHRAFF
100
AcDbCircle
 10
143.5918246249107
 20
391.785790873877
 30
0.0
 40
6.105960184964732
100
AcDbArc
 50
319.0729473791959
 51
40.92705262080416
  0
ARC
  5
365C
330
1E
100
AcDbEntity
  8
SCHRAFF
100
AcDbCircle
 10
137.4858644399459
 20
391.785790873877
 30
0.0
 40
6.105960184964732
100
AcDbArc
 50
319.0729473791959
 51
40.92705262080416
  0
LINE
  5
365D
330
1E
100
AcDbEntity
  8
MITTEL
100
AcDbLine
 10
224.9999999999999
 20
418.4226247072203
 30
0.0
 11
224.9999999999999
 21
209.7857908738769
 31
0.0
  0
DIMENSION
  5
3660
330
1E
100
AcDbEntity
  8
BEM
100
AcDbDimension
  2
*D4
 10
334.5
 20
191.2300379351574
 30
0.0
 11
225.0
 21
197.7300379351574
 31
0.0
 70
    32
  1
%%C<>
 71
     5
 42
219.0000000000001
  3
Standard
100
AcDbAlignedDimension
 13
115.4999999999999
 23
234.7857908738769
 33
0.0
 14
334.5
 24
234.7857908738769
 34
0.0
100
AcDbRotatedDimension
1001
ACAD
1000
DSTYLE
1002
{
1070
    40
1040
2.0
1070
    41
1040
3.5
1070
    42
1040
1.0
1070
    43
1040
7.0
1070
    44
1040
1.0
1070
    73
1070
     0
1070
    74
1070
     0
1070
    77
1070
     1
1070
    78
1070
     8
1070
    79
1070
     2
1070
   140
1040
3.5
1070
   141
1040
1.5
1070
   146
1040
0.5142857142857144
1070
   147
1040
1.5
1070
   172
1070
     1
1070
   178
1070
     1
1070
   179
1070
     2
1070
   271
1070
     2
1070
   272
1070
     2
1070
   284
1070
     8
1070
   285
1070
     8
1070
   286
1070
     8
1002
}
  0
DIMENSION
  5
3663
330
1E
100
AcDbEntity
  8
BEM
100
AcDbDimension
  2
*D5
 10
304.4999999999999
 20
421.4646625925345
 30
0.0
 11
224.9999999999999
 21
427.9646625925344
 31
0.0
 70
    32
  1
%%C<>
 71
     5
 42
158.9999999999999
  3
Standard
100
AcDbAlignedDimension
 13
145.4999999999999
 23
442.2580429592726
 33
0.0
 14
304.4999999999999
 24
442.2580429592726
 34
0.0
100
AcDbRotatedDimension
1001
ACAD
1000
DSTYLE
1002
{
1070
    40
1040
2.0
1070
    41
1040
3.5
1070
    42
1040
1.0
1070
    43
1040
7.0
1070
    44
1040
1.0
1070
    73
1070
     0
1070
    74
1070
     0
1070
    77
1070
     1
1070
    78
1070
     8
1070
    79
1070
     2
1070
   140
1040
3.5
1070
   141
1040
1.5
1070
   146
1040
0.5142857142857144
1070
   147
1040
1.5
1070
   172
1070
     1
1070
   178
1070
     1
1070
   179
1070
     2
1070
   271
1070
     2
1070
   272
1070
     2
1070
   284
1070
     8
1070
   285
1070
     8
1070
   286
1070
     8
1002
}
  0
DIMENSION
  5
368A
330
1E
100
AcDbEntity
  8
BEM
100
AcDbDimension
  2
*D9
 10
94.32634737262105
 20
354.7857908738769
 30
0.0
 11
87.82634737262098
 21
284.7857908738769
 31
0.0
 70
    32
 71
     5
 42
139.9999999999999
  3
Standard
100
AcDbAlignedDimension
 13
117.2497732705183
 23
214.7857908738769
 33
0.0
 14
117.833372795654
 24
354.7857908738769
 34
0.0
 50
90.0
100
AcDbRotatedDimension
1001
ACAD
1000
DSTYLE
1002
{
1070
    40
1040
2.0
1070
    41
1040
3.5
1070
    42
1040
1.0
1070
    43
1040
7.0
1070
    44
1040
1.0
1070
    73
1070
     0
1070
    74
1070
     0
1070
    77
1070
     1
1070
    78
1070
     8
1070
    79
1070
     2
1070
   140
1040
3.5
1070
   141
1040
1.5
1070
   146
1040
0.5142857142857144
1070
   147
1040
1.5
1070
   172
1070
     1
1070
   178
1070
     1
1070
   179
1070
     2
1070
   271
1070
     2
1070
   272
1070
     2
1070
   284
1070
     8
1070
   285
1070
     8
1070
   286
1070
     8
1002
}
  0
ARC
  5
368B
330
1E
100
AcDbEntity
  8
STEMPEL
100
AcDbCircle
 10
316.5
 20
345.9225639197677
 30
0.0
 40
18.0
100
AcDbArc
 50
0.0
 51
27.40149799065767
  0
ARC
  5
368C
330
1E
100
AcDbEntity
  8
STEMPEL
100
AcDbCircle
 10
133.4999999999999
 20
345.9225639197677
 30
0.0
 40
18.0
100
AcDbArc
 50
152.5985020093424
 51
180.0
  0
ARC
  5
368E
330
1E
100
AcDbEntity
  8
STEMPEL
100
AcDbCircle
 10
135.4999999999999
 20
409.6860865628924
 30
0.0
 40
10.0
100
AcDbArc
 50
330.9622458582138
 51
0.0
  0
LINE
  5
3693
330
1E
100
AcDbEntity
  8
HILF
100
AcDbLine
 10
302.341123204988
 20
406.7857908738769
 30
0.0
 11
147.6588767950118
 21
406.7857908738769
 31
0.0
  0
LINE
  5
3694
330
1E
100
AcDbEntity
  8
STEMPEL
100
AcDbLine
 10
334.5
 20
234.7857908738769
 30
0.0
 11
332.7502267294815
 21
214.7857908738769
 31
0.0
  0
LINE
  5
3695
330
1E
100
AcDbEntity
  8
STEMPEL
100
AcDbLine
 10
115.4999999999999
 20
234.7857908738769
 30
0.0
 11
117.2497732705183
 21
214.7857908738769
 31
0.0
  0
LINE
  5
3696
330
1E
100
AcDbEntity
  8
HILF
100
AcDbLine
 10
332.0
 20
234.7857908738769
 30
0.0
 11
117.9999999999999
 21
234.7857908738769
 31
0.0
  0
LINE
  5
3699
330
1E
100
AcDbEntity
  8
HILF
100
AcDbLine
 10
329.2158644204769
 20
354.785790873877
 30
0.0
 11
120.784135579523
 21
354.7857908738769
 31
0.0
  0
LINE
  5
369A
330
1E
100
AcDbEntity
  8
STEMPEL
100
AcDbLine
 10
312.9999999999999
 20
391.785790873877
 30
0.0
 11
136.9999999999999
 21
391.785790873877
 31
0.0
  0
LINE
  5
369B
330
1E
100
AcDbEntity
  8
STEMPEL
100
AcDbLine
 10
334.5
 20
345.9225639197677
 30
0.0
 11
334.5
 21
234.7857908738769
 31
0.0
  0
LINE
  5
369C
330
1E
100
AcDbEntity
  8
STEMPEL
100
AcDbLine
 10
115.4999999999999
 20
345.9225639197677
 30
0.0
 11
115.4999999999999
 21
234.7857908738769
 31
0.0
  0
LINE
  5
369D
330
1E
100
AcDbEntity
  8
HILF
100
AcDbLine
 10
302.0677942095121
 20
443.5581426412062
 30
0.0
 11
147.9322057904876
 21
443.5581426412062
 31
0.0
  0
LINE
  5
369E
330
1E
100
AcDbEntity
  8
HILF
100
AcDbLine
 10
306.8706115870755
 20
456.2281880302479
 30
0.0
 11
143.1293884129243
 21
456.2281880302479
 31
0.0
  0
LINE
  5
369F
330
1E
100
AcDbEntity
  8
HILF
100
AcDbLine
 10
307.0702264114525
 20
474.9811820147918
 30
0.0
 11
142.9297735885472
 21
474.9811820147918
 31
0.0
  0
LINE
  5
36A0
330
1E
100
AcDbEntity
  8
STEMPEL
100
AcDbLine
 10
332.7502267294815
 20
214.7857908738769
 30
0.0
 11
117.2497732705183
 21
214.7857908738769
 31
0.0
  0
LINE
  5
36A1
330
1E
100
AcDbEntity
  8
STEMPEL
100
AcDbLine
 10
311.7584447974061
 20
529.7857908738769
 30
0.0
 11
312.2207725462827
 21
528.7943258168676
 31
0.0
  0
ARC
  5
36A2
330
1E
100
AcDbEntity
  8
STEMPEL
100
AcDbCircle
 10
280.4999999999999
 20
514.0026866559431
 30
0.0
 40
35.0
100
AcDbArc
 50
0.0
 51
24.99999999999259
  0
ARC
  5
36A3
330
1E
100
AcDbEntity
  8
STEMPEL
100
AcDbCircle
 10
280.4999999999999
 20
497.7807908738768
 30
0.0
 40
35.00004740563918
100
AcDbArc
 50
332.4728163794473
 51
0.0943014490836795
  0
LINE
  5
36A4
330
1E
100
AcDbEntity
  8
STEMPEL
100
AcDbLine
 10
309.4999999999999
 20
473.2857908738769
 30
0.0
 11
309.4999999999999
 21
458.2267623819439
 31
0.0
  0
ARC
  5
36A5
330
1E
100
AcDbEntity
  8
STEMPEL
100
AcDbCircle
 10
327.4999999999999
 20
473.2857908738769
 30
0.0
 40
18.0
100
AcDbArc
 50
152.4728163794473
 51
180.0
  0
LINE
  5
36A6
330
1E
100
AcDbEntity
  8
STEMPEL
100
AcDbLine
 10
315.4999999999999
 20
514.0026866559431
 30
0.0
 11
315.4999999999999
 21
497.7231853447231
 31
0.0
  0
ARC
  5
36A7
330
1E
100
AcDbEntity
  8
STEMPEL
100
AcDbCircle
 10
314.4999999999999
 20
442.2580429592726
 30
0.0
 40
10.0
100
AcDbArc
 50
145.2280559680514
 51
180.0
  0
LINE
  5
36A8
330
1E
100
AcDbEntity
  8
STEMPEL
100
AcDbLine
 10
304.4999999999999
 20
442.2580429592726
 30
0.0
 11
304.4999999999998
 21
409.6860865628925
 31
0.0
  0
LINE
  5
36A9
330
1E
100
AcDbEntity
  8
MITTEL
100
AcDbLine
 10
225.0
 20
534.7857908738768
 30
0.0
 11
224.9999999999999
 21
434.1910368677599
 31
0.0
  0
ARC
  5
36AA
330
1E
100
AcDbEntity
  8
STEMPEL
100
AcDbCircle
 10
291.4999999999999
 20
458.2267623819439
 30
0.0
 40
18.0
100
AcDbArc
 50
325.2280559680514
 51
0.0
  0
LINE
  5
36AB
330
1E
100
AcDbEntity
  8
STEMPEL
100
AcDbLine
 10
138.2415552025937
 20
529.7857908738769
 30
0.0
 11
137.7792274537172
 21
528.7943258168676
 31
0.0
  0
ARC
  5
36AC
330
1E
100
AcDbEntity
  8
STEMPEL
100
AcDbCircle
 10
169.4999999999999
 20
514.0026866559431
 30
0.0
 40
35.0
100
AcDbArc
 50
155.0000000000039
 51
180.0
  0
LINE
  5
36AD
330
1E
100
AcDbEntity
  8
STEMPEL
100
AcDbLine
 10
140.4999999999999
 20
473.2857908738769
 30
0.0
 11
140.4999999999999
 21
458.2267623819439
 31
0.0
  0
ARC
  5
36AE
330
1E
100
AcDbEntity
  8
STEMPEL
100
AcDbCircle
 10
122.4999999999999
 20
473.2857908738769
 30
0.0
 40
18.0
100
AcDbArc
 50
0.0
 51
27.52718362055266
  0
ARC
  5
36AF
330
1E
100
AcDbEntity
  8
STEMPEL
100
AcDbCircle
 10
169.4999999999999
 20
497.7807908738768
 30
0.0
 40
35.00004740563918
100
AcDbArc
 50
179.9056985509163
 51
207.5271836205526
  0
LINE
  5
36B0
330
1E
100
AcDbEntity
  8
STEMPEL
100
AcDbLine
 10
134.4999999999999
 20
514.0026866559431
 30
0.0
 11
134.4999999999999
 21
497.7231853447231
 31
0.0
  0
ARC
  5
36B1
330
1E
100
AcDbEntity
  8
STEMPEL
100
AcDbCircle
 10
135.4999999999999
 20
442.2580429592726
 30
0.0
 40
10.0
100
AcDbArc
 50
0.0
 51
34.77194403194856
  0
LINE
  5
36B2
330
1E
100
AcDbEntity
  8
STEMPEL
100
AcDbLine
 10
145.4999999999999
 20
442.2580429592726
 30
0.0
 11
145.4999999999999
 21
409.6860865628924
 31
0.0
  0
ARC
  5
36B3
330
1E
100
AcDbEntity
  8
STEMPEL
100
AcDbCircle
 10
158.4999999999999
 20
458.2267623819439
 30
0.0
 40
18.0
100
AcDbArc
 50
180.0
 51
214.7719440319486
  0
LINE
  5
36B4
330
1E
100
AcDbEntity
  8
STEMPEL
100
AcDbLine
 10
311.7584447974061
 20
529.7857908738769
 30
0.0
 11
138.2415552025937
 21
529.7857908738769
 31
0.0
  0
DIMENSION
  5
3890
330
1E
100
AcDbEntity
  8
BEM
100
AcDbDimension
  2
*D11
 10
78.83112593355358
 20
214.7857908738769
 30
0.0
 11
72.33112593355357
 21
372.2857908738769
 31
0.0
 70
    32
 71
     5
 42
314.9999999999999
  3
Standard
100
AcDbAlignedDimension
 13
138.2415552025937
 23
529.7857908738769
 33
0.0
 14
117.2497732705183
 24
214.7857908738769
 34
0.0
 50
90.0
100
AcDbRotatedDimension
1001
ACAD
1000
DSTYLE
1002
{
1070
    40
1040
2.0
1070
    41
1040
3.5
1070
    42
1040
1.0
1070
    43
1040
7.0
1070
    44
1040
1.0
1070
    73
1070
     0
1070
    74
1070
     0
1070
    77
1070
     1
1070
    78
1070
     8
1070
    79
1070
     2
1070
   140
1040
3.5
1070
   141
1040
1.5
1070
   146
1040
0.5142857142857144
1070
   147
1040
1.5
1070
   172
1070
     1
1070
   178
1070
     1
1070
   179
1070
     2
1070
   271
1070
     2
1070
   272
1070
     2
1070
   284
1070
     8
1070
   285
1070
     8
1070
   286
1070
     8
1002
}
  0
LINE
  5
3943
102
{ACAD_REACTORS
330
39AB
102
}
330
1E
100
AcDbEntity
  8
STEMPEL
100
AcDbLine
 10
136.9999999999999
 20
391.785790873877
 30
0.0
 11
144.2430005970384
 21
404.8322282460289
 31
0.0
  0
LINE
  5
3944
102
{ACAD_REACTORS
330
39AB
102
}
330
1E
100
AcDbEntity
  8
STEMPEL
100
AcDbLine
 10
312.9999999999999
 20
391.785790873877
 30
0.0
 11
305.7569994029614
 21
404.8322282460289
 31
0.0
  0
ARC
  5
3945
330
1E
100
AcDbEntity
  8
STEMPEL
100
AcDbCircle
 10
314.4999999999999
 20
409.6860865628924
 30
0.0
 40
10.0
100
AcDbArc
 50
180.0
 51
209.0377541417861
  0
LINE
  5
398E
102
{ACAD_REACTORS
330
39AB
102
}
330
1E
100
AcDbEntity
  8
STEMPEL
100
AcDbLine
 10
312.9999999999999
 20
391.785790873877
 30
0.0
 11
332.4804603534567
 21
354.206577855753
 31
0.0
  0
LINE
  5
398F
102
{ACAD_REACTORS
330
39AB
102
}
330
1E
100
AcDbEntity
  8
STEMPEL
100
AcDbLine
 10
136.9999999999999
 20
391.785790873877
 30
0.0
 11
117.5195396465432
 21
354.2065778557529
 31
0.0
  0
ARC
  5
399C
102
{ACAD_REACTORS
330
39AB
102
}
330
1E
100
AcDbEntity
  8
SCHRAFF
100
AcDbCircle
 10
311.5288726923526
 20
391.0356157282063
 30
0.0
 40
4.80894975348287
100
AcDbArc
 50
317.4847189771181
 51
98.96707291217925
  0
ARC
  5
399D
102
{ACAD_REACTORS
330
39AB
102
}
330
1E
100
AcDbEntity
  8
SCHRAFF
100
AcDbCircle
 10
138.4711273076472
 20
391.0356157282063
 30
0.0
 40
4.80894975348287
100
AcDbArc
 50
81.03292708782076
 51
222.5152810228819
  0
HATCH
  5
39AB
330
1E
100
AcDbEntity
  8
SCHRAFF
100
AcDbHatch
 10
0.0
 20
0.0
 30
0.0
210
0.0
220
0.0
230
1.0
  2
_USER
 70
     0
 71
     1
 91
        2
 92
        7
 72
     1
 73
     1
 93
        3
 10
136.9999999999999
 20
391.7857908738769
 42
0.0
 10
139.2206830540569
 20
395.785790873877
 42
0.7098907112015766
 10
134.9264642562831
 20
387.785790873877
 42
0.0
 97
        3
330
3943
330
399D
330
398F
 92
        7
 72
     1
 73
     1
 93
        3
 10
310.7793169459429
 20
395.785790873877
 42
0.0
 10
313.0
 20
391.7857908738778
 42
0.0
 10
315.073535743717
 20
387.7857908738773
 42
0.7098907112015401
 97
        3
330
3944
330
398E
330
399C
 75
     0
 76
     0
 52
0.0
 41
0.1
 77
     0
 78
     1
 53
0.0
 43
8.578219723714795
 44
0.0
 45
0.0
 46
0.1
 79
     0
 47
0.2870877309327232
 98
        2
 10
135.997429272238
 20
391.6330755456659
 10
314.3860356916542
 20
393.0685140998741
  0
ENDSEC
  0
SECTION
  2
OBJECTS
  0
DICTIONARY
  5
C
330
0
100
AcDbDictionary
281
     1
  3
ACAD_COLOR
350
DF
  3
ACAD_GROUP
350
D
  3
ACAD_LAYOUT
350
19
  3
ACAD_MATERIAL
350
DE
  3
ACAD_MLINESTYLE
350
16
  3
ACAD_PLOTSETTINGS
350
18
  3
ACAD_PLOTSTYLENAME
350
E
  3
AcDbVariableDictionary
350
EA
  0
DICTIONARY
  5
A0
330
1E
100
AcDbDictionary
280
     1
281
     1
  3
ACAD_LAYOUTSELFREF
360
D4
  0
DICTIONARY
  5
A2
330
1A
100
AcDbDictionary
280
     1
281
     1
  3
ACAD_LAYOUTSELFREF
360
D3
  0
DICTIONARY
  5
DF
102
{ACAD_REACTORS
330
C
102
}
330
C
100
AcDbDictionary
281
     1
  0
DICTIONARY
  5
D
102
{ACAD_REACTORS
330
C
102
}
330
C
100
AcDbDictionary
281
     1
  0
DICTIONARY
  5
19
102
{ACAD_REACTORS
330
C
102
}
330
C
100
AcDbDictionary
281
     1
  3
Layout1
350
1D
  3
Model
350
21
  0
DICTIONARY
  5
DE
102
{ACAD_REACTORS
330
C
102
}
330
C
100
AcDbDictionary
281
     1
  0
DICTIONARY
  5
16
102
{ACAD_REACTORS
330
C
102
}
330
C
100
AcDbDictionary
281
     1
  3
Standard
350
17
  0
DICTIONARY
  5
18
102
{ACAD_REACTORS
330
C
102
}
330
C
100
AcDbDictionary
281
     1
  0
ACDBDICTIONARYWDFLT
  5
E
102
{ACAD_REACTORS
330
C
102
}
330
C
100
AcDbDictionary
281
     1
  3
Normal
350
F
100
AcDbDictionaryWithDefault
340
F
  0
DICTIONARY
  5
EA
102
{ACAD_REACTORS
330
C
102
}
330
C
100
AcDbDictionary
281
     1
  3
DIMASSOC
350
EB
  3
PROJECTNAME
350
EC
  0
XRECORD
  5
D4
102
{ACAD_REACTORS
330
A0
102
}
330
A0
100
AcDbXrecord
280
     1
340
1E
  0
XRECORD
  5
D3
102
{ACAD_REACTORS
330
A2
102
}
330
A2
100
AcDbXrecord
280
     1
340
1A
  0
LAYOUT
  5
1D
102
{ACAD_REACTORS
330
19
102
}
330
19
100
AcDbPlotSettings
  1

  2
\\NT_WORK01\HP LaserJet 5000 PCL 6
  4

  6

 40
0.0
 41
0.0
 42
0.0
 43
0.0
 44
0.0
 45
0.0
 46
0.0
 47
0.0
 48
0.0
 49
0.0
140
0.0
141
0.0
142
1.0
143
1.0
 70
   688
 72
     0
 73
     0
 74
     5
  7

 75
    16
147
1.0
 76
     0
 77
     2
 78
   300
148
0.0
149
0.0
100
AcDbLayout
  1
Layout1
 70
     0
 71
     1
 10
0.0
 20
0.0
 11
12.0
 21
9.0
 12
0.0
 22
0.0
 32
0.0
 14
1.000000000000000E+20
 24
1.000000000000000E+20
 34
1.000000000000000E+20
 15
-1.000000000000000E+20
 25
-1.000000000000000E+20
 35
-1.000000000000000E+20
146
0.0
 13
0.0
 23
0.0
 33
0.0
 16
1.0
 26
0.0
 36
0.0
 17
0.0
 27
1.0
 37
0.0
 76
     0
330
1A
  0
LAYOUT
  5
21
102
{ACAD_REACTORS
330
19
102
}
330
19
100
AcDbPlotSettings
  1

  2
none_device
  4
Letter_(8.50_x_11.00_Inches)
  6

 40
6.349999904632568
 41
6.349999904632568
 42
6.350006103515625
 43
6.350006103515625
 44
215.8999938964844
 45
279.3999938964844
 46
0.0
 47
0.0
 48
0.0
 49
0.0
140
0.0
141
0.0
142
1.0
143
1.0
 70
 11952
 72
     0
 73
     1
 74
     0
  7

 75
     0
147
1.0
 76
     0
 77
     2
 78
   300
148
2301.464089178006
149
91.63030778842109
100
AcDbLayout
  1
Model
 70
     1
 71
     0
 10
0.0
 20
0.0
 11
12.0
 21
9.0
 12
0.0
 22
0.0
 32
0.0
 14
0.0
 24
0.0
 34
0.0
 15
0.0
 25
0.0
 35
0.0
146
0.0
 13
0.0
 23
0.0
 33
0.0
 16
1.0
 26
0.0
 36
0.0
 17
0.0
 27
1.0
 37
0.0
 76
     0
330
1E
  0
MLINESTYLE
  5
17
102
{ACAD_REACTORS
330
16
102
}
330
16
100
AcDbMlineStyle
  2
STANDARD
 70
     0
  3

 62
   256
 51
90.0
 52
90.0
 71
     2
 49
0.5
 62
   256
  6
BYLAYER
 49
-0.5
 62
   256
  6
BYLAYER
  0
ACDBPLACEHOLDER
  5
F
102
{ACAD_REACTORS
330
E
102
}
330
E
  0
DICTIONARYVAR
  5
EB
102
{ACAD_REACTORS
330
EA
102
}
330
EA
100
DictionaryVariables
280
     0
  1
1
  0
DICTIONARYVAR
  5
EC
102
{ACAD_REACTORS
330
EA
102
}
330
EA
100
DictionaryVariables
280
     0
  1

  0
ENDSEC
  0
EOF
