  0
SECTION
  2
HEADER
  9
$ACADVER
  1
AC1018
  9
$ACADMAINTVER
 70
     2
  9
$DWGCODEPAGE
  3
ANSI_1252
  9
$INSBASE
 10
0.0
 20
0.0
 30
0.0
  9
$EXTMIN
 10
-0.0000000000001137
 20
-0.0000000000001137
 30
0.0
  9
$EXTMAX
 10
420.0
 20
594.0000000000002
 30
0.0
  9
$LIMMIN
 10
0.0
 20
0.0
  9
$LIMMAX
 10
419.9999999999999
 20
594.0
  9
$ORTHOMODE
 70
     1
  9
$REGENMODE
 70
     1
  9
$FILLMODE
 70
     1
  9
$QTEXTMODE
 70
     0
  9
$MIRRTEXT
 70
     1
  9
$LTSCALE
 40
20.0
  9
$ATTMODE
 70
     1
  9
$TEXTSIZE
 40
3.5
  9
$TRACEWID
 40
0.5
  9
$TEXTSTYLE
  7
STANDARD
  9
$CLAYER
  8
VOLL
  9
$CELTYPE
  6
ByLayer
  9
$CECOLOR
 62
   256
  9
$CELTSCALE
 40
1.0
  9
$DISPSILH
 70
     0
  9
$DIMSCALE
 40
2.0
  9
$DIMASZ
 40
3.5
  9
$DIMEXO
 40
1.0
  9
$DIMDLI
 40
7.0
  9
$DIMRND
 40
0.0
  9
$DIMDLE
 40
0.0
  9
$DIMEXE
 40
1.0
  9
$DIMTP
 40
0.0
  9
$DIMTM
 40
0.0
  9
$DIMTXT
 40
3.5
  9
$DIMCEN
 40
1.5
  9
$DIMTSZ
 40
0.0
  9
$DIMTOL
 70
     0
  9
$DIMLIM
 70
     0
  9
$DIMTIH
 70
     0
  9
$DIMTOH
 70
     0
  9
$DIMSE1
 70
     0
  9
$DIMSE2
 70
     0
  9
$DIMTAD
 70
     1
  9
$DIMZIN
 70
     8
  9
$DIMBLK
  1

  9
$DIMASO
 70
     1
  9
$DIMSHO
 70
     0
  9
$DIMPOST
  1

  9
$DIMAPOST
  1

  9
$DIMALT
 70
     0
  9
$DIMALTD
 70
     2
  9
$DIMALTF
 40
25.4
  9
$DIMLFAC
 40
1.0
  9
$DIMTOFL
 70
     1
  9
$DIMTVP
 40
0.0
  9
$DIMTIX
 70
     0
  9
$DIMSOXD
 70
     0
  9
$DIMSAH
 70
     0
  9
$DIMBLK1
  1

  9
$DIMBLK2
  1

  9
$DIMSTYLE
  2
Standard
  9
$DIMCLRD
 70
     0
  9
$DIMCLRE
 70
     0
  9
$DIMCLRT
 70
     1
  9
$DIMTFAC
 40
0.5142857142857144
  9
$DIMGAP
 40
1.5
  9
$DIMJUST
 70
     0
  9
$DIMSD1
 70
     0
  9
$DIMSD2
 70
     0
  9
$DIMTOLJ
 70
     1
  9
$DIMTZIN
 70
     8
  9
$DIMALTZ
 70
     8
  9
$DIMALTTZ
 70
     8
  9
$DIMUPT
 70
     0
  9
$DIMDEC
 70
     2
  9
$DIMTDEC
 70
     2
  9
$DIMALTU
 70
     2
  9
$DIMALTTD
 70
     2
  9
$DIMTXSTY
  7
STANDARD
  9
$DIMAUNIT
 70
     0
  9
$DIMADEC
 70
     2
  9
$DIMALTRND
 40
0.0
  9
$DIMAZIN
 70
     2
  9
$DIMDSEP
 70
    46
  9
$DIMATFIT
 70
     3
  9
$DIMFRAC
 70
     0
  9
$DIMLDRBLK
  1

  9
$DIMLUNIT
 70
     2
  9
$DIMLWD
 70
    -2
  9
$DIMLWE
 70
    -2
  9
$DIMTMOVE
 70
     0
  9
$LUNITS
 70
     2
  9
$LUPREC
 70
     2
  9
$SKETCHINC
 40
1.0
  9
$FILLETRAD
 40
0.0
  9
$AUNITS
 70
     0
  9
$AUPREC
 70
     0
  9
$MENU
  1
ACAD
  9
$ELEVATION
 40
0.0
  9
$PELEVATION
 40
0.0
  9
$THICKNESS
 40
0.0
  9
$LIMCHECK
 70
     0
  9
$CHAMFERA
 40
0.0
  9
$CHAMFERB
 40
0.0
  9
$CHAMFERC
 40
0.0
  9
$CHAMFERD
 40
0.0
  9
$SKPOLY
 70
     0
  9
$TDCREATE
 40
2455397.864709028
  9
$TDUCREATE
 40
2455397.781375695
  9
$TDUPDATE
 40
2455859.404133044
  9
$TDUUPDATE
 40
2455859.320799711
  9
$TDINDWG
 40
0.0728075347
  9
$TDUSRTIMER
 40
0.0728075347
  9
$USRTIMER
 70
     1
  9
$ANGBASE
 50
0.0
  9
$ANGDIR
 70
     0
  9
$PDMODE
 70
     0
  9
$PDSIZE
 40
0.0
  9
$PLINEWID
 40
0.0
  9
$SPLFRAME
 70
     0
  9
$SPLINETYPE
 70
     6
  9
$SPLINESEGS
 70
     8
  9
$HANDSEED
  5
17A7
  9
$SURFTAB1
 70
     6
  9
$SURFTAB2
 70
     6
  9
$SURFTYPE
 70
     6
  9
$SURFU
 70
     6
  9
$SURFV
 70
     6
  9
$UCSBASE
  2

  9
$UCSNAME
  2

  9
$UCSORG
 10
0.0
 20
0.0
 30
0.0
  9
$UCSXDIR
 10
1.0
 20
0.0
 30
0.0
  9
$UCSYDIR
 10
0.0
 20
1.0
 30
0.0
  9
$UCSORTHOREF
  2

  9
$UCSORTHOVIEW
 70
     0
  9
$UCSORGTOP
 10
0.0
 20
0.0
 30
0.0
  9
$UCSORGBOTTOM
 10
0.0
 20
0.0
 30
0.0
  9
$UCSORGLEFT
 10
0.0
 20
0.0
 30
0.0
  9
$UCSORGRIGHT
 10
0.0
 20
0.0
 30
0.0
  9
$UCSORGFRONT
 10
0.0
 20
0.0
 30
0.0
  9
$UCSORGBACK
 10
0.0
 20
0.0
 30
0.0
  9
$PUCSBASE
  2

  9
$PUCSNAME
  2

  9
$PUCSORG
 10
0.0
 20
0.0
 30
0.0
  9
$PUCSXDIR
 10
1.0
 20
0.0
 30
0.0
  9
$PUCSYDIR
 10
0.0
 20
1.0
 30
0.0
  9
$PUCSORTHOREF
  2

  9
$PUCSORTHOVIEW
 70
     0
  9
$PUCSORGTOP
 10
0.0
 20
0.0
 30
0.0
  9
$PUCSORGBOTTOM
 10
0.0
 20
0.0
 30
0.0
  9
$PUCSORGLEFT
 10
0.0
 20
0.0
 30
0.0
  9
$PUCSORGRIGHT
 10
0.0
 20
0.0
 30
0.0
  9
$PUCSORGFRONT
 10
0.0
 20
0.0
 30
0.0
  9
$PUCSORGBACK
 10
0.0
 20
0.0
 30
0.0
  9
$USERI1
 70
     0
  9
$USERI2
 70
     0
  9
$USERI3
 70
     0
  9
$USERI4
 70
     0
  9
$USERI5
 70
     0
  9
$USERR1
 40
0.0
  9
$USERR2
 40
0.0
  9
$USERR3
 40
0.0
  9
$USERR4
 40
0.0
  9
$USERR5
 40
0.0
  9
$WORLDVIEW
 70
     1
  9
$SHADEDGE
 70
     3
  9
$SHADEDIF
 70
    70
  9
$TILEMODE
 70
     1
  9
$MAXACTVP
 70
    16
  9
$PINSBASE
 10
0.0
 20
0.0
 30
0.0
  9
$PLIMCHECK
 70
     0
  9
$PEXTMIN
 10
1.000000000000000E+20
 20
1.000000000000000E+20
 30
1.000000000000000E+20
  9
$PEXTMAX
 10
-1.000000000000000E+20
 20
-1.000000000000000E+20
 30
-1.000000000000000E+20
  9
$PLIMMIN
 10
0.0
 20
0.0
  9
$PLIMMAX
 10
12.0
 20
9.0
  9
$UNITMODE
 70
     0
  9
$VISRETAIN
 70
     0
  9
$PLINEGEN
 70
     0
  9
$PSLTSCALE
 70
     0
  9
$TREEDEPTH
 70
  3020
  9
$CMLSTYLE
  2
Standard
  9
$CMLJUST
 70
     0
  9
$CMLSCALE
 40
1.0
  9
$PROXYGRAPHICS
 70
     1
  9
$MEASUREMENT
 70
     0
  9
$CELWEIGHT
370
    -1
  9
$ENDCAPS
280
     0
  9
$JOINSTYLE
280
     0
  9
$LWDISPLAY
290
     0
  9
$INSUNITS
 70
     0
  9
$HYPERLINKBASE
  1

  9
$STYLESHEET
  1
monochrome1.ctb
  9
$XEDIT
290
     1
  9
$CEPSNTYPE
380
     0
  9
$PSTYLEMODE
290
     1
  9
$FINGERPRINTGUID
  2
{D68B0D02-A558-11D7-B632-000102183313}
  9
$VERSIONGUID
  2
{4DA7EE3D-D129-4DB1-8CE2-71CADEAF2AD8}
  9
$EXTNAMES
290
     1
  9
$PSVPSCALE
 40
0.0
  9
$OLESTARTUP
290
     0
  9
$SORTENTS
280
   127
  9
$INDEXCTL
280
     0
  9
$HIDETEXT
280
     0
  9
$XCLIPFRAME
290
     0
  9
$HALOGAP
280
     0
  9
$OBSCOLOR
 70
   257
  9
$OBSLTYPE
280
     0
  9
$INTERSECTIONDISPLAY
280
     0
  9
$INTERSECTIONCOLOR
 70
   257
  9
$DIMASSOC
280
     1
  9
$PROJECTNAME
  1

  0
ENDSEC
  0
SECTION
  2
CLASSES
  0
CLASS
  1
ACDBDICTIONARYWDFLT
  2
AcDbDictionaryWithDefault
  3
ObjectDBX Classes
 90
        0
 91
        1
280
     0
281
     0
  0
CLASS
  1
DICTIONARYVAR
  2
AcDbDictionaryVar
  3
ObjectDBX Classes
 90
        0
 91
        2
280
     0
281
     0
  0
ENDSEC
  0
SECTION
  2
TABLES
  0
TABLE
  2
VPORT
  5
8
330
0
100
AcDbSymbolTable
 70
     2
  0
VPORT
  5
17A6
330
8
100
AcDbSymbolTableRecord
100
AcDbViewportTableRecord
  2
*Active
 70
     0
 10
0.0
 20
0.0
 11
1.0
 21
1.0
 12
210.0
 22
297.0
 13
0.0
 23
0.0
 14
1.0
 24
1.0
 15
10.0
 25
10.0
 16
0.0
 26
0.0
 36
1.0
 17
0.0
 27
0.0
 37
0.0
 40
594.0
 41
1.36388140161725
 42
50.0
 43
0.0
 44
0.0
 50
0.0
 51
0.0
 71
     0
 72
  1500
 73
     1
 74
     0
 75
     0
 76
     0
 77
     0
 78
     0
281
     0
 65
     1
110
0.0
120
0.0
130
0.0
111
1.0
121
0.0
131
0.0
112
0.0
122
1.0
132
0.0
 79
     0
146
0.0
  0
ENDTAB
  0
TABLE
  2
LTYPE
  5
5
330
0
100
AcDbSymbolTable
 70
     3
  0
LTYPE
  5
13
330
5
100
AcDbSymbolTableRecord
100
AcDbLinetypeTableRecord
  2
ByBlock
 70
     0
  3

 72
    65
 73
     0
 40
0.0
  0
LTYPE
  5
14
330
5
100
AcDbSymbolTableRecord
100
AcDbLinetypeTableRecord
  2
ByLayer
 70
     0
  3

 72
    65
 73
     0
 40
0.0
  0
LTYPE
  5
15
330
5
100
AcDbSymbolTableRecord
100
AcDbLinetypeTableRecord
  2
Continuous
 70
     0
  3
Solid line
 72
    65
 73
     0
 40
0.0
  0
LTYPE
  5
25
330
5
100
AcDbSymbolTableRecord
100
AcDbLinetypeTableRecord
  2
STRICHPUNKT
 70
     0
  3
__ . __ . __ . __ . __ . __ . __ . __ . __ . __
 72
    65
 73
     4
 40
1.0
 49
0.5
 74
     0
 49
-0.25
 74
     0
 49
0.0
 74
     0
 49
-0.25
 74
     0
  0
LTYPE
  5
32
330
5
100
AcDbSymbolTableRecord
100
AcDbLinetypeTableRecord
  2
AUSGEZOGEN
 70
     0
  3
Ausgezogene Linie
 72
    65
 73
     0
 40
0.0
  0
ENDTAB
  0
TABLE
  2
LAYER
  5
2
330
0
100
AcDbSymbolTable
 70
     9
  0
LAYER
  5
10
330
2
100
AcDbSymbolTableRecord
100
AcDbLayerTableRecord
  2
0
 70
     0
 62
     7
  6
Continuous
370
    -3
390
F
  0
LAYER
  5
2A
330
2
100
AcDbSymbolTableRecord
100
AcDbLayerTableRecord
  2
VOLL
 70
     0
 62
     1
  6
Continuous
370
    -3
390
F
  0
LAYER
  5
2B
330
2
100
AcDbSymbolTableRecord
100
AcDbLayerTableRecord
  2
HILF
 70
     0
 62
     2
  6
Continuous
370
    -3
390
F
  0
LAYER
  5
2C
330
2
100
AcDbSymbolTableRecord
100
AcDbLayerTableRecord
  2
MITTEL
 70
     0
 62
     2
  6
STRICHPUNKT
370
    -3
390
F
  0
LAYER
  5
2F
330
2
100
AcDbSymbolTableRecord
100
AcDbLayerTableRecord
  2
BEM
 70
     0
 62
     7
  6
Continuous
370
    -3
390
F
  0
LAYER
  5
30
330
2
100
AcDbSymbolTableRecord
100
AcDbLayerTableRecord
  2
STEMPEL
 70
     0
 62
     3
  6
Continuous
370
    -3
390
F
  0
LAYER
  5
31
330
2
100
AcDbSymbolTableRecord
100
AcDbLayerTableRecord
  2
TEXT
 70
     0
 62
     7
  6
Continuous
370
    -3
390
F
  0
LAYER
  5
195
330
2
100
AcDbSymbolTableRecord
100
AcDbLayerTableRecord
  2
DEFPOINTS
 70
     0
 62
     7
  6
AUSGEZOGEN
290
     0
370
    -3
390
F
  0
LAYER
  5
3B7
330
2
100
AcDbSymbolTableRecord
100
AcDbLayerTableRecord
  2
SCHRAFF
 70
     0
 62
     7
  6
Continuous
370
    -3
390
F
  0
ENDTAB
  0
TABLE
  2
STYLE
  5
3
330
0
100
AcDbSymbolTable
 70
     2
  0
STYLE
  5
11
330
3
100
AcDbSymbolTableRecord
100
AcDbTextStyleTableRecord
  2
STANDARD
 70
     0
 40
0.0
 41
0.8
 50
0.0
 71
     0
 42
3.5
  3
simplex.shx
  4

  0
STYLE
  5
24
330
3
100
AcDbSymbolTableRecord
100
AcDbTextStyleTableRecord
  2
GREEKS
 70
     0
 40
0.0
 41
0.8
 50
0.0
 71
     0
 42
2.5
  3
SIMPLEX.shx
  4

  0
ENDTAB
  0
TABLE
  2
VIEW
  5
6
330
0
100
AcDbSymbolTable
 70
     0
  0
ENDTAB
  0
TABLE
  2
UCS
  5
7
330
0
100
AcDbSymbolTable
 70
     0
  0
ENDTAB
  0
TABLE
  2
APPID
  5
9
330
0
100
AcDbSymbolTable
 70
     1
  0
APPID
  5
12
330
9
100
AcDbSymbolTableRecord
100
AcDbRegAppTableRecord
  2
ACAD
 70
     0
  0
ENDTAB
  0
TABLE
  2
DIMSTYLE
  5
A
330
0
100
AcDbSymbolTable
 70
     1
100
AcDbDimStyleTable
 71
     1
340
9D
  0
DIMSTYLE
105
9D
102
{ACAD_REACTORS
330
145B
330
143E
330
143D
330
16F8
102
}
330
A
100
AcDbSymbolTableRecord
100
AcDbDimStyleTableRecord
  2
Standard
 70
     0
340
11
  0
ENDTAB
  0
TABLE
  2
BLOCK_RECORD
  5
1
330
0
100
AcDbSymbolTable
 70
     6
  0
BLOCK_RECORD
  5
1E
102
{ACAD_XDICTIONARY
360
A0
102
}
330
1
100
AcDbSymbolTableRecord
100
AcDbBlockTableRecord
  2
*Model_Space
340
21
  0
BLOCK_RECORD
  5
1A
102
{ACAD_XDICTIONARY
360
A2
102
}
330
1
100
AcDbSymbolTableRecord
100
AcDbBlockTableRecord
  2
*Paper_Space
340
1D
  0
BLOCK_RECORD
  5
22
330
1
100
AcDbSymbolTableRecord
100
AcDbBlockTableRecord
  2
LOGO
340
0
102
{BLKREFS
331
9B
102
}
  0
BLOCK_RECORD
  5
12AC
330
1
100
AcDbSymbolTableRecord
100
AcDbBlockTableRecord
  2
*X1
340
0
102
{BLKREFS
331
141F
102
}
  0
BLOCK_RECORD
  5
14C1
330
1
100
AcDbSymbolTableRecord
100
AcDbBlockTableRecord
  2
*D2
340
0
  0
BLOCK_RECORD
  5
14CE
330
1
100
AcDbSymbolTableRecord
100
AcDbBlockTableRecord
  2
*D3
340
0
  0
BLOCK_RECORD
  5
14F5
330
1
100
AcDbSymbolTableRecord
100
AcDbBlockTableRecord
  2
*D4
340
0
  0
BLOCK_RECORD
  5
16F9
330
1
100
AcDbSymbolTableRecord
100
AcDbBlockTableRecord
  2
*D5
340
0
  0
ENDTAB
  0
ENDSEC
  0
SECTION
  2
BLOCKS
  0
BLOCK
  5
35
330
1E
100
AcDbEntity
  8
0
100
AcDbBlockBegin
  2
*Model_Space
 70
     0
 10
0.0
 20
0.0
 30
0.0
  3
*Model_Space
  1

  0
ENDBLK
  5
36
330
1E
100
AcDbEntity
  8
0
100
AcDbBlockEnd
  0
BLOCK
  5
33
330
1A
100
AcDbEntity
 67
     1
  8
0
100
AcDbBlockBegin
  2
*Paper_Space
 70
     0
 10
0.0
 20
0.0
 30
0.0
  3
*Paper_Space
  1

  0
ENDBLK
  5
34
330
1A
100
AcDbEntity
 67
     1
  8
0
100
AcDbBlockEnd
  0
BLOCK
  5
37
330
22
100
AcDbEntity
  8
0
100
AcDbBlockBegin
  2
LOGO
 70
     0
 10
0.0
 20
0.0
 30
0.0
  3
LOGO
  1

  0
ARC
  5
38
330
22
100
AcDbEntity
  8
0
100
AcDbCircle
 10
11.59973089678112
 20
-9.271599258481501
 30
0.0
 40
4.5
100
AcDbArc
 50
270.0
 51
231.0575587310159
  0
LINE
  5
39
330
22
100
AcDbEntity
  8
0
100
AcDbLine
 10
3.599730896781125
 20
-4.771599258481529
 30
0.0
 11
3.599730896781153
 21
-11.77159925848133
 31
0.0
  0
LINE
  5
3A
330
22
100
AcDbEntity
  8
0
100
AcDbLine
 10
2.599730896781125
 20
-4.771599258481529
 30
0.0
 11
2.599730896781153
 21
-11.77159925848133
 31
0.0
  0
CIRCLE
  5
3B
330
22
100
AcDbEntity
  8
0
100
AcDbCircle
 10
11.59973089678112
 20
-9.271599258481501
 30
0.0
 40
3.5
  0
ARC
  5
3C
330
22
100
AcDbEntity
  8
0
100
AcDbCircle
 10
31.59973089678115
 20
-9.271599258481472
 30
0.0
 40
4.5
100
AcDbArc
 50
270.0
 51
231.0575587310182
  0
LINE
  5
3D
330
22
100
AcDbEntity
  8
0
100
AcDbLine
 10
17.59973089678112
 20
-4.771599258481472
 30
0.0
 11
17.59973089678115
 21
-13.77159925848147
 31
0.0
  0
ARC
  5
3E
330
22
100
AcDbEntity
  8
0
100
AcDbCircle
 10
22.59973089678116
 20
-7.271599258481472
 30
0.0
 40
2.5
100
AcDbArc
 50
293.1161887722295
 51
90.0
  0
CIRCLE
  5
3F
330
22
100
AcDbEntity
  8
0
100
AcDbCircle
 10
31.59973089678115
 20
-9.271599258481472
 30
0.0
 40
3.5
  0
ARC
  5
40
330
22
100
AcDbEntity
  8
0
100
AcDbCircle
 10
4.599730896781153
 20
-11.77159925848133
 30
0.0
 40
1.0
100
AcDbArc
 50
180.0
 51
270.0
  0
ARC
  5
41
330
22
100
AcDbEntity
  8
0
100
AcDbCircle
 10
4.599730896781153
 20
-11.77159925848133
 30
0.0
 40
2.0
100
AcDbArc
 50
179.9999999999992
 51
270.0
  0
LINE
  5
42
330
22
100
AcDbEntity
  8
0
100
AcDbLine
 10
11.59973089678115
 20
-13.77159925848144
 30
0.0
 11
4.599730896781153
 21
-13.77159925848147
 31
0.0
  0
LINE
  5
43
330
22
100
AcDbEntity
  8
0
100
AcDbLine
 10
8.771303772034769
 20
-12.77159925848136
 30
0.0
 11
4.599730896781153
 21
-12.77159925848133
 31
0.0
  0
LINE
  5
44
330
22
100
AcDbEntity
  8
0
100
AcDbLine
 10
31.59973089678115
 20
-13.77159925848147
 30
0.0
 11
23.6715276665056
 21
-13.77159925848144
 31
0.0
  0
LINE
  5
45
330
22
100
AcDbEntity
  8
0
100
AcDbLine
 10
23.56565672307022
 20
-9.51278021337896
 30
0.0
 11
24.4388546544846
 21
-12.77159925848144
 31
0.0
  0
LINE
  5
46
330
22
100
AcDbEntity
  8
0
100
AcDbLine
 10
22.59973089678116
 20
-9.771599258481472
 30
0.0
 11
18.59973089678112
 21
-9.771599258481472
 31
0.0
  0
LINE
  5
47
330
22
100
AcDbEntity
  8
0
100
AcDbLine
 10
18.59973089678115
 20
-13.77159925848144
 30
0.0
 11
17.59973089678115
 21
-13.77159925848144
 31
0.0
  0
LINE
  5
48
330
22
100
AcDbEntity
  8
0
100
AcDbLine
 10
18.59973089678115
 20
-9.771599258481472
 30
0.0
 11
18.59973089678115
 21
-13.77159925848144
 31
0.0
  0
LINE
  5
49
330
22
100
AcDbEntity
  8
0
100
AcDbLine
 10
22.59973089678116
 20
-9.771599258481472
 30
0.0
 11
23.67152766650562
 21
-13.77159925848147
 31
0.0
  0
ARC
  5
4A
330
22
100
AcDbEntity
  8
0
100
AcDbCircle
 10
22.59973089678116
 20
-7.271599258481472
 30
0.0
 40
2.5
100
AcDbArc
 50
270.0
 51
270.0000000000007
  0
LINE
  5
4B
330
22
100
AcDbEntity
  8
0
100
AcDbLine
 10
28.77130377203494
 20
-12.77159925848147
 30
0.0
 11
24.43885465448463
 21
-12.77159925848144
 31
0.0
  0
LINE
  5
4C
330
22
100
AcDbEntity
  8
0
100
AcDbLine
 10
3.599730896781125
 20
-4.771599258481472
 30
0.0
 11
2.599730896781125
 21
-4.771599258481472
 31
0.0
  0
LINE
  5
4D
330
22
100
AcDbEntity
  8
0
100
AcDbLine
 10
22.59973089678116
 20
-8.771599258481472
 30
0.0
 11
18.59973089678115
 21
-8.771599258481472
 31
0.0
  0
LINE
  5
4E
330
22
100
AcDbEntity
  8
0
100
AcDbLine
 10
22.59973089678116
 20
-5.771599258481472
 30
0.0
 11
18.59973089678115
 21
-5.771599258481472
 31
0.0
  0
LINE
  5
4F
330
22
100
AcDbEntity
  8
0
100
AcDbLine
 10
22.59973089678116
 20
-4.771599258481472
 30
0.0
 11
17.59973089678115
 21
-4.771599258481472
 31
0.0
  0
LINE
  5
50
330
22
100
AcDbEntity
  8
0
100
AcDbLine
 10
18.59973089678115
 20
-5.771599258481472
 30
0.0
 11
18.59973089678115
 21
-8.771599258481472
 31
0.0
  0
ARC
  5
51
330
22
100
AcDbEntity
  8
0
100
AcDbCircle
 10
22.59973089678116
 20
-7.271599258481472
 30
0.0
 40
1.5
100
AcDbArc
 50
270.0
 51
90.0
  0
ENDBLK
  5
52
330
22
100
AcDbEntity
  8
0
100
AcDbBlockEnd
  0
BLOCK
  5
12AD
330
12AC
100
AcDbEntity
  8
0
100
AcDbBlockBegin
  2
*X1
 70
     1
 10
0.0
 20
0.0
 30
0.0
  3
*X1
  1

  0
LINE
  5
12AE
330
12AC
100
AcDbEntity
  8
0
 62
     0
100
AcDbLine
 10
186.2275785790912
 20
391.90292571903
 30
0.0
 11
186.1513929736734
 21
391.9791113244478
 31
0.0
  0
LINE
  5
12AF
330
12AC
100
AcDbEntity
  8
0
 62
     0
100
AcDbLine
 10
186.1804381270121
 20
391.8086448148718
 30
0.0
 11
185.9738156018374
 21
392.0152673400464
 31
0.0
  0
LINE
  5
12B0
330
12AC
100
AcDbEntity
  8
0
 62
     0
100
AcDbLine
 10
186.133297674933
 20
391.7143639107136
 30
0.0
 11
185.8072112305283
 21
392.0404503551184
 31
0.0
  0
LINE
  5
12B1
330
12AC
100
AcDbEntity
  8
0
 62
     0
100
AcDbLine
 10
186.0861572228539
 20
391.6200830065554
 30
0.0
 11
185.6495779796693
 21
392.0566622497399
 31
0.0
  0
LINE
  5
12B2
330
12AC
100
AcDbEntity
  8
0
 62
     0
100
AcDbLine
 10
186.0390167707748
 20
391.5258021023973
 30
0.0
 11
185.4995036402321
 21
392.06531523294
 31
0.0
  0
LINE
  5
12B3
330
12AC
100
AcDbEntity
  8
0
 62
     0
100
AcDbLine
 10
185.9918763186957
 20
391.431521198239
 30
0.0
 11
185.3559476593307
 21
392.067449857604
 31
0.0
  0
LINE
  5
12B4
330
12AC
100
AcDbEntity
  8
0
 62
     0
100
AcDbLine
 10
185.9447358666166
 20
391.3372402940808
 30
0.0
 11
185.2181172470548
 21
392.0638589136426
 31
0.0
  0
LINE
  5
12B5
330
12AC
100
AcDbEntity
  8
0
 62
     0
100
AcDbLine
 10
185.8975954145375
 20
391.2429593899226
 30
0.0
 11
185.0853922047306
 21
392.0551625997294
 31
0.0
  0
LINE
  5
12B6
330
12AC
100
AcDbEntity
  8
0
 62
     0
100
AcDbLine
 10
185.8504549624584
 20
391.1486784857644
 30
0.0
 11
184.9572769007943
 21
392.0418565474284
 31
0.0
  0
LINE
  5
12B7
330
12AC
100
AcDbEntity
  8
0
 62
     0
100
AcDbLine
 10
185.8033145103793
 20
391.0543975816062
 30
0.0
 11
184.8333682834424
 21
392.0243438085431
 31
0.0
  0
LINE
  5
12B8
330
12AC
100
AcDbEntity
  8
0
 62
     0
100
AcDbLine
 10
185.7561740583001
 20
390.9601166774479
 30
0.0
 11
184.7133338284213
 21
392.0029569073268
 31
0.0
  0
LINE
  5
12B9
330
12AC
100
AcDbEntity
  8
0
 62
     0
100
AcDbLine
 10
185.709033606221
 20
390.8658357732898
 30
0.0
 11
184.5968958904604
 21
391.9779734890503
 31
0.0
  0
LINE
  5
12BA
330
12AC
100
AcDbEntity
  8
0
 62
     0
100
AcDbLine
 10
185.661893154142
 20
390.7715548691315
 30
0.0
 11
184.4838203227894
 21
391.9496277004842
 31
0.0
  0
LINE
  5
12BB
330
12AC
100
AcDbEntity
  8
0
 62
     0
100
AcDbLine
 10
185.6147527020628
 20
390.6772739649733
 30
0.0
 11
184.3739080244122
 21
391.9181186426239
 31
0.0
  0
LINE
  5
12BC
330
12AC
100
AcDbEntity
  8
0
 62
     0
100
AcDbLine
 10
185.5676122499837
 20
390.5829930608152
 30
0.0
 11
184.2669885466196
 21
391.8836167641794
 31
0.0
  0
LINE
  5
12BD
330
12AC
100
AcDbEntity
  8
0
 62
     0
100
AcDbLine
 10
185.5204717979047
 20
390.4887121566569
 30
0.0
 11
184.1629151801165
 21
391.8462687744451
 31
0.0
  0
LINE
  5
12BE
330
12AC
100
AcDbEntity
  8
0
 62
     0
100
AcDbLine
 10
185.4733313458255
 20
390.3944312524987
 30
0.0
 11
184.0615611278169
 21
391.8062014705073
 31
0.0
  0
LINE
  5
12BF
330
12AC
100
AcDbEntity
  8
0
 62
     0
100
AcDbLine
 10
185.4261908937464
 20
390.3001503483405
 30
0.0
 11
183.9628164878858
 21
391.7635247542012
 31
0.0
  0
LINE
  5
12C0
330
12AC
100
AcDbEntity
  8
0
 62
     0
100
AcDbLine
 10
185.3790504416673
 20
390.2058694441823
 30
0.0
 11
183.8665858513055
 21
391.7183340345442
 31
0.0
  0
LINE
  5
12C1
330
12AC
100
AcDbEntity
  8
0
 62
     0
100
AcDbLine
 10
185.3319099895882
 20
390.1115885400241
 30
0.0
 11
183.7727863725224
 21
391.67071215709
 31
0.0
  0
LINE
  5
12C2
330
12AC
100
AcDbEntity
  8
0
 62
     0
100
AcDbLine
 10
185.2847695375091
 20
390.0173076358659
 30
0.0
 11
183.6813462094313
 21
391.6207309639437
 31
0.0
  0
LINE
  5
12C3
330
12AC
100
AcDbEntity
  8
0
 62
     0
100
AcDbLine
 10
185.23762908543
 20
389.9230267317077
 30
0.0
 11
183.5922032556213
 21
391.5684525615164
 31
0.0
  0
LINE
  5
12C4
330
12AC
100
AcDbEntity
  8
0
 62
     0
100
AcDbLine
 10
185.1904886333509
 20
389.8287458275495
 30
0.0
 11
183.5053041069732
 21
391.5139303539272
 31
0.0
  0
LINE
  5
12C5
330
12AC
100
AcDbEntity
  8
0
 62
     0
100
AcDbLine
 10
185.1433481812718
 20
389.7344649233913
 30
0.0
 11
183.4206032187075
 21
391.4572098859556
 31
0.0
  0
LINE
  5
12C6
330
12AC
100
AcDbEntity
  8
0
 62
     0
100
AcDbLine
 10
185.0962077291927
 20
389.6401840192331
 30
0.0
 11
183.3380622193675
 21
391.3983295290583
 31
0.0
  0
LINE
  5
12C7
330
12AC
100
AcDbEntity
  8
0
 62
     0
100
AcDbLine
 10
185.0490672771136
 20
389.5459031150748
 30
0.0
 11
183.2576493560543
 21
391.3373210361342
 31
0.0
  0
LINE
  5
12C8
330
12AC
100
AcDbEntity
  8
0
 62
     0
100
AcDbLine
 10
185.0019268250345
 20
389.4516222109166
 30
0.0
 11
183.1793390512243
 21
391.2742099847269
 31
0.0
  0
LINE
  5
12C9
330
12AC
100
AcDbEntity
  8
0
 62
     0
100
AcDbLine
 10
184.9547863729554
 20
389.3573413067585
 30
0.0
 11
183.1031115560413
 21
391.2090161236726
 31
0.0
  0
LINE
  5
12CA
330
12AC
100
AcDbEntity
  8
0
 62
     0
100
AcDbLine
 10
184.9076459208763
 20
389.2630604026002
 30
0.0
 11
183.0289526890008
 21
391.1417536344758
 31
0.0
  0
LINE
  5
12CB
330
12AC
100
AcDbEntity
  8
0
 62
     0
100
AcDbLine
 10
184.8605054687972
 20
389.168779498442
 30
0.0
 11
182.9568536515922
 21
391.072431315647
 31
0.0
  0
LINE
  5
12CC
330
12AC
100
AcDbEntity
  8
0
 62
     0
100
AcDbLine
 10
184.8133650167181
 20
389.0744985942839
 30
0.0
 11
182.8868109153355
 21
391.0010526956664
 31
0.0
  0
LINE
  5
12CD
330
12AC
100
AcDbEntity
  8
0
 62
     0
100
AcDbLine
 10
184.766224564639
 20
388.9802176901256
 30
0.0
 11
182.8188261767804
 21
390.9276160779842
 31
0.0
  0
LINE
  5
12CE
330
12AC
100
AcDbEntity
  8
0
 62
     0
100
AcDbLine
 10
184.6510608943393
 20
388.9539600041881
 30
0.0
 11
182.7529063791218
 21
390.8521145194056
 31
0.0
  0
LINE
  5
12CF
330
12AC
100
AcDbEntity
  8
0
 62
     0
100
AcDbLine
 10
184.509639538102
 20
388.9539600041881
 30
0.0
 11
182.6890638010777
 21
390.7745357412123
 31
0.0
  0
LINE
  5
12D0
330
12AC
100
AcDbEntity
  8
0
 62
     0
100
AcDbLine
 10
184.3682181818647
 20
388.9539600041881
 30
0.0
 11
182.6273162157021
 21
390.6948619703506
 31
0.0
  0
LINE
  5
12D1
330
12AC
100
AcDbEntity
  8
0
 62
     0
100
AcDbLine
 10
184.2267968256273
 20
388.9539600041881
 30
0.0
 11
182.5676871239786
 21
390.6130697058368
 31
0.0
  0
LINE
  5
12D2
330
12AC
100
AcDbEntity
  8
0
 62
     0
100
AcDbLine
 10
184.08537546939
 20
388.9539600041881
 30
0.0
 11
182.5102060704835
 21
390.5291294030945
 31
0.0
  0
LINE
  5
12D3
330
12AC
100
AcDbEntity
  8
0
 62
     0
100
AcDbLine
 10
183.9439541131527
 20
388.9539600041881
 30
0.0
 11
182.4549090512671
 21
390.4430050660737
 31
0.0
  0
LINE
  5
12D4
330
12AC
100
AcDbEntity
  8
0
 62
     0
100
AcDbLine
 10
183.8025327569154
 20
388.9539600041881
 30
0.0
 11
182.4018390275634
 21
390.3546537335401
 31
0.0
  0
LINE
  5
12D5
330
12AC
100
AcDbEntity
  8
0
 62
     0
100
AcDbLine
 10
183.7390642150781
 20
388.876007189788
 30
0.0
 11
182.351046563249
 21
390.2640248416172
 31
0.0
  0
LINE
  5
12D6
330
12AC
100
AcDbEntity
  8
0
 62
     0
100
AcDbLine
 10
183.7174914658216
 20
388.7561585828072
 30
0.0
 11
182.3025906094573
 21
390.1710594391716
 31
0.0
  0
LINE
  5
12D7
330
12AC
100
AcDbEntity
  8
0
 62
     0
100
AcDbLine
 10
183.6959187165651
 20
388.6363099758264
 30
0.0
 11
182.2565394668695
 21
390.075689225522
 31
0.0
  0
LINE
  5
12D8
330
12AC
100
AcDbEntity
  8
0
 62
     0
100
AcDbLine
 10
183.6743459673085
 20
388.5164613688457
 30
0.0
 11
182.2129719655993
 21
389.977835370555
 31
0.0
  0
LINE
  5
12D9
330
12AC
100
AcDbEntity
  8
0
 62
     0
100
AcDbLine
 10
183.652773218052
 20
388.3966127618649
 30
0.0
 11
182.1719789151762
 21
389.8774070647407
 31
0.0
  0
LINE
  5
12DA
330
12AC
100
AcDbEntity
  8
0
 62
     0
100
AcDbLine
 10
183.6312004687955
 20
388.2767641548841
 30
0.0
 11
182.1336648942789
 21
389.7742997294007
 31
0.0
  0
LINE
  5
12DB
330
12AC
100
AcDbEntity
  8
0
 62
     0
100
AcDbLine
 10
183.6096277195389
 20
388.1569155479033
 30
0.0
 11
182.098150473578
 21
389.6683927938643
 31
0.0
  0
LINE
  5
12DC
330
12AC
100
AcDbEntity
  8
0
 62
     0
100
AcDbLine
 10
183.5880549702824
 20
388.0370669409225
 30
0.0
 11
182.0655749983756
 21
389.5595469128293
 31
0.0
  0
LINE
  5
12DD
330
12AC
100
AcDbEntity
  8
0
 62
     0
100
AcDbLine
 10
183.5664822210258
 20
387.9172183339418
 30
0.0
 11
182.0361001054051
 21
389.4476004495627
 31
0.0
  0
LINE
  5
12DE
330
12AC
100
AcDbEntity
  8
0
 62
     0
100
AcDbLine
 10
183.5449094717693
 20
387.797369726961
 30
0.0
 11
182.0099142176503
 21
389.33236498108
 31
0.0
  0
LINE
  5
12DF
330
12AC
100
AcDbEntity
  8
0
 62
     0
100
AcDbLine
 10
183.5233367225128
 20
387.6775211199803
 30
0.0
 11
181.9872383644892
 21
389.2136194780039
 31
0.0
  0
LINE
  5
12E0
330
12AC
100
AcDbEntity
  8
0
 62
     0
100
AcDbLine
 10
183.5017639732562
 20
387.5576725129995
 30
0.0
 11
181.968333832016
 21
389.0911026542397
 31
0.0
  0
LINE
  5
12E1
330
12AC
100
AcDbEntity
  8
0
 62
     0
100
AcDbLine
 10
183.4801912239997
 20
387.4378239060187
 30
0.0
 11
181.9535123946615
 21
388.9645027353569
 31
0.0
  0
LINE
  5
12E2
330
12AC
100
AcDbEntity
  8
0
 62
     0
100
AcDbLine
 10
183.4586184747431
 20
387.317975299038
 30
0.0
 11
181.943150275551
 21
388.8334434982302
 31
0.0
  0
LINE
  5
12E3
330
12AC
100
AcDbEntity
  8
0
 62
     0
100
AcDbLine
 10
183.4370457254866
 20
387.1981266920572
 30
0.0
 11
181.9377076425236
 21
388.6974647750201
 31
0.0
  0
LINE
  5
12E4
330
12AC
100
AcDbEntity
  8
0
 62
     0
100
AcDbLine
 10
183.4154729762301
 20
387.0782780850764
 30
0.0
 11
181.9377565872045
 21
388.555994474102
 31
0.0
  0
LINE
  5
12E5
330
12AC
100
AcDbEntity
  8
0
 62
     0
100
AcDbLine
 10
183.3939002269735
 20
386.9584294780957
 30
0.0
 11
181.9440225976
 21
388.4083071074691
 31
0.0
  0
LINE
  5
12E6
330
12AC
100
AcDbEntity
  8
0
 62
     0
100
AcDbLine
 10
183.372327477717
 20
386.8385808711149
 30
0.0
 11
181.9574484714538
 21
388.253459877378
 31
0.0
  0
LINE
  5
12E7
330
12AC
100
AcDbEntity
  8
0
 62
     0
100
AcDbLine
 10
183.3507547284605
 20
386.7187322641342
 30
0.0
 11
181.9792976301764
 21
388.0901893624182
 31
0.0
  0
LINE
  5
12E8
330
12AC
100
AcDbEntity
  8
0
 62
     0
100
AcDbLine
 10
183.3291819792039
 20
386.5988836571533
 30
0.0
 11
182.0113314540624
 21
387.9167341822949
 31
0.0
  0
LINE
  5
12E9
330
12AC
100
AcDbEntity
  8
0
 62
     0
100
AcDbLine
 10
183.3076092299474
 20
386.4790350501726
 30
0.0
 11
182.0561383431637
 21
387.7305059369563
 31
0.0
  0
LINE
  5
12EA
330
12AC
100
AcDbEntity
  8
0
 62
     0
100
AcDbLine
 10
183.2860364806908
 20
386.3591864431918
 30
0.0
 11
182.1178124541137
 21
387.5274104697689
 31
0.0
  0
LINE
  5
12EB
330
12AC
100
AcDbEntity
  8
0
 62
     0
100
AcDbLine
 10
183.2644637314343
 20
386.239337836211
 30
0.0
 11
182.203585903613
 21
387.3002156640323
 31
0.0
  0
LINE
  5
12EC
330
12AC
100
AcDbEntity
  8
0
 62
     0
100
AcDbLine
 10
183.2428909821778
 20
386.1194892292303
 30
0.0
 11
182.3288644586271
 21
387.0335157527809
 31
0.0
  0
LINE
  5
12ED
330
12AC
100
AcDbEntity
  8
0
 62
     0
100
AcDbLine
 10
183.2213182329212
 20
385.9996406222495
 30
0.0
 11
182.5434650548856
 21
386.6774938002851
 31
0.0
  0
LINE
  5
12EE
330
12AC
100
AcDbEntity
  8
0
 62
     0
100
AcDbLine
 10
264.2969571763081
 20
385.958438802841
 30
0.0
 11
264.2912649343625
 21
385.9641310447867
 31
0.0
  0
LINE
  5
12EF
330
12AC
100
AcDbEntity
  8
0
 62
     0
100
AcDbLine
 10
264.3613931022328
 20
386.0354242331537
 30
0.0
 11
264.2602212220177
 21
386.1365961133688
 31
0.0
  0
LINE
  5
12F0
330
12AC
100
AcDbEntity
  8
0
 62
     0
100
AcDbLine
 10
264.423852729741
 20
386.1143859618828
 30
0.0
 11
264.2291775096729
 21
386.3090611819508
 31
0.0
  0
LINE
  5
12F1
330
12AC
100
AcDbEntity
  8
0
 62
     0
100
AcDbLine
 10
264.484316789124
 20
386.1953432587371
 30
0.0
 11
264.1981337973281
 21
386.4815262505329
 31
0.0
  0
LINE
  5
12F2
330
12AC
100
AcDbEntity
  8
0
 62
     0
100
AcDbLine
 10
264.5427609995475
 20
386.2783204045508
 30
0.0
 11
264.1670900849834
 21
386.6539913191149
 31
0.0
  0
LINE
  5
12F3
330
12AC
100
AcDbEntity
  8
0
 62
     0
100
AcDbLine
 10
264.5991557725526
 20
386.363346987783
 30
0.0
 11
264.1360463726386
 21
386.8264563876971
 31
0.0
  0
LINE
  5
12F4
330
12AC
100
AcDbEntity
  8
0
 62
     0
100
AcDbLine
 10
264.6534658400801
 20
386.4504582764928
 30
0.0
 11
264.1050026602938
 21
386.9989214562792
 31
0.0
  0
LINE
  5
12F5
330
12AC
100
AcDbEntity
  8
0
 62
     0
100
AcDbLine
 10
264.7056497956549
 20
386.5396956771553
 30
0.0
 11
264.073958947949
 21
387.1713865248612
 31
0.0
  0
LINE
  5
12F6
330
12AC
100
AcDbEntity
  8
0
 62
     0
100
AcDbLine
 10
264.7556595340613
 20
386.6311072949864
 30
0.0
 11
264.0429152356043
 21
387.3438515934434
 31
0.0
  0
LINE
  5
12F7
330
12AC
100
AcDbEntity
  8
0
 62
     0
100
AcDbLine
 10
264.8034395706514
 20
386.7247486146335
 30
0.0
 11
264.0118715232595
 21
387.5163166620254
 31
0.0
  0
LINE
  5
12F8
330
12AC
100
AcDbEntity
  8
0
 62
     0
100
AcDbLine
 10
264.8489262160343
 20
386.820683325488
 30
0.0
 11
263.9808278109147
 21
387.6887817306075
 31
0.0
  0
LINE
  5
12F9
330
12AC
100
AcDbEntity
  8
0
 62
     0
100
AcDbLine
 10
264.8920465748305
 20
386.9189843229291
 30
0.0
 11
263.9497840985699
 21
387.8612467991897
 31
0.0
  0
LINE
  5
12FA
330
12AC
100
AcDbEntity
  8
0
 62
     0
100
AcDbLine
 10
262.8570708935715
 20
388.953960004188
 30
0.0
 11
262.6491205497689
 21
389.1619103479907
 31
0.0
  0
LINE
  5
12FB
330
12AC
100
AcDbEntity
  8
0
 62
     0
100
AcDbLine
 10
264.9327173278258
 20
387.019734926171
 30
0.0
 11
263.9187403862252
 21
388.0337118677717
 31
0.0
  0
LINE
  5
12FC
330
12AC
100
AcDbEntity
  8
0
 62
     0
100
AcDbLine
 10
262.9984922498088
 20
388.953960004188
 30
0.0
 11
262.5076991935316
 21
389.4447530604652
 31
0.0
  0
LINE
  5
12FD
330
12AC
100
AcDbEntity
  8
0
 62
     0
100
AcDbLine
 10
264.9708432442774
 20
387.1230303659567
 30
0.0
 11
263.8876966738804
 21
388.2061769363538
 31
0.0
  0
LINE
  5
12FE
330
12AC
100
AcDbEntity
  8
0
 62
     0
100
AcDbLine
 10
263.1399136060462
 20
388.953960004188
 30
0.0
 11
262.3662778372942
 21
389.7275957729399
 31
0.0
  0
LINE
  5
12FF
330
12AC
100
AcDbEntity
  8
0
 62
     0
100
AcDbLine
 10
265.0063153539805
 20
387.2289796124909
 30
0.0
 11
263.8566529615356
 21
388.3786420049358
 31
0.0
  0
LINE
  5
1300
330
12AC
100
AcDbEntity
  8
0
 62
     0
100
AcDbLine
 10
263.2813349622834
 20
388.953960004188
 30
0.0
 11
262.224856481057
 21
390.0104384854144
 31
0.0
  0
LINE
  5
1301
330
12AC
100
AcDbEntity
  8
0
 62
     0
100
AcDbLine
 10
265.0390086849823
 20
387.3377076377265
 30
0.0
 11
263.8256092491908
 21
388.5511070735179
 31
0.0
  0
LINE
  5
1302
330
12AC
100
AcDbEntity
  8
0
 62
     0
100
AcDbLine
 10
263.4227563185207
 20
388.953960004188
 30
0.0
 11
262.0834351248196
 21
390.2932811978891
 31
0.0
  0
LINE
  5
1303
330
12AC
100
AcDbEntity
  8
0
 62
     0
100
AcDbLine
 10
265.0687794394932
 20
387.4493582394529
 30
0.0
 11
263.7945655368461
 21
388.7235721421001
 31
0.0
  0
LINE
  5
1304
330
12AC
100
AcDbEntity
  8
0
 62
     0
100
AcDbLine
 10
263.5641776747581
 20
388.953960004188
 30
0.0
 11
261.9420137685823
 21
390.5761239103638
 31
0.0
  0
LINE
  5
1305
330
12AC
100
AcDbEntity
  8
0
 62
     0
100
AcDbLine
 10
265.0954614328854
 20
387.5640976022979
 30
0.0
 11
263.7635218245013
 21
388.8960372106821
 31
0.0
  0
LINE
  5
1306
330
12AC
100
AcDbEntity
  8
0
 62
     0
100
AcDbLine
 10
263.7055990309954
 20
388.953960004188
 30
0.0
 11
261.800592412345
 21
390.8589666228384
 31
0.0
  0
LINE
  5
1307
330
12AC
100
AcDbEntity
  8
0
 62
     0
100
AcDbLine
 10
265.1188615512638
 20
387.6821188401569
 30
0.0
 11
261.6591710561077
 21
391.141809335313
 31
0.0
  0
LINE
  5
1308
330
12AC
100
AcDbEntity
  8
0
 62
     0
100
AcDbLine
 10
265.1387538799207
 20
387.8036478677373
 30
0.0
 11
261.5177496998704
 21
391.4246520477876
 31
0.0
  0
LINE
  5
1309
330
12AC
100
AcDbEntity
  8
0
 62
     0
100
AcDbLine
 10
265.1548719980714
 20
387.9289511058239
 30
0.0
 11
261.376328343633
 21
391.7074947602623
 31
0.0
  0
LINE
  5
130A
330
12AC
100
AcDbEntity
  8
0
 62
     0
100
AcDbLine
 10
265.1668986904473
 20
388.0583457696853
 30
0.0
 11
261.2699795428861
 21
391.9552649172465
 31
0.0
  0
LINE
  5
130B
330
12AC
100
AcDbEntity
  8
0
 62
     0
100
AcDbLine
 10
265.1744519331119
 20
388.192213883258
 30
0.0
 11
261.4038476564588
 21
391.9628181599111
 31
0.0
  0
LINE
  5
130C
330
12AC
100
AcDbEntity
  8
0
 62
     0
100
AcDbLine
 10
265.1770653581329
 20
388.3310218144743
 30
0.0
 11
261.5426555876751
 21
391.9654315849321
 31
0.0
  0
LINE
  5
130D
330
12AC
100
AcDbEntity
  8
0
 62
     0
100
AcDbLine
 10
265.1741602760808
 20
388.4753482527637
 30
0.0
 11
261.6869820259645
 21
391.96252650288
 31
0.0
  0
LINE
  5
130E
330
12AC
100
AcDbEntity
  8
0
 62
     0
100
AcDbLine
 10
265.1650043057407
 20
388.6259255793411
 30
0.0
 11
261.8375593525418
 21
391.95337053254
 31
0.0
  0
LINE
  5
130F
330
12AC
100
AcDbEntity
  8
0
 62
     0
100
AcDbLine
 10
265.148647802898
 20
388.7837034384213
 30
0.0
 11
261.995337211622
 21
391.9370140296972
 31
0.0
  0
LINE
  5
1310
330
12AC
100
AcDbEntity
  8
0
 62
     0
100
AcDbLine
 10
265.1238214667405
 20
388.9499511308159
 30
0.0
 11
262.1615849040166
 21
391.9121876935398
 31
0.0
  0
LINE
  5
1311
330
12AC
100
AcDbEntity
  8
0
 62
     0
100
AcDbLine
 10
265.0887613852189
 20
389.1264325685749
 30
0.0
 11
262.3380663417757
 21
391.877127612018
 31
0.0
  0
LINE
  5
1312
330
12AC
100
AcDbEntity
  8
0
 62
     0
100
AcDbLine
 10
265.0408863518357
 20
389.3157289581953
 30
0.0
 11
262.5273627313961
 21
391.829252578635
 31
0.0
  0
LINE
  5
1313
330
12AC
100
AcDbEntity
  8
0
 62
     0
100
AcDbLine
 10
264.976137895085
 20
389.5218987711833
 30
0.0
 11
262.7335325443841
 21
391.7645041218843
 31
0.0
  0
LINE
  5
1314
330
12AC
100
AcDbEntity
  8
0
 62
     0
100
AcDbLine
 10
264.8874134208881
 20
389.7520446016176
 30
0.0
 11
262.9636783748184
 21
391.6757796476874
 31
0.0
  0
LINE
  5
1315
330
12AC
100
AcDbEntity
  8
0
 62
     0
100
AcDbLine
 10
264.7598392983999
 20
390.0210400803431
 30
0.0
 11
263.2326738535439
 21
391.5482055251991
 31
0.0
  0
LINE
  5
1316
330
12AC
100
AcDbEntity
  8
0
 62
     0
100
AcDbLine
 10
264.5475169561108
 20
390.3747837788696
 30
0.0
 11
263.5864175520704
 21
391.33588318291
 31
0.0
  0
ENDBLK
  5
1317
330
12AC
100
AcDbEntity
  8
0
100
AcDbBlockEnd
  0
BLOCK
  5
14CC
330
14C1
100
AcDbEntity
  8
0
100
AcDbBlockBegin
  2
*D2
 70
     1
 10
0.0
 20
0.0
 30
0.0
  3
*D2
  1

  0
LINE
  5
168A
330
14C1
100
AcDbEntity
  8
BEM
 62
     0
370
    -2
100
AcDbLine
 10
188.4999999999999
 20
403.0905611847169
 30
0.0
 11
188.4999999999999
 21
474.2890083292746
 31
0.0
  0
LINE
  5
168B
330
14C1
100
AcDbEntity
  8
BEM
 62
     0
370
    -2
100
AcDbLine
 10
261.4999999999999
 20
403.0905611847169
 30
0.0
 11
261.4999999999999
 21
474.2890083292746
 31
0.0
  0
LINE
  5
168C
330
14C1
100
AcDbEntity
  8
BEM
 62
     0
370
    -2
100
AcDbLine
 10
195.4999999999999
 20
472.2890083292746
 30
0.0
 11
254.4999999999999
 21
472.2890083292746
 31
0.0
  0
SOLID
  5
168D
330
14C1
100
AcDbEntity
  8
BEM
 62
     0
100
AcDbTrace
 10
195.4999999999999
 20
473.4556749959413
 30
0.0
 11
195.4999999999999
 21
471.1223416626079
 31
0.0
 12
188.4999999999999
 22
472.2890083292746
 32
0.0
 13
188.4999999999999
 23
472.2890083292746
 33
0.0
  0
SOLID
  5
168E
330
14C1
100
AcDbEntity
  8
BEM
 62
     0
100
AcDbTrace
 10
254.4999999999999
 20
473.4556749959413
 30
0.0
 11
254.4999999999999
 21
471.1223416626079
 31
0.0
 12
261.4999999999999
 22
472.2890083292746
 32
0.0
 13
261.4999999999999
 23
472.2890083292746
 33
0.0
  0
MTEXT
  5
168F
330
14C1
100
AcDbEntity
  8
BEM
 62
     1
100
AcDbMText
 10
225.0
 20
478.7890083292746
 30
0.0
 40
7.0
 41
0.0
 71
     5
 72
     1
  1
\A1;%%C73
 73
     1
 44
1.0
  0
POINT
  5
1690
330
14C1
100
AcDbEntity
  8
DEFPOINTS
 62
     0
100
AcDbPoint
 10
188.4999999999999
 20
401.0905611847169
 30
0.0
  0
POINT
  5
1691
330
14C1
100
AcDbEntity
  8
DEFPOINTS
 62
     0
100
AcDbPoint
 10
261.4999999999999
 20
401.0905611847169
 30
0.0
  0
POINT
  5
1692
330
14C1
100
AcDbEntity
  8
DEFPOINTS
 62
     0
100
AcDbPoint
 10
261.4999999999999
 20
472.2890083292746
 30
0.0
  0
ENDBLK
  5
14CD
330
14C1
100
AcDbEntity
  8
0
100
AcDbBlockEnd
  0
BLOCK
  5
14D9
330
14CE
100
AcDbEntity
  8
0
100
AcDbBlockBegin
  2
*D3
 70
     1
 10
0.0
 20
0.0
 30
0.0
  3
*D3
  1

  0
LINE
  5
1681
330
14CE
100
AcDbEntity
  8
BEM
 62
     0
370
    -2
100
AcDbLine
 10
180.4999999999999
 20
284.3971608492857
 30
0.0
 11
180.4999999999999
 21
254.9446457943393
 31
0.0
  0
LINE
  5
1682
330
14CE
100
AcDbEntity
  8
BEM
 62
     0
370
    -2
100
AcDbLine
 10
269.4999999999999
 20
284.3971608492855
 30
0.0
 11
269.4999999999999
 21
254.9446457943393
 31
0.0
  0
LINE
  5
1683
330
14CE
100
AcDbEntity
  8
BEM
 62
     0
370
    -2
100
AcDbLine
 10
187.4999999999999
 20
256.9446457943393
 30
0.0
 11
262.5
 21
256.9446457943393
 31
0.0
  0
SOLID
  5
1684
330
14CE
100
AcDbEntity
  8
BEM
 62
     0
100
AcDbTrace
 10
187.4999999999999
 20
258.111312461006
 30
0.0
 11
187.4999999999999
 21
255.7779791276726
 31
0.0
 12
180.4999999999999
 22
256.9446457943393
 32
0.0
 13
180.4999999999999
 23
256.9446457943393
 33
0.0
  0
SOLID
  5
1685
330
14CE
100
AcDbEntity
  8
BEM
 62
     0
100
AcDbTrace
 10
262.5
 20
258.111312461006
 30
0.0
 11
262.5
 21
255.7779791276726
 31
0.0
 12
269.4999999999999
 22
256.9446457943393
 32
0.0
 13
269.4999999999999
 23
256.9446457943393
 33
0.0
  0
MTEXT
  5
1686
330
14CE
100
AcDbEntity
  8
BEM
 62
     1
100
AcDbMText
 10
225.0
 20
263.4446457943393
 30
0.0
 40
7.0
 41
0.0
 71
     5
 72
     1
  1
\A1;%%C89
 73
     1
 44
1.0
  0
POINT
  5
1687
330
14CE
100
AcDbEntity
  8
DEFPOINTS
 62
     0
100
AcDbPoint
 10
180.4999999999999
 20
286.3971608492857
 30
0.0
  0
POINT
  5
1688
330
14CE
100
AcDbEntity
  8
DEFPOINTS
 62
     0
100
AcDbPoint
 10
269.4999999999999
 20
286.3971608492855
 30
0.0
  0
POINT
  5
1689
330
14CE
100
AcDbEntity
  8
DEFPOINTS
 62
     0
100
AcDbPoint
 10
269.4999999999999
 20
256.9446457943393
 30
0.0
  0
ENDBLK
  5
14DA
330
14CE
100
AcDbEntity
  8
0
100
AcDbBlockEnd
  0
BLOCK
  5
1500
330
14F5
100
AcDbEntity
  8
0
100
AcDbBlockBegin
  2
*D4
 70
     1
 10
0.0
 20
0.0
 30
0.0
  3
*D4
  1

  0
LINE
  5
1666
330
14F5
100
AcDbEntity
  8
BEM
 62
     0
370
    -2
100
AcDbLine
 10
179.3748866352592
 20
276.3971608492855
 30
0.0
 11
166.7836338012927
 21
276.3971608492855
 31
0.0
  0
LINE
  5
1667
330
14F5
100
AcDbEntity
  8
BEM
 62
     0
370
    -2
100
AcDbLine
 10
178.7796672039322
 20
361.3971608492856
 30
0.0
 11
166.7836338012927
 21
361.3971608492856
 31
0.0
  0
LINE
  5
1668
330
14F5
100
AcDbEntity
  8
BEM
 62
     0
370
    -2
100
AcDbLine
 10
168.7836338012927
 20
283.3971608492855
 30
0.0
 11
168.7836338012927
 21
354.3971608492856
 31
0.0
  0
SOLID
  5
1669
330
14F5
100
AcDbEntity
  8
BEM
 62
     0
100
AcDbTrace
 10
167.616967134626
 20
283.3971608492855
 30
0.0
 11
169.9503004679594
 21
283.3971608492855
 31
0.0
 12
168.7836338012927
 22
276.3971608492855
 32
0.0
 13
168.7836338012927
 23
276.3971608492855
 33
0.0
  0
SOLID
  5
166A
330
14F5
100
AcDbEntity
  8
BEM
 62
     0
100
AcDbTrace
 10
167.6169671346261
 20
354.3971608492856
 30
0.0
 11
169.9503004679594
 21
354.3971608492856
 31
0.0
 12
168.7836338012927
 22
361.3971608492856
 32
0.0
 13
168.7836338012927
 23
361.3971608492856
 33
0.0
  0
MTEXT
  5
166B
330
14F5
100
AcDbEntity
  8
BEM
 62
     1
100
AcDbMText
 10
162.2836338012927
 20
318.8971608492856
 30
0.0
 40
7.0
 41
0.0
 71
     5
 72
     1
  1
\A1;85
 11
0.0000000000000001
 21
1.0
 31
0.0
 73
     1
 44
1.0
  0
POINT
  5
166C
330
14F5
100
AcDbEntity
  8
DEFPOINTS
 62
     0
100
AcDbPoint
 10
181.3748866352591
 20
276.3971608492855
 30
0.0
  0
POINT
  5
166D
330
14F5
100
AcDbEntity
  8
DEFPOINTS
 62
     0
100
AcDbPoint
 10
180.7796672039322
 20
361.3971608492856
 30
0.0
  0
POINT
  5
166E
330
14F5
100
AcDbEntity
  8
DEFPOINTS
 62
     0
100
AcDbPoint
 10
168.7836338012927
 20
361.3971608492856
 30
0.0
  0
ENDBLK
  5
1501
330
14F5
100
AcDbEntity
  8
0
100
AcDbBlockEnd
  0
BLOCK
  5
1703
330
16F9
100
AcDbEntity
  8
0
100
AcDbBlockBegin
  2
*D5
 70
     1
 10
0.0
 20
0.0
 30
0.0
  3
*D5
  1

  0
LINE
  5
1799
330
16F9
100
AcDbEntity
  8
BEM
 62
     0
370
    -2
100
AcDbLine
 10
183.2346026717247
 20
461.3971608492855
 30
0.0
 11
151.8486386950435
 21
461.3971608492855
 31
0.0
  0
LINE
  5
179A
330
16F9
100
AcDbEntity
  8
BEM
 62
     0
370
    -2
100
AcDbLine
 10
179.3748866352592
 20
276.3971608492855
 30
0.0
 11
151.8486386950435
 21
276.3971608492855
 31
0.0
  0
LINE
  5
179B
330
16F9
100
AcDbEntity
  8
BEM
 62
     0
370
    -2
100
AcDbLine
 10
153.8486386950435
 20
454.3971608492855
 30
0.0
 11
153.8486386950435
 21
283.3971608492855
 31
0.0
  0
SOLID
  5
179C
330
16F9
100
AcDbEntity
  8
BEM
 62
     0
100
AcDbTrace
 10
152.6819720283769
 20
454.3971608492855
 30
0.0
 11
155.0153053617102
 21
454.3971608492855
 31
0.0
 12
153.8486386950435
 22
461.3971608492855
 32
0.0
 13
153.8486386950435
 23
461.3971608492855
 33
0.0
  0
SOLID
  5
179D
330
16F9
100
AcDbEntity
  8
BEM
 62
     0
100
AcDbTrace
 10
152.6819720283768
 20
283.3971608492855
 30
0.0
 11
155.0153053617101
 21
283.3971608492855
 31
0.0
 12
153.8486386950435
 22
276.3971608492855
 32
0.0
 13
153.8486386950435
 23
276.3971608492855
 33
0.0
  0
MTEXT
  5
179E
330
16F9
100
AcDbEntity
  8
BEM
 62
     1
100
AcDbMText
 10
147.3486386950435
 20
368.8971608492856
 30
0.0
 40
7.0
 41
0.0
 71
     5
 72
     1
  1
\A1;185
 11
0.0000000000000001
 21
1.0
 31
0.0
 73
     1
 44
1.0
  0
POINT
  5
179F
330
16F9
100
AcDbEntity
  8
DEFPOINTS
 62
     0
100
AcDbPoint
 10
185.2346026717247
 20
461.3971608492855
 30
0.0
  0
POINT
  5
17A0
330
16F9
100
AcDbEntity
  8
DEFPOINTS
 62
     0
100
AcDbPoint
 10
181.3748866352591
 20
276.3971608492855
 30
0.0
  0
POINT
  5
17A1
330
16F9
100
AcDbEntity
  8
DEFPOINTS
 62
     0
100
AcDbPoint
 10
153.8486386950435
 20
276.3971608492855
 30
0.0
  0
ENDBLK
  5
1704
330
16F9
100
AcDbEntity
  8
0
100
AcDbBlockEnd
  0
ENDSEC
  0
SECTION
  2
ENTITIES
  0
LINE
  5
57
330
1E
100
AcDbEntity
  8
STEMPEL
100
AcDbLine
 10
410.0
 20
110.0
 30
0.0
 11
39.99999999999997
 21
110.0
 31
0.0
  0
LINE
  5
58
330
1E
100
AcDbEntity
  8
STEMPEL
100
AcDbLine
 10
136.0000000000001
 20
109.9999999999999
 30
0.0
 11
136.0
 21
9.999999999999971
 31
0.0
  0
LINE
  5
59
330
1E
100
AcDbEntity
  8
STEMPEL
100
AcDbLine
 10
220.0
 20
110.0
 30
0.0
 11
220.0
 21
9.999999999999971
 31
0.0
  0
LINE
  5
5A
330
1E
100
AcDbEntity
  8
STEMPEL
100
AcDbLine
 10
332.0
 20
109.9999999999997
 30
0.0
 11
332.0
 21
40.0
 31
0.0
  0
LINE
  5
5B
330
1E
100
AcDbEntity
  8
STEMPEL
100
AcDbLine
 10
135.9999999999999
 20
29.99999999999997
 30
0.0
 11
39.99999999999997
 21
29.99999999999997
 31
0.0
  0
LINE
  5
5C
330
1E
100
AcDbEntity
  8
STEMPEL
100
AcDbLine
 10
410.0
 20
40.0
 30
0.0
 11
136.0000000000001
 21
39.99999999999997
 31
0.0
  0
LINE
  5
5D
330
1E
100
AcDbEntity
  8
STEMPEL
100
AcDbLine
 10
410.0
 20
80.0
 30
0.0
 11
136.0000000000001
 21
79.99999999999994
 31
0.0
  0
LINE
  5
5E
330
1E
100
AcDbEntity
  8
VOLL
100
AcDbLine
 10
54.00000000000009
 20
110.0
 30
0.0
 11
53.99999999999997
 21
9.999999999999971
 31
0.0
  0
LINE
  5
5F
330
1E
100
AcDbEntity
  8
VOLL
100
AcDbLine
 10
94.00000000000011
 20
109.9999999999999
 30
0.0
 11
94.0
 21
9.999999999999971
 31
0.0
  0
LINE
  5
60
330
1E
100
AcDbEntity
  8
VOLL
100
AcDbLine
 10
114.0000000000001
 20
109.9999999999999
 30
0.0
 11
114.0
 21
9.999999999999971
 31
0.0
  0
LINE
  5
61
330
1E
100
AcDbEntity
  8
VOLL
100
AcDbLine
 10
154.0000000000001
 20
79.99999999999994
 30
0.0
 11
154.0000000000001
 21
39.99999999999997
 31
0.0
  0
LINE
  5
62
330
1E
100
AcDbEntity
  8
VOLL
100
AcDbLine
 10
180.0000000000001
 20
109.9999999999998
 30
0.0
 11
180.0
 21
39.99999999999997
 31
0.0
  0
LINE
  5
63
330
1E
100
AcDbEntity
  8
HILF
100
AcDbLine
 10
40.00000000000008
 20
100.0
 30
0.0
 11
136.0000000000001
 21
100.0
 31
0.0
  0
LINE
  5
64
330
1E
100
AcDbEntity
  8
HILF
100
AcDbLine
 10
40.00000000000008
 20
90.00000000000005
 30
0.0
 11
136.0000000000001
 21
90.00000000000005
 31
0.0
  0
LINE
  5
65
330
1E
100
AcDbEntity
  8
HILF
100
AcDbLine
 10
40.00000000000008
 20
79.99999999999994
 30
0.0
 11
136.0000000000001
 21
79.99999999999994
 31
0.0
  0
LINE
  5
66
330
1E
100
AcDbEntity
  8
HILF
100
AcDbLine
 10
40.00000000000008
 20
69.99999999999994
 30
0.0
 11
136.0000000000001
 21
69.99999999999994
 31
0.0
  0
LINE
  5
67
330
1E
100
AcDbEntity
  8
HILF
100
AcDbLine
 10
40.00000000000008
 20
59.99999999999997
 30
0.0
 11
136.0000000000001
 21
59.99999999999997
 31
0.0
  0
LINE
  5
68
330
1E
100
AcDbEntity
  8
HILF
100
AcDbLine
 10
40.00000000000008
 20
49.99999999999997
 30
0.0
 11
136.0000000000001
 21
49.99999999999997
 31
0.0
  0
LINE
  5
69
330
1E
100
AcDbEntity
  8
HILF
100
AcDbLine
 10
40.00000000000008
 20
39.99999999999997
 30
0.0
 11
136.0000000000001
 21
39.99999999999997
 31
0.0
  0
LINE
  5
6A
330
1E
100
AcDbEntity
  8
HILF
100
AcDbLine
 10
136.0000000000001
 20
69.99999999999994
 30
0.0
 11
220.0
 21
69.99999999999994
 31
0.0
  0
LINE
  5
6B
330
1E
100
AcDbEntity
  8
HILF
100
AcDbLine
 10
136.0000000000001
 20
59.99999999999997
 30
0.0
 11
220.0
 21
59.99999999999997
 31
0.0
  0
LINE
  5
6C
330
1E
100
AcDbEntity
  8
HILF
100
AcDbLine
 10
136.0000000000001
 20
49.99999999999997
 30
0.0
 11
220.0
 21
49.99999999999997
 31
0.0
  0
LINE
  5
6D
330
1E
100
AcDbEntity
  8
HILF
100
AcDbLine
 10
224.7736801096948
 20
84.03758247564139
 30
0.0
 11
324.8353916556311
 21
84.03758247564139
 31
0.0
  0
LINE
  5
6E
330
1E
100
AcDbEntity
  8
HILF
100
AcDbLine
 10
224.7736801096948
 20
69.99999999999994
 30
0.0
 11
324.835391655631
 21
69.99999999999994
 31
0.0
  0
LINE
  5
6F
330
1E
100
AcDbEntity
  8
HILF
100
AcDbLine
 10
224.7736801096948
 20
59.99999999999997
 30
0.0
 11
324.835391655631
 21
59.99999999999997
 31
0.0
  0
LINE
  5
70
330
1E
100
AcDbEntity
  8
HILF
100
AcDbLine
 10
224.7736801096948
 20
49.99999999999997
 30
0.0
 11
324.835391655631
 21
49.99999999999997
 31
0.0
  0
LINE
  5
71
330
1E
100
AcDbEntity
  8
VOLL
100
AcDbLine
 10
332.0
 20
60.0
 30
0.0
 11
410.0
 21
60.0
 31
0.0
  0
LINE
  5
72
330
1E
100
AcDbEntity
  8
HILF
100
AcDbLine
 10
336.7238616296993
 20
83.77983636955827
 30
0.0
 11
404.8588839326728
 21
83.77983636955827
 31
0.0
  0
LINE
  5
73
330
1E
100
AcDbEntity
  8
HILF
100
AcDbLine
 10
223.4909699289885
 20
14.89398258028314
 30
0.0
 11
404.8588839326728
 21
14.89398258028314
 31
0.0
  0
TEXT
  5
74
330
1E
100
AcDbEntity
  8
TEXT
100
AcDbText
 10
63.86165979631819
 20
18.67381894984132
 30
0.0
 40
4.0
  1
Änderung
 41
0.8
  7
GREEKS
 72
     1
 11
74.60451693917534
 21
18.67381894984132
 31
0.0
100
AcDbText
  0
TEXT
  5
75
330
1E
100
AcDbEntity
  8
TEXT
100
AcDbText
 10
143.5163572150377
 20
102.4620895087088
 30
0.0
 40
5.0
  1
Maßstab
 41
0.8
  7
GREEKS
100
AcDbText
  0
TEXT
  5
76
330
1E
100
AcDbEntity
  8
TEXT
100
AcDbText
 10
184.2858954734051
 20
102.4184168434819
 30
0.0
 40
5.0
  1
Zul. Abw.
 41
0.8
  7
GREEKS
100
AcDbText
  0
TEXT
  5
77
330
1E
100
AcDbEntity
  8
TEXT
100
AcDbText
 10
224.877940380901
 20
102.5489328011779
 30
0.0
 40
5.0
  1
Benennung
 41
0.8
  7
GREEKS
100
AcDbText
  0
TEXT
  5
78
330
1E
100
AcDbEntity
  8
TEXT
100
AcDbText
 10
336.178754957634
 20
102.3132034537136
 30
0.0
 40
5.0
  1
Zeichnungs Nr.
 41
0.8
  7
GREEKS
100
AcDbText
  0
TEXT
  5
79
330
1E
100
AcDbEntity
  8
TEXT
100
AcDbText
 10
224.742238391136
 20
30.84560570193057
 30
0.0
 40
5.0
  1
Bauvorhaben
 41
0.8
  7
GREEKS
100
AcDbText
  0
TEXT
  5
7A
330
1E
100
AcDbEntity
  8
TEXT
100
AcDbText
 10
336.7238616296993
 20
73.1811823709997
 30
0.0
 40
5.0
  1
Ersatz für:
 41
0.8
  7
GREEKS
100
AcDbText
  0
TEXT
  5
7B
330
1E
100
AcDbEntity
  8
TEXT
100
AcDbText
 10
48.26641107045756
 20
13.65465846027192
 30
0.0
 40
4.0
  1
Index
 50
90.0
 41
0.8
  7
GREEKS
100
AcDbText
  0
TEXT
  5
7C
330
1E
100
AcDbEntity
  8
TEXT
100
AcDbText
 10
100.0934676075481
 20
18.6715626933981
 30
0.0
 40
4.0
  1
Tag
 41
0.8
  7
GREEKS
 72
     1
 11
103.8268009408814
 21
18.6715626933981
 31
0.0
100
AcDbText
  0
TEXT
  5
7D
330
1E
100
AcDbEntity
  8
TEXT
100
AcDbText
 10
119.0122744386592
 20
18.59324216966408
 30
0.0
 40
4.0
  1
Name
 41
0.8
  7
GREEKS
 72
     1
 11
125.3360839624688
 21
18.59324216966408
 31
0.0
100
AcDbText
  0
TEXT
  5
7E
330
1E
100
AcDbEntity
  8
TEXT
100
AcDbText
 10
162.3311673153651
 20
73.31880501229926
 30
0.0
 40
4.0
  1
Tag
 41
0.8
  7
GREEKS
100
AcDbText
  0
TEXT
  5
7F
330
1E
100
AcDbEntity
  8
TEXT
100
AcDbText
 10
192.4626584226295
 20
73.30961091915225
 30
0.0
 40
4.0
  1
Name
 41
0.8
  7
GREEKS
100
AcDbText
  0
TEXT
  5
80
330
1E
100
AcDbEntity
  8
TEXT
100
AcDbText
 10
137.5836127167615
 20
63.62990369617964
 30
0.0
 40
4.0
  1
Gez.
 41
0.8
  7
GREEKS
100
AcDbText
  0
TEXT
  5
81
330
1E
100
AcDbEntity
  8
TEXT
100
AcDbText
 10
137.5515086571672
 20
53.68926291428377
 30
0.0
 40
4.0
  1
Gepr.
 41
0.8
  7
GREEKS
100
AcDbText
  0
TEXT
  5
82
330
1E
100
AcDbEntity
  8
TEXT
100
AcDbText
 10
137.6006777387304
 20
43.52946389649807
 30
0.0
 40
4.0
  1
Norm.
 41
0.8
  7
GREEKS
100
AcDbText
  0
LINE
  5
83
330
1E
100
AcDbEntity
  8
STEMPEL
100
AcDbLine
 10
49.99999999999989
 20
10.0
 30
0.0
 11
410.0
 21
10.0
 31
0.0
  0
TEXT
  5
84
330
1E
100
AcDbEntity
  8
TEXT
100
AcDbText
 10
337.2400861497006
 20
52.07416177878602
 30
0.0
 40
5.0
  1
ersetzt durch:
 41
0.8
  7
GREEKS
100
AcDbText
  0
LINE
  5
85
330
1E
100
AcDbEntity
  8
STEMPEL
100
AcDbLine
 10
410.0
 20
10.0
 30
0.0
 11
39.99999999999989
 21
10.0
 31
0.0
  0
LINE
  5
86
330
1E
100
AcDbEntity
  8
STEMPEL
100
AcDbLine
 10
410.0
 20
10.0
 30
0.0
 11
410.0
 21
584.0
 31
0.0
  0
LINE
  5
87
330
1E
100
AcDbEntity
  8
STEMPEL
100
AcDbLine
 10
40.0
 20
10.0
 30
0.0
 11
39.99999999999989
 21
584.0
 31
0.0
  0
LINE
  5
88
330
1E
100
AcDbEntity
  8
STEMPEL
100
AcDbLine
 10
410.0
 20
584.0
 30
0.0
 11
39.99999999999989
 21
584.0
 31
0.0
  0
LINE
  5
89
330
1E
100
AcDbEntity
  8
HILF
100
AcDbLine
 10
0.0
 20
0.0
 30
0.0
 11
-0.0000000000001137
 21
594.0
 31
0.0
  0
LINE
  5
8A
330
1E
100
AcDbEntity
  8
HILF
100
AcDbLine
 10
419.9999999999999
 20
594.0000000000002
 30
0.0
 11
0.0
 21
594.0
 31
0.0
  0
LINE
  5
8B
330
1E
100
AcDbEntity
  8
HILF
100
AcDbLine
 10
420.0
 20
0.0
 30
0.0
 11
0.0
 21
0.0
 31
0.0
  0
LINE
  5
8C
330
1E
100
AcDbEntity
  8
HILF
100
AcDbLine
 10
31.08767135713856
 20
297.0
 30
0.0
 11
0.0000000000001137
 21
297.0
 31
0.0
  0
TEXT
  5
8D
330
1E
100
AcDbEntity
  8
TEXT
100
AcDbText
 10
138.622109822104
 20
73.14025471151666
 30
0.0
 40
4.0
  1
2011
 41
0.8
  7
GREEKS
100
AcDbText
  0
LINE
  5
8E
330
1E
100
AcDbEntity
  8
HILF
100
AcDbLine
 10
420.0
 20
-0.0000000000001137
 30
0.0
 11
419.9999999999999
 21
594.0
 31
0.0
  0
TEXT
  5
8F
330
1E
100
AcDbEntity
  8
VOLL
100
AcDbText
 10
78.07675471698113
 20
31.02594776470585
 30
0.0
 40
1.8
  1

  7
GREEKS
100
AcDbText
  0
TEXT
  5
90
330
1E
100
AcDbEntity
  8
TEXT
100
AcDbText
 10
41.85509950977674
 20
111.6719999999999
 30
0.0
 40
5.0
  1
Erstellt mit AUTOCAD 2004
 41
0.8
  7
GREEKS
100
AcDbText
  0
TEXT
  5
91
330
1E
100
AcDbEntity
  8
TEXT
100
AcDbText
 10
194.4216048581257
 20
63.0896391972351
 30
0.0
 40
4.0
  1
Koeh
 41
0.8
  7
GREEKS
 72
     1
 11
199.6787477152685
 21
63.0896391972351
 31
0.0
100
AcDbText
  0
TEXT
  5
92
330
1E
100
AcDbEntity
  8
TEXT
 62
     1
100
AcDbText
 10
347.2850229399057
 20
88.14901428913959
 30
0.0
 40
7.0
  1
00600CM0N
 41
0.8
  7
GREEKS
 72
     1
 11
371.1516896065724
 21
88.14901428913959
 31
0.0
100
AcDbText
  0
TEXT
  5
93
330
1E
100
AcDbEntity
  8
TEXT
 62
     1
100
AcDbText
 10
150.5006306481887
 20
88.14901428913959
 30
0.0
 40
7.0
  1
1:2
 41
0.8
  7
GREEKS
100
AcDbText
  0
TEXT
  5
94
330
1E
100
AcDbEntity
  8
TEXT
100
AcDbText
 10
160.7037590129979
 20
63.10765040825732
 30
0.0
 40
4.0
  1
24.10.
 41
0.8
  7
GREEKS
 72
     1
 11
167.4085209177598
 21
63.10765040825732
 31
0.0
100
AcDbText
  0
TEXT
  5
95
330
1E
100
AcDbEntity
  8
TEXT
 62
     1
100
AcDbText
 10
224.2909241008022
 20
87.41748789253779
 30
0.0
 40
7.0
  1
Übergangsrohr DN70/80
 41
0.75
  7
GREEKS
100
AcDbText
  0
TEXT
  5
96
330
1E
100
AcDbEntity
  8
TEXT
100
AcDbText
 10
225.1296391125315
 20
71.50334417585288
 30
0.0
 40
5.0
  1
konzentrisches Red.-Stück
 41
0.8
  7
GREEKS
100
AcDbText
  0
TEXT
  5
98
330
1E
100
AcDbEntity
  8
TEXT
100
AcDbText
 10
225.1296391125315
 20
51.64011943042158
 30
0.0
 40
5.0
  1
EDV-Art.Nr. 00600.CM0N
 41
0.8
  7
GREEKS
100
AcDbText
  0
TEXT
  5
99
330
1E
100
AcDbEntity
  8
TEXT
100
AcDbText
 10
224.9837501577827
 20
42.62974153022632
 30
0.0
 40
4.0
  1
00600.CM0N.DWG
 41
0.8
  7
GREEKS
100
AcDbText
  0
TEXT
  5
9A
330
1E
100
AcDbEntity
  8
TEXT
100
AcDbText
 10
182.626132208084
 20
90.76363841023022
 30
0.0
 40
4.0
  1
DIN EN1123-2
 41
0.8
  7
GREEKS
 72
     1
 11
199.6166083985602
 21
90.76363841023022
 31
0.0
100
AcDbText
  0
INSERT
  5
9B
330
1E
100
AcDbEntity
  8
STEMPEL
100
AcDbBlockReference
  2
LOGO
 10
140.9955485457794
 20
45.02105276448322
 30
0.0
 41
2.0
 42
2.0
 43
2.0
  0
TEXT
  5
118
330
1E
100
AcDbEntity
  8
BEM
100
AcDbText
 10
417.3022923857165
 20
10.16790107998849
 30
0.0
 40
4.0
  1
Diese Zeichnung ist urheberrechtlich geschützt und bleibt unser Eigentum. Sie darf weder ganz noch teilweise verfielfältigt und nicht an Dritte weitergegeben werden.
 50
90.0
 41
0.8
  7
GREEKS
100
AcDbText
  0
TEXT
  5
1CA
330
1E
100
AcDbEntity
  8
TEXT
 62
     1
100
AcDbText
 10
217.9421133170555
 20
436.3813705733872
 30
0.0
 40
7.0
  1
DN70
 50
90.0
 41
0.8
  7
GREEKS
100
AcDbText
  0
TEXT
  5
2B5
330
1E
100
AcDbEntity
  8
TEXT
 62
     1
100
AcDbText
 10
55.87395933336921
 20
155.3929853351618
 30
0.0
 40
7.0
  1
Rohrende leicht eingezogen
 41
0.8
  7
GREEKS
100
AcDbText
  0
TEXT
  5
31C
330
1E
100
AcDbEntity
  8
TEXT
 62
     1
100
AcDbText
 10
217.9421133170555
 20
307.4305027773939
 30
0.0
 40
7.0
  1
DN80
 50
90.0
 41
0.8
  7
GREEKS
100
AcDbText
  0
INSERT
  5
141F
330
1E
100
AcDbEntity
  8
SCHRAFF
100
AcDbBlockReference
  2
*X1
 10
1.246904278329736
 20
-2.556799154902478
 30
0.0
1001
ACAD
1000
HATCH
1002
{
1070
    16
1000
_U,I
1040
0.1
1040
2.356194490192344
1070
     0
1002
}
  0
ARC
  5
1420
330
1E
100
AcDbEntity
  8
SCHRAFF
100
AcDbCircle
 10
186.6235012447449
 20
386.0711202186148
 30
0.0
 40
3.439592467842158
100
AcDbArc
 50
75.23670484871662
 51
231.0236689762834
  0
ARC
  5
1421
330
1E
100
AcDbEntity
  8
SCHRAFF
100
AcDbCircle
 10
262.78857713997
 20
385.773239933537
 30
0.0
 40
3.635392629319859
100
AcDbArc
 50
319.186702327889
 51
94.55292384711009
  0
ARC
  5
1424
330
1E
100
AcDbEntity
  8
SCHRAFF
100
AcDbCircle
 10
247.0414018186108
 20
386.3971608492855
 30
0.0
 40
4.831292565701573
100
AcDbArc
 50
321.6143238873458
 51
38.38567611265411
  0
ARC
  5
1425
330
1E
100
AcDbEntity
  8
SCHRAFF
100
AcDbCircle
 10
254.703986950014
 20
386.3971608492855
 30
0.0
 40
4.831292565701573
100
AcDbArc
 50
321.6143238873458
 51
38.38567611265411
  0
ARC
  5
1427
330
1E
100
AcDbEntity
  8
SCHRAFF
100
AcDbCircle
 10
239.3788166872077
 20
386.3971608492856
 30
0.0
 40
4.831292565701573
100
AcDbArc
 50
321.6143238873458
 51
38.38567611265411
  0
ARC
  5
1429
330
1E
100
AcDbEntity
  8
SCHRAFF
100
AcDbCircle
 10
231.7162315558046
 20
386.3971608492856
 30
0.0
 40
4.831292565701573
100
AcDbArc
 50
321.6143238873458
 51
38.38567611265411
  0
ARC
  5
142A
330
1E
100
AcDbEntity
  8
SCHRAFF
100
AcDbCircle
 10
224.0536464244014
 20
386.3971608492856
 30
0.0
 40
4.831292565701573
100
AcDbArc
 50
321.6143238873458
 51
38.38567611265411
  0
ARC
  5
142D
330
1E
100
AcDbEntity
  8
SCHRAFF
100
AcDbCircle
 10
216.3910612929982
 20
386.3971608492856
 30
0.0
 40
4.831292565701573
100
AcDbArc
 50
321.6143238873458
 51
38.38567611265411
  0
ARC
  5
142F
330
1E
100
AcDbEntity
  8
SCHRAFF
100
AcDbCircle
 10
208.7284761615951
 20
386.3971608492856
 30
0.0
 40
4.831292565701573
100
AcDbArc
 50
321.6143238873458
 51
38.38567611265411
  0
ARC
  5
1431
330
1E
100
AcDbEntity
  8
SCHRAFF
100
AcDbCircle
 10
201.0658910301919
 20
386.3971608492856
 30
0.0
 40
4.831292565701573
100
AcDbArc
 50
321.6143238873458
 51
38.38567611265411
  0
ARC
  5
1433
330
1E
100
AcDbEntity
  8
SCHRAFF
100
AcDbCircle
 10
193.4033058987888
 20
386.3971608492856
 30
0.0
 40
4.831292565701573
100
AcDbArc
 50
321.6143238873458
 51
38.38567611265411
  0
ARC
  5
1435
330
1E
100
AcDbEntity
  8
SCHRAFF
100
AcDbCircle
 10
185.7407207673856
 20
386.3971608492856
 30
0.0
 40
4.831292565701573
100
AcDbArc
 50
321.6143238873458
 51
38.38567611265411
  0
LINE
  5
1438
330
1E
100
AcDbEntity
  8
MITTEL
100
AcDbLine
 10
225.0
 20
466.3971608492854
 30
0.0
 11
225.0
 21
271.3971608492855
 31
0.0
  0
DIMENSION
  5
143D
330
1E
100
AcDbEntity
  8
BEM
100
AcDbDimension
  2
*D2
 10
261.4999999999999
 20
472.2890083292746
 30
0.0
 11
225.0
 21
478.7890083292746
 31
0.0
 70
    32
  1
%%C<>
 71
     5
 42
73.0
  3
Standard
100
AcDbAlignedDimension
 13
188.4999999999999
 23
401.0905611847169
 33
0.0
 14
261.4999999999999
 24
401.0905611847169
 34
0.0
100
AcDbRotatedDimension
1001
ACAD
1000
DSTYLE
1002
{
1070
    40
1040
2.0
1070
    41
1040
3.5
1070
    42
1040
1.0
1070
    43
1040
7.0
1070
    44
1040
1.0
1070
    73
1070
     0
1070
    74
1070
     0
1070
    77
1070
     1
1070
    78
1070
     8
1070
    79
1070
     2
1070
   140
1040
3.5
1070
   141
1040
1.5
1070
   146
1040
0.5142857142857144
1070
   147
1040
1.5
1070
   172
1070
     1
1070
   178
1070
     1
1070
   179
1070
     2
1070
   271
1070
     2
1070
   272
1070
     2
1070
   284
1070
     8
1070
   285
1070
     8
1070
   286
1070
     8
1002
}
  0
DIMENSION
  5
143E
330
1E
100
AcDbEntity
  8
BEM
100
AcDbDimension
  2
*D3
 10
269.4999999999999
 20
256.9446457943393
 30
0.0
 11
225.0
 21
263.4446457943393
 31
0.0
 70
    32
  1
%%C<>
 71
     5
 42
89.00000000000003
  3
Standard
100
AcDbAlignedDimension
 13
180.4999999999999
 23
286.3971608492857
 33
0.0
 14
269.4999999999999
 24
286.3971608492855
 34
0.0
100
AcDbRotatedDimension
1001
ACAD
1000
DSTYLE
1002
{
1070
    40
1040
2.0
1070
    41
1040
3.5
1070
    42
1040
1.0
1070
    43
1040
7.0
1070
    44
1040
1.0
1070
    73
1070
     0
1070
    74
1070
     0
1070
    77
1070
     1
1070
    78
1070
     8
1070
    79
1070
     2
1070
   140
1040
3.5
1070
   141
1040
1.5
1070
   146
1040
0.5142857142857144
1070
   147
1040
1.5
1070
   172
1070
     1
1070
   178
1070
     1
1070
   179
1070
     2
1070
   271
1070
     2
1070
   272
1070
     2
1070
   284
1070
     8
1070
   285
1070
     8
1070
   286
1070
     8
1002
}
  0
ARC
  5
1456
330
1E
100
AcDbEntity
  8
STEMPEL
100
AcDbCircle
 10
192.4999999999999
 20
360.3257699379228
 30
0.0
 40
12.0
100
AcDbArc
 50
169.7960262782691
 51
180.0
  0
ARC
  5
1457
330
1E
100
AcDbEntity
  8
STEMPEL
100
AcDbCircle
 10
257.4999999999999
 20
360.3257699379229
 30
0.0
 40
12.0
100
AcDbArc
 50
0.0
 51
10.20397372173085
  0
LINE
  5
1458
330
1E
100
AcDbEntity
  8
STEMPEL
100
AcDbLine
 10
184.9999999999999
 20
386.3971608492856
 30
0.0
 11
180.6898001123155
 21
362.451605917706
 31
0.0
  0
LINE
  5
1459
330
1E
100
AcDbEntity
  8
STEMPEL
100
AcDbLine
 10
264.9999999999999
 20
386.3971608492855
 30
0.0
 11
269.3101998876843
 21
362.451605917706
 31
0.0
  0
DIMENSION
  5
145B
330
1E
100
AcDbEntity
  8
BEM
100
AcDbDimension
  2
*D4
 10
168.7836338012927
 20
361.3971608492856
 30
0.0
 11
162.2836338012927
 21
318.8971608492856
 31
0.0
 70
    32
 71
     5
 42
85.00000000000012
  3
Standard
100
AcDbAlignedDimension
 13
181.3748866352591
 23
276.3971608492855
 33
0.0
 14
180.7796672039322
 24
361.3971608492856
 34
0.0
 50
90.0
100
AcDbRotatedDimension
1001
ACAD
1000
DSTYLE
1002
{
1070
    40
1040
2.0
1070
    41
1040
3.5
1070
    42
1040
1.0
1070
    43
1040
7.0
1070
    44
1040
1.0
1070
    73
1070
     0
1070
    74
1070
     0
1070
    77
1070
     1
1070
    78
1070
     8
1070
    79
1070
     2
1070
   140
1040
3.5
1070
   141
1040
1.5
1070
   146
1040
0.5142857142857144
1070
   147
1040
1.5
1070
   172
1070
     1
1070
   178
1070
     1
1070
   179
1070
     2
1070
   271
1070
     2
1070
   272
1070
     2
1070
   284
1070
     8
1070
   285
1070
     8
1070
   286
1070
     8
1002
}
  0
LINE
  5
1460
330
1E
100
AcDbEntity
  8
HILF
  6
Continuous
100
AcDbLine
 10
267.8446663317406
 20
361.3971608492855
 30
0.0
 11
182.1553336682592
 21
361.3971608492856
 31
0.0
  0
ARC
  5
1461
330
1E
100
AcDbEntity
  8
STEMPEL
100
AcDbCircle
 10
180.4999999999999
 20
393.2857046692839
 30
0.0
 40
8.0
100
AcDbArc
 50
333.4349488229235
 51
0.0
  0
ARC
  5
1462
330
1E
100
AcDbEntity
  8
STEMPEL
100
AcDbCircle
 10
269.4999999999999
 20
393.2857046692837
 30
0.0
 40
8.0
100
AcDbArc
 50
180.0
 51
206.5650511770802
  0
LINE
  5
1463
330
1E
100
AcDbEntity
  8
STEMPEL
100
AcDbLine
 10
187.6554175279992
 20
389.7079959052842
 30
0.0
 11
185.9999999999999
 21
386.3971608492856
 31
0.0
  0
LINE
  5
1464
330
1E
100
AcDbEntity
  8
STEMPEL
100
AcDbLine
 10
264.0
 20
386.3971608492855
 30
0.0
 11
262.3445824720006
 21
389.707995905284
 31
0.0
  0
LINE
  5
1465
330
1E
100
AcDbEntity
  8
HILF
100
AcDbLine
 10
260.0875931749659
 20
391.3971608492855
 30
0.0
 11
189.9124068250339
 21
391.3971608492856
 31
0.0
  0
LINE
  5
1466
330
1E
100
AcDbEntity
  8
STEMPEL
100
AcDbLine
 10
269.4999999999999
 20
286.3971608492855
 30
0.0
 11
268.6251133647407
 21
276.3971608492855
 31
0.0
  0
LINE
  5
1467
330
1E
100
AcDbEntity
  8
STEMPEL
100
AcDbLine
 10
180.4999999999999
 20
286.3971608492857
 30
0.0
 11
181.3748866352591
 21
276.3971608492855
 31
0.0
  0
LINE
  5
1468
330
1E
100
AcDbEntity
  8
HILF
  6
Continuous
100
AcDbLine
 10
267.8999999999999
 20
286.3971608492855
 30
0.0
 11
182.0999999999999
 21
286.3971608492855
 31
0.0
  0
LINE
  5
1469
330
1E
100
AcDbEntity
  8
STEMPEL
100
AcDbLine
 10
269.4999999999999
 20
360.3257699379229
 30
0.0
 11
269.4999999999999
 21
286.3971608492855
 31
0.0
  0
LINE
  5
146A
330
1E
100
AcDbEntity
  8
STEMPEL
100
AcDbLine
 10
180.4999999999999
 20
360.3257699379228
 30
0.0
 11
180.4999999999999
 21
286.3971608492857
 31
0.0
  0
LINE
  5
146B
330
1E
100
AcDbEntity
  8
STEMPEL
100
AcDbLine
 10
268.6251133647407
 20
276.3971608492855
 30
0.0
 11
181.3748866352591
 21
276.3971608492855
 31
0.0
  0
LINE
  5
146C
330
1E
100
AcDbEntity
  8
STEMPEL
100
AcDbLine
 10
264.9999999999999
 20
386.3971608492855
 30
0.0
 11
184.9999999999999
 21
386.3971608492856
 31
0.0
  0
ARC
  5
146E
330
1E
100
AcDbEntity
  8
STEMPEL
100
AcDbCircle
 10
242.1
 20
450.8482384421668
 30
0.0
 40
25.0
100
AcDbArc
 50
0.0
 51
24.95819631230587
  0
ARC
  5
146F
330
1E
100
AcDbEntity
  8
STEMPEL
100
AcDbCircle
 10
276.5999999999999
 20
428.3971608492855
 30
0.0
 40
12.0
100
AcDbArc
 50
158.8168456069635
 51
180.0
  0
ARC
  5
1470
330
1E
100
AcDbEntity
  8
STEMPEL
100
AcDbCircle
 10
242.1
 20
441.7671608492855
 30
0.0
 40
25.00009324312574
100
AcDbArc
 50
338.8168456069636
 51
0.1564859543310882
  0
LINE
  5
1471
330
1E
100
AcDbEntity
  8
STEMPEL
100
AcDbLine
 10
267.1
 20
450.8482384421667
 30
0.0
 11
267.1
 21
441.6988808010917
 31
0.0
  0
ARC
  5
1472
330
1E
100
AcDbEntity
  8
STEMPEL
100
AcDbCircle
 10
269.4999999999999
 20
401.0905611847169
 30
0.0
 40
8.0
100
AcDbArc
 50
147.6719358778383
 51
180.0
  0
ARC
  5
1473
330
1E
100
AcDbEntity
  8
STEMPEL
100
AcDbCircle
 10
252.6
 20
411.7858872667024
 30
0.0
 40
12.0
100
AcDbArc
 50
327.6719358778383
 51
0.0
  0
LINE
  5
1474
330
1E
100
AcDbEntity
  8
STEMPEL
100
AcDbLine
 10
261.4999999999999
 20
401.0905611847169
 30
0.0
 11
261.4999999999999
 21
393.2857046692837
 31
0.0
  0
LINE
  5
1475
330
1E
100
AcDbEntity
  8
STEMPEL
100
AcDbLine
 10
264.5999999999999
 20
428.3971608492855
 30
0.0
 11
264.5999999999999
 21
411.7858872667024
 31
0.0
  0
ARC
  5
1477
330
1E
100
AcDbEntity
  8
STEMPEL
100
AcDbCircle
 10
207.8999999999999
 20
450.8482384421668
 30
0.0
 40
25.0
100
AcDbArc
 50
155.0418036876905
 51
180.0
  0
ARC
  5
1478
330
1E
100
AcDbEntity
  8
STEMPEL
100
AcDbCircle
 10
173.3999999999999
 20
428.3971608492855
 30
0.0
 40
12.0
100
AcDbArc
 50
0.0
 51
21.18315439303641
  0
ARC
  5
1479
330
1E
100
AcDbEntity
  8
STEMPEL
100
AcDbCircle
 10
207.8999999999999
 20
441.7671608492855
 30
0.0
 40
25.00009324312574
100
AcDbArc
 50
179.8435140456689
 51
201.1831543930364
  0
LINE
  5
147A
330
1E
100
AcDbEntity
  8
STEMPEL
100
AcDbLine
 10
182.8999999999999
 20
450.8482384421667
 30
0.0
 11
182.8999999999999
 21
441.6988808010917
 31
0.0
  0
ARC
  5
147B
330
1E
100
AcDbEntity
  8
STEMPEL
100
AcDbCircle
 10
180.4999999999999
 20
401.0905611847169
 30
0.0
 40
8.0
100
AcDbArc
 50
0.0
 51
32.32806412216171
  0
ARC
  5
147C
330
1E
100
AcDbEntity
  8
STEMPEL
100
AcDbCircle
 10
197.3999999999999
 20
411.7858872667024
 30
0.0
 40
12.0
100
AcDbArc
 50
180.0
 51
212.3280641221617
  0
LINE
  5
147D
330
1E
100
AcDbEntity
  8
STEMPEL
100
AcDbLine
 10
188.4999999999999
 20
401.0905611847169
 30
0.0
 11
188.4999999999999
 21
393.2857046692839
 31
0.0
  0
LINE
  5
147E
330
1E
100
AcDbEntity
  8
STEMPEL
100
AcDbLine
 10
185.3999999999999
 20
428.3971608492855
 30
0.0
 11
185.3999999999999
 21
411.7858872667024
 31
0.0
  0
LINE
  5
147F
330
1E
100
AcDbEntity
  8
STEMPEL
100
AcDbLine
 10
264.7653973282749
 20
461.3971608492855
 30
0.0
 11
185.2346026717247
 21
461.3971608492855
 31
0.0
  0
DIMENSION
  5
16F8
330
1E
100
AcDbEntity
  8
BEM
100
AcDbDimension
  2
*D5
 10
153.8486386950435
 20
276.3971608492855
 30
0.0
 11
147.3486386950435
 21
368.8971608492856
 31
0.0
 70
    32
 71
     5
 42
185.0
  3
Standard
100
AcDbAlignedDimension
 13
185.2346026717247
 23
461.3971608492855
 33
0.0
 14
181.3748866352591
 24
276.3971608492855
 34
0.0
 50
90.0
100
AcDbRotatedDimension
1001
ACAD
1000
DSTYLE
1002
{
1070
    40
1040
2.0
1070
    41
1040
3.5
1070
    42
1040
1.0
1070
    43
1040
7.0
1070
    44
1040
1.0
1070
    73
1070
     0
1070
    74
1070
     0
1070
    77
1070
     1
1070
    78
1070
     8
1070
    79
1070
     2
1070
   140
1040
3.5
1070
   141
1040
1.5
1070
   146
1040
0.5142857142857144
1070
   147
1040
1.5
1070
   172
1070
     1
1070
   178
1070
     1
1070
   179
1070
     2
1070
   271
1070
     2
1070
   272
1070
     2
1070
   284
1070
     8
1070
   285
1070
     8
1070
   286
1070
     8
1002
}
  0
LINE
  5
171E
330
1E
100
AcDbEntity
  8
HILF
100
AcDbLine
 10
187.5511421982038
 20
408.4452286490046
 30
0.0
 11
262.448857801796
 21
408.4452286490045
 31
0.0
  0
LINE
  5
171F
330
1E
100
AcDbEntity
  8
HILF
100
AcDbLine
 10
186.8199465702866
 20
430.6028430681581
 30
0.0
 11
263.1800534297132
 21
430.6028430681581
 31
0.0
  0
LINE
  5
178D
330
1E
100
AcDbEntity
  8
HILF
100
AcDbLine
 10
189.8380940239431
 20
403.3176669298489
 30
0.0
 11
260.1619059760569
 21
403.3176669298488
 31
0.0
  0
TEXT
  5
1794
330
1E
100
AcDbEntity
  8
TEXT
 62
     1
100
AcDbText
 10
222.0945863821035
 20
126.8459175328821
 30
0.0
 40
7.0
  1
Werkstoff: SF-Cu DIN1754/1786
 41
0.8
  7
GREEKS
100
AcDbText
  0
ENDSEC
  0
SECTION
  2
OBJECTS
  0
DICTIONARY
  5
C
330
0
100
AcDbDictionary
281
     1
  3
ACAD_COLOR
350
DF
  3
ACAD_GROUP
350
D
  3
ACAD_LAYOUT
350
19
  3
ACAD_MATERIAL
350
DE
  3
ACAD_MLINESTYLE
350
16
  3
ACAD_PLOTSETTINGS
350
18
  3
ACAD_PLOTSTYLENAME
350
E
  3
AcDbVariableDictionary
350
EA
  0
DICTIONARY
  5
A0
330
1E
100
AcDbDictionary
280
     1
281
     1
  3
ACAD_LAYOUTSELFREF
360
D4
  0
DICTIONARY
  5
A2
330
1A
100
AcDbDictionary
280
     1
281
     1
  3
ACAD_LAYOUTSELFREF
360
D3
  0
DICTIONARY
  5
DF
102
{ACAD_REACTORS
330
C
102
}
330
C
100
AcDbDictionary
281
     1
  0
DICTIONARY
  5
D
102
{ACAD_REACTORS
330
C
102
}
330
C
100
AcDbDictionary
281
     1
  0
DICTIONARY
  5
19
102
{ACAD_REACTORS
330
C
102
}
330
C
100
AcDbDictionary
281
     1
  3
Layout1
350
1D
  3
Model
350
21
  0
DICTIONARY
  5
DE
102
{ACAD_REACTORS
330
C
102
}
330
C
100
AcDbDictionary
281
     1
  0
DICTIONARY
  5
16
102
{ACAD_REACTORS
330
C
102
}
330
C
100
AcDbDictionary
281
     1
  3
Standard
350
17
  0
DICTIONARY
  5
18
102
{ACAD_REACTORS
330
C
102
}
330
C
100
AcDbDictionary
281
     1
  0
ACDBDICTIONARYWDFLT
  5
E
102
{ACAD_REACTORS
330
C
102
}
330
C
100
AcDbDictionary
281
     1
  3
Normal
350
F
100
AcDbDictionaryWithDefault
340
F
  0
DICTIONARY
  5
EA
102
{ACAD_REACTORS
330
C
102
}
330
C
100
AcDbDictionary
281
     1
  3
DIMASSOC
350
EB
  3
PROJECTNAME
350
EC
  0
XRECORD
  5
D4
102
{ACAD_REACTORS
330
A0
102
}
330
A0
100
AcDbXrecord
280
     1
340
1E
  0
XRECORD
  5
D3
102
{ACAD_REACTORS
330
A2
102
}
330
A2
100
AcDbXrecord
280
     1
340
1A
  0
LAYOUT
  5
1D
102
{ACAD_REACTORS
330
19
102
}
330
19
100
AcDbPlotSettings
  1

  2
\\NT_WORK01\HP LaserJet 5000 PCL 6
  4

  6

 40
0.0
 41
0.0
 42
0.0
 43
0.0
 44
0.0
 45
0.0
 46
0.0
 47
0.0
 48
0.0
 49
0.0
140
0.0
141
0.0
142
1.0
143
1.0
 70
   688
 72
     0
 73
     0
 74
     5
  7

 75
    16
147
1.0
 76
     0
 77
     2
 78
   300
148
0.0
149
0.0
100
AcDbLayout
  1
Layout1
 70
     0
 71
     1
 10
0.0
 20
0.0
 11
12.0
 21
9.0
 12
0.0
 22
0.0
 32
0.0
 14
1.000000000000000E+20
 24
1.000000000000000E+20
 34
1.000000000000000E+20
 15
-1.000000000000000E+20
 25
-1.000000000000000E+20
 35
-1.000000000000000E+20
146
0.0
 13
0.0
 23
0.0
 33
0.0
 16
1.0
 26
0.0
 36
0.0
 17
0.0
 27
1.0
 37
0.0
 76
     0
330
1A
  0
LAYOUT
  5
21
102
{ACAD_REACTORS
330
19
102
}
330
19
100
AcDbPlotSettings
  1

  2
none_device
  4
Letter_(8.50_x_11.00_Inches)
  6

 40
6.349999904632568
 41
6.349999904632568
 42
6.350006103515625
 43
6.350006103515625
 44
215.8999938964844
 45
279.3999938964844
 46
0.0
 47
0.0
 48
0.0
 49
0.0
140
0.0
141
0.0
142
1.0
143
1.0
 70
 11952
 72
     0
 73
     1
 74
     0
  7

 75
     0
147
1.0
 76
     0
 77
     2
 78
   300
148
2301.231158682664
149
91.39740559320946
100
AcDbLayout
  1
Model
 70
     1
 71
     0
 10
0.0
 20
0.0
 11
12.0
 21
9.0
 12
0.0
 22
0.0
 32
0.0
 14
0.0
 24
0.0
 34
0.0
 15
0.0
 25
0.0
 35
0.0
146
0.0
 13
0.0
 23
0.0
 33
0.0
 16
1.0
 26
0.0
 36
0.0
 17
0.0
 27
1.0
 37
0.0
 76
     0
330
1E
  0
MLINESTYLE
  5
17
102
{ACAD_REACTORS
330
16
102
}
330
16
100
AcDbMlineStyle
  2
STANDARD
 70
     0
  3

 62
   256
 51
90.0
 52
90.0
 71
     2
 49
0.5
 62
   256
  6
BYLAYER
 49
-0.5
 62
   256
  6
BYLAYER
  0
ACDBPLACEHOLDER
  5
F
102
{ACAD_REACTORS
330
E
102
}
330
E
  0
DICTIONARYVAR
  5
EB
102
{ACAD_REACTORS
330
EA
102
}
330
EA
100
DictionaryVariables
280
     0
  1
1
  0
DICTIONARYVAR
  5
EC
102
{ACAD_REACTORS
330
EA
102
}
330
EA
100
DictionaryVariables
280
     0
  1

  0
ENDSEC
  0
EOF
