  0
SECTION
  2
HEADER
  9
$ACADVER
  1
AC1018
  9
$ACADMAINTVER
 70
     2
  9
$DWGCODEPAGE
  3
ANSI_1252
  9
$INSBASE
 10
0.0
 20
0.0
 30
0.0
  9
$EXTMIN
 10
-0.012816796064385
 20
-0.0181266115766903
 30
-0.0000000349181948
  9
$EXTMAX
 10
210.0128187519015
 20
297.0181293776894
 30
0.0000000814935746
  9
$LIMMIN
 10
0.0
 20
0.0
  9
$LIMMAX
 10
210.0
 20
297.0
  9
$ORTHOMODE
 70
     1
  9
$REGENMODE
 70
     1
  9
$FILLMODE
 70
     1
  9
$QTEXTMODE
 70
     0
  9
$MIRRTEXT
 70
     1
  9
$LTSCALE
 40
10.0
  9
$ATTMODE
 70
     1
  9
$TEXTSIZE
 40
3.5
  9
$TRACEWID
 40
0.5
  9
$TEXTSTYLE
  7
STANDARD
  9
$CLAYER
  8
VOLL
  9
$CELTYPE
  6
ByLayer
  9
$CECOLOR
 62
   256
  9
$CELTSCALE
 40
1.0
  9
$DISPSILH
 70
     0
  9
$DIMSCALE
 40
1.0
  9
$DIMASZ
 40
3.5
  9
$DIMEXO
 40
1.0
  9
$DIMDLI
 40
7.0
  9
$DIMRND
 40
0.0
  9
$DIMDLE
 40
0.0
  9
$DIMEXE
 40
1.0
  9
$DIMTP
 40
0.0
  9
$DIMTM
 40
0.0
  9
$DIMTXT
 40
3.5
  9
$DIMCEN
 40
1.5
  9
$DIMTSZ
 40
0.0
  9
$DIMTOL
 70
     0
  9
$DIMLIM
 70
     0
  9
$DIMTIH
 70
     0
  9
$DIMTOH
 70
     0
  9
$DIMSE1
 70
     0
  9
$DIMSE2
 70
     0
  9
$DIMTAD
 70
     1
  9
$DIMZIN
 70
     8
  9
$DIMBLK
  1

  9
$DIMASO
 70
     1
  9
$DIMSHO
 70
     0
  9
$DIMPOST
  1

  9
$DIMAPOST
  1

  9
$DIMALT
 70
     0
  9
$DIMALTD
 70
     2
  9
$DIMALTF
 40
25.4
  9
$DIMLFAC
 40
1.0
  9
$DIMTOFL
 70
     1
  9
$DIMTVP
 40
0.0
  9
$DIMTIX
 70
     0
  9
$DIMSOXD
 70
     0
  9
$DIMSAH
 70
     0
  9
$DIMBLK1
  1

  9
$DIMBLK2
  1

  9
$DIMSTYLE
  2
Standard
  9
$DIMCLRD
 70
     0
  9
$DIMCLRE
 70
     0
  9
$DIMCLRT
 70
     1
  9
$DIMTFAC
 40
0.5142857142857144
  9
$DIMGAP
 40
1.5
  9
$DIMJUST
 70
     0
  9
$DIMSD1
 70
     0
  9
$DIMSD2
 70
     0
  9
$DIMTOLJ
 70
     1
  9
$DIMTZIN
 70
     8
  9
$DIMALTZ
 70
     8
  9
$DIMALTTZ
 70
     8
  9
$DIMUPT
 70
     0
  9
$DIMDEC
 70
     2
  9
$DIMTDEC
 70
     2
  9
$DIMALTU
 70
     2
  9
$DIMALTTD
 70
     2
  9
$DIMTXSTY
  7
STANDARD
  9
$DIMAUNIT
 70
     0
  9
$DIMADEC
 70
     2
  9
$DIMALTRND
 40
0.0
  9
$DIMAZIN
 70
     2
  9
$DIMDSEP
 70
    46
  9
$DIMATFIT
 70
     3
  9
$DIMFRAC
 70
     0
  9
$DIMLDRBLK
  1

  9
$DIMLUNIT
 70
     2
  9
$DIMLWD
 70
    -2
  9
$DIMLWE
 70
    -2
  9
$DIMTMOVE
 70
     0
  9
$LUNITS
 70
     2
  9
$LUPREC
 70
     2
  9
$SKETCHINC
 40
1.0
  9
$FILLETRAD
 40
0.0
  9
$AUNITS
 70
     0
  9
$AUPREC
 70
     0
  9
$MENU
  1
ACAD
  9
$ELEVATION
 40
0.0
  9
$PELEVATION
 40
0.0
  9
$THICKNESS
 40
0.0
  9
$LIMCHECK
 70
     0
  9
$CHAMFERA
 40
0.0
  9
$CHAMFERB
 40
0.0
  9
$CHAMFERC
 40
0.0
  9
$CHAMFERD
 40
0.0
  9
$SKPOLY
 70
     0
  9
$TDCREATE
 40
2455397.864709028
  9
$TDUCREATE
 40
2455397.781375695
  9
$TDUPDATE
 40
2455656.331274884
  9
$TDUUPDATE
 40
2455656.247941551
  9
$TDINDWG
 40
0.0510098148
  9
$TDUSRTIMER
 40
0.0510098148
  9
$USRTIMER
 70
     1
  9
$ANGBASE
 50
0.0
  9
$ANGDIR
 70
     0
  9
$PDMODE
 70
     0
  9
$PDSIZE
 40
0.0
  9
$PLINEWID
 40
0.0
  9
$SPLFRAME
 70
     0
  9
$SPLINETYPE
 70
     6
  9
$SPLINESEGS
 70
     8
  9
$HANDSEED
  5
D92
  9
$SURFTAB1
 70
     6
  9
$SURFTAB2
 70
     6
  9
$SURFTYPE
 70
     6
  9
$SURFU
 70
     6
  9
$SURFV
 70
     6
  9
$UCSBASE
  2

  9
$UCSNAME
  2

  9
$UCSORG
 10
0.0
 20
0.0
 30
0.0
  9
$UCSXDIR
 10
1.0
 20
0.0
 30
0.0
  9
$UCSYDIR
 10
0.0
 20
1.0
 30
0.0
  9
$UCSORTHOREF
  2

  9
$UCSORTHOVIEW
 70
     0
  9
$UCSORGTOP
 10
0.0
 20
0.0
 30
0.0
  9
$UCSORGBOTTOM
 10
0.0
 20
0.0
 30
0.0
  9
$UCSORGLEFT
 10
0.0
 20
0.0
 30
0.0
  9
$UCSORGRIGHT
 10
0.0
 20
0.0
 30
0.0
  9
$UCSORGFRONT
 10
0.0
 20
0.0
 30
0.0
  9
$UCSORGBACK
 10
0.0
 20
0.0
 30
0.0
  9
$PUCSBASE
  2

  9
$PUCSNAME
  2

  9
$PUCSORG
 10
0.0
 20
0.0
 30
0.0
  9
$PUCSXDIR
 10
1.0
 20
0.0
 30
0.0
  9
$PUCSYDIR
 10
0.0
 20
1.0
 30
0.0
  9
$PUCSORTHOREF
  2

  9
$PUCSORTHOVIEW
 70
     0
  9
$PUCSORGTOP
 10
0.0
 20
0.0
 30
0.0
  9
$PUCSORGBOTTOM
 10
0.0
 20
0.0
 30
0.0
  9
$PUCSORGLEFT
 10
0.0
 20
0.0
 30
0.0
  9
$PUCSORGRIGHT
 10
0.0
 20
0.0
 30
0.0
  9
$PUCSORGFRONT
 10
0.0
 20
0.0
 30
0.0
  9
$PUCSORGBACK
 10
0.0
 20
0.0
 30
0.0
  9
$USERI1
 70
     0
  9
$USERI2
 70
     0
  9
$USERI3
 70
     0
  9
$USERI4
 70
     0
  9
$USERI5
 70
     0
  9
$USERR1
 40
0.0
  9
$USERR2
 40
0.0
  9
$USERR3
 40
0.0
  9
$USERR4
 40
0.0
  9
$USERR5
 40
0.0
  9
$WORLDVIEW
 70
     1
  9
$SHADEDGE
 70
     3
  9
$SHADEDIF
 70
    70
  9
$TILEMODE
 70
     1
  9
$MAXACTVP
 70
    16
  9
$PINSBASE
 10
0.0
 20
0.0
 30
0.0
  9
$PLIMCHECK
 70
     0
  9
$PEXTMIN
 10
1.000000000000000E+20
 20
1.000000000000000E+20
 30
1.000000000000000E+20
  9
$PEXTMAX
 10
-1.000000000000000E+20
 20
-1.000000000000000E+20
 30
-1.000000000000000E+20
  9
$PLIMMIN
 10
0.0
 20
0.0
  9
$PLIMMAX
 10
12.0
 20
9.0
  9
$UNITMODE
 70
     0
  9
$VISRETAIN
 70
     0
  9
$PLINEGEN
 70
     0
  9
$PSLTSCALE
 70
     0
  9
$TREEDEPTH
 70
  3020
  9
$CMLSTYLE
  2
Standard
  9
$CMLJUST
 70
     0
  9
$CMLSCALE
 40
1.0
  9
$PROXYGRAPHICS
 70
     1
  9
$MEASUREMENT
 70
     0
  9
$CELWEIGHT
370
    -1
  9
$ENDCAPS
280
     0
  9
$JOINSTYLE
280
     0
  9
$LWDISPLAY
290
     0
  9
$INSUNITS
 70
     0
  9
$HYPERLINKBASE
  1

  9
$STYLESHEET
  1
monochrome 1.ctb
  9
$XEDIT
290
     1
  9
$CEPSNTYPE
380
     0
  9
$PSTYLEMODE
290
     1
  9
$FINGERPRINTGUID
  2
{D68B0D02-A558-11D7-B632-000102183313}
  9
$VERSIONGUID
  2
{DB779E31-18C8-4205-AA9F-551CF2D0CE99}
  9
$EXTNAMES
290
     1
  9
$PSVPSCALE
 40
0.0
  9
$OLESTARTUP
290
     0
  9
$SORTENTS
280
   127
  9
$INDEXCTL
280
     0
  9
$HIDETEXT
280
     0
  9
$XCLIPFRAME
290
     0
  9
$HALOGAP
280
     0
  9
$OBSCOLOR
 70
   257
  9
$OBSLTYPE
280
     0
  9
$INTERSECTIONDISPLAY
280
     0
  9
$INTERSECTIONCOLOR
 70
   257
  9
$DIMASSOC
280
     1
  9
$PROJECTNAME
  1

  0
ENDSEC
  0
SECTION
  2
CLASSES
  0
CLASS
  1
ACDBDICTIONARYWDFLT
  2
AcDbDictionaryWithDefault
  3
ObjectDBX Classes
 90
        0
 91
        1
280
     0
281
     0
  0
CLASS
  1
DICTIONARYVAR
  2
AcDbDictionaryVar
  3
ObjectDBX Classes
 90
        0
 91
        2
280
     0
281
     0
  0
ENDSEC
  0
SECTION
  2
TABLES
  0
TABLE
  2
VPORT
  5
8
330
0
100
AcDbSymbolTable
 70
     3
  0
VPORT
  5
D91
330
8
100
AcDbSymbolTableRecord
100
AcDbViewportTableRecord
  2
*Active
 70
     0
 10
0.0
 20
0.0
 11
1.0
 21
1.0
 12
105.0
 22
148.5
 13
0.0
 23
0.0
 14
1.0
 24
1.0
 15
10.0
 25
10.0
 16
0.0
 26
0.0
 36
1.0
 17
0.0
 27
0.0
 37
0.0
 40
297.0
 41
1.334231805929919
 42
50.0
 43
0.0
 44
0.0
 50
0.0
 51
0.0
 71
     0
 72
  1500
 73
     1
 74
     0
 75
     0
 76
     0
 77
     0
 78
     0
281
     0
 65
     1
110
0.0
120
0.0
130
0.0
111
1.0
121
0.0
131
0.0
112
0.0
122
1.0
132
0.0
 79
     0
146
0.0
  0
ENDTAB
  0
TABLE
  2
LTYPE
  5
5
330
0
100
AcDbSymbolTable
 70
     3
  0
LTYPE
  5
13
330
5
100
AcDbSymbolTableRecord
100
AcDbLinetypeTableRecord
  2
ByBlock
 70
     0
  3

 72
    65
 73
     0
 40
0.0
  0
LTYPE
  5
14
330
5
100
AcDbSymbolTableRecord
100
AcDbLinetypeTableRecord
  2
ByLayer
 70
     0
  3

 72
    65
 73
     0
 40
0.0
  0
LTYPE
  5
15
330
5
100
AcDbSymbolTableRecord
100
AcDbLinetypeTableRecord
  2
Continuous
 70
     0
  3
Solid line
 72
    65
 73
     0
 40
0.0
  0
LTYPE
  5
25
330
5
100
AcDbSymbolTableRecord
100
AcDbLinetypeTableRecord
  2
STRICHPUNKT
 70
     0
  3
__ . __ . __ . __ . __ . __ . __ . __ . __ . __
 72
    65
 73
     4
 40
1.0
 49
0.5
 74
     0
 49
-0.25
 74
     0
 49
0.0
 74
     0
 49
-0.25
 74
     0
  0
LTYPE
  5
32
330
5
100
AcDbSymbolTableRecord
100
AcDbLinetypeTableRecord
  2
AUSGEZOGEN
 70
     0
  3
Ausgezogene Linie
 72
    65
 73
     0
 40
0.0
  0
ENDTAB
  0
TABLE
  2
LAYER
  5
2
330
0
100
AcDbSymbolTable
 70
     9
  0
LAYER
  5
10
330
2
100
AcDbSymbolTableRecord
100
AcDbLayerTableRecord
  2
0
 70
     0
 62
     7
  6
Continuous
370
    -3
390
F
  0
LAYER
  5
2A
330
2
100
AcDbSymbolTableRecord
100
AcDbLayerTableRecord
  2
VOLL
 70
     0
 62
     1
  6
Continuous
370
    -3
390
F
  0
LAYER
  5
2B
330
2
100
AcDbSymbolTableRecord
100
AcDbLayerTableRecord
  2
HILF
 70
     0
 62
     2
  6
Continuous
370
    -3
390
F
  0
LAYER
  5
2C
330
2
100
AcDbSymbolTableRecord
100
AcDbLayerTableRecord
  2
MITTEL
 70
     0
 62
     2
  6
STRICHPUNKT
370
    -3
390
F
  0
LAYER
  5
2F
330
2
100
AcDbSymbolTableRecord
100
AcDbLayerTableRecord
  2
BEM
 70
     0
 62
     7
  6
Continuous
370
    -3
390
F
  0
LAYER
  5
30
330
2
100
AcDbSymbolTableRecord
100
AcDbLayerTableRecord
  2
STEMPEL
 70
     0
 62
     3
  6
Continuous
370
    -3
390
F
  0
LAYER
  5
31
330
2
100
AcDbSymbolTableRecord
100
AcDbLayerTableRecord
  2
TEXT
 70
     0
 62
     7
  6
Continuous
370
    -3
390
F
  0
LAYER
  5
195
330
2
100
AcDbSymbolTableRecord
100
AcDbLayerTableRecord
  2
DEFPOINTS
 70
     0
 62
     7
  6
AUSGEZOGEN
290
     0
370
    -3
390
F
  0
LAYER
  5
3B7
330
2
100
AcDbSymbolTableRecord
100
AcDbLayerTableRecord
  2
SCHRAFF
 70
     0
 62
     7
  6
Continuous
370
    -3
390
F
  0
ENDTAB
  0
TABLE
  2
STYLE
  5
3
330
0
100
AcDbSymbolTable
 70
     2
  0
STYLE
  5
11
330
3
100
AcDbSymbolTableRecord
100
AcDbTextStyleTableRecord
  2
STANDARD
 70
     0
 40
0.0
 41
0.8
 50
0.0
 71
     0
 42
3.5
  3
simplex.shx
  4

  0
STYLE
  5
24
330
3
100
AcDbSymbolTableRecord
100
AcDbTextStyleTableRecord
  2
GREEKS
 70
     0
 40
0.0
 41
0.8
 50
0.0
 71
     0
 42
2.5
  3
SIMPLEX.shx
  4

  0
ENDTAB
  0
TABLE
  2
VIEW
  5
6
330
0
100
AcDbSymbolTable
 70
     0
  0
ENDTAB
  0
TABLE
  2
UCS
  5
7
330
0
100
AcDbSymbolTable
 70
     0
  0
ENDTAB
  0
TABLE
  2
APPID
  5
9
330
0
100
AcDbSymbolTable
 70
     1
  0
APPID
  5
12
330
9
100
AcDbSymbolTableRecord
100
AcDbRegAppTableRecord
  2
ACAD
 70
     0
  0
ENDTAB
  0
TABLE
  2
DIMSTYLE
  5
A
330
0
100
AcDbSymbolTable
 70
     1
100
AcDbDimStyleTable
 71
     1
340
9D
  0
DIMSTYLE
105
9D
102
{ACAD_REACTORS
330
AED
330
AB8
330
AB5
330
CE3
102
}
330
A
100
AcDbSymbolTableRecord
100
AcDbDimStyleTableRecord
  2
Standard
 70
     0
340
11
  0
ENDTAB
  0
TABLE
  2
BLOCK_RECORD
  5
1
330
0
100
AcDbSymbolTable
 70
    13
  0
BLOCK_RECORD
  5
1E
102
{ACAD_XDICTIONARY
360
A0
102
}
330
1
100
AcDbSymbolTableRecord
100
AcDbBlockTableRecord
  2
*Model_Space
340
21
  0
BLOCK_RECORD
  5
1A
102
{ACAD_XDICTIONARY
360
A2
102
}
330
1
100
AcDbSymbolTableRecord
100
AcDbBlockTableRecord
  2
*Paper_Space
340
1D
  0
BLOCK_RECORD
  5
22
330
1
100
AcDbSymbolTableRecord
100
AcDbBlockTableRecord
  2
LOGO
340
0
102
{BLKREFS
331
9B
102
}
  0
BLOCK_RECORD
  5
9A0
330
1
100
AcDbSymbolTableRecord
100
AcDbBlockTableRecord
  2
*X3
340
0
102
{BLKREFS
331
A9D
102
}
  0
BLOCK_RECORD
  5
B28
330
1
100
AcDbSymbolTableRecord
100
AcDbBlockTableRecord
  2
*D5
340
0
  0
BLOCK_RECORD
  5
B4F
330
1
100
AcDbSymbolTableRecord
100
AcDbBlockTableRecord
  2
*D6
340
0
  0
BLOCK_RECORD
  5
B9D
330
1
100
AcDbSymbolTableRecord
100
AcDbBlockTableRecord
  2
*D9
340
0
  0
BLOCK_RECORD
  5
CE4
330
1
100
AcDbSymbolTableRecord
100
AcDbBlockTableRecord
  2
*D12
340
0
  0
ENDTAB
  0
ENDSEC
  0
SECTION
  2
BLOCKS
  0
BLOCK
  5
35
330
1E
100
AcDbEntity
  8
0
100
AcDbBlockBegin
  2
*Model_Space
 70
     0
 10
0.0
 20
0.0
 30
0.0
  3
*Model_Space
  1

  0
ENDBLK
  5
36
330
1E
100
AcDbEntity
  8
0
100
AcDbBlockEnd
  0
BLOCK
  5
33
330
1A
100
AcDbEntity
 67
     1
  8
0
100
AcDbBlockBegin
  2
*Paper_Space
 70
     0
 10
0.0
 20
0.0
 30
0.0
  3
*Paper_Space
  1

  0
ENDBLK
  5
34
330
1A
100
AcDbEntity
 67
     1
  8
0
100
AcDbBlockEnd
  0
BLOCK
  5
37
330
22
100
AcDbEntity
  8
0
100
AcDbBlockBegin
  2
LOGO
 70
     0
 10
0.0
 20
0.0
 30
0.0
  3
LOGO
  1

  0
ARC
  5
38
330
22
100
AcDbEntity
  8
0
100
AcDbCircle
 10
11.59973089678112
 20
-9.271599258481501
 30
0.0
 40
4.5
100
AcDbArc
 50
270.0
 51
231.0575587310159
  0
LINE
  5
39
330
22
100
AcDbEntity
  8
0
100
AcDbLine
 10
3.599730896781125
 20
-4.771599258481529
 30
0.0
 11
3.599730896781153
 21
-11.77159925848133
 31
0.0
  0
LINE
  5
3A
330
22
100
AcDbEntity
  8
0
100
AcDbLine
 10
2.599730896781125
 20
-4.771599258481529
 30
0.0
 11
2.599730896781153
 21
-11.77159925848133
 31
0.0
  0
CIRCLE
  5
3B
330
22
100
AcDbEntity
  8
0
100
AcDbCircle
 10
11.59973089678112
 20
-9.271599258481501
 30
0.0
 40
3.5
  0
ARC
  5
3C
330
22
100
AcDbEntity
  8
0
100
AcDbCircle
 10
31.59973089678115
 20
-9.271599258481472
 30
0.0
 40
4.5
100
AcDbArc
 50
270.0
 51
231.0575587310182
  0
LINE
  5
3D
330
22
100
AcDbEntity
  8
0
100
AcDbLine
 10
17.59973089678112
 20
-4.771599258481472
 30
0.0
 11
17.59973089678115
 21
-13.77159925848147
 31
0.0
  0
ARC
  5
3E
330
22
100
AcDbEntity
  8
0
100
AcDbCircle
 10
22.59973089678116
 20
-7.271599258481472
 30
0.0
 40
2.5
100
AcDbArc
 50
293.1161887722295
 51
90.0
  0
CIRCLE
  5
3F
330
22
100
AcDbEntity
  8
0
100
AcDbCircle
 10
31.59973089678115
 20
-9.271599258481472
 30
0.0
 40
3.5
  0
ARC
  5
40
330
22
100
AcDbEntity
  8
0
100
AcDbCircle
 10
4.599730896781153
 20
-11.77159925848133
 30
0.0
 40
1.0
100
AcDbArc
 50
180.0
 51
270.0
  0
ARC
  5
41
330
22
100
AcDbEntity
  8
0
100
AcDbCircle
 10
4.599730896781153
 20
-11.77159925848133
 30
0.0
 40
2.0
100
AcDbArc
 50
179.9999999999992
 51
270.0
  0
LINE
  5
42
330
22
100
AcDbEntity
  8
0
100
AcDbLine
 10
11.59973089678115
 20
-13.77159925848144
 30
0.0
 11
4.599730896781153
 21
-13.77159925848147
 31
0.0
  0
LINE
  5
43
330
22
100
AcDbEntity
  8
0
100
AcDbLine
 10
8.771303772034769
 20
-12.77159925848136
 30
0.0
 11
4.599730896781153
 21
-12.77159925848133
 31
0.0
  0
LINE
  5
44
330
22
100
AcDbEntity
  8
0
100
AcDbLine
 10
31.59973089678115
 20
-13.77159925848147
 30
0.0
 11
23.6715276665056
 21
-13.77159925848144
 31
0.0
  0
LINE
  5
45
330
22
100
AcDbEntity
  8
0
100
AcDbLine
 10
23.56565672307022
 20
-9.51278021337896
 30
0.0
 11
24.4388546544846
 21
-12.77159925848144
 31
0.0
  0
LINE
  5
46
330
22
100
AcDbEntity
  8
0
100
AcDbLine
 10
22.59973089678116
 20
-9.771599258481472
 30
0.0
 11
18.59973089678112
 21
-9.771599258481472
 31
0.0
  0
LINE
  5
47
330
22
100
AcDbEntity
  8
0
100
AcDbLine
 10
18.59973089678115
 20
-13.77159925848144
 30
0.0
 11
17.59973089678115
 21
-13.77159925848144
 31
0.0
  0
LINE
  5
48
330
22
100
AcDbEntity
  8
0
100
AcDbLine
 10
18.59973089678115
 20
-9.771599258481472
 30
0.0
 11
18.59973089678115
 21
-13.77159925848144
 31
0.0
  0
LINE
  5
49
330
22
100
AcDbEntity
  8
0
100
AcDbLine
 10
22.59973089678116
 20
-9.771599258481472
 30
0.0
 11
23.67152766650562
 21
-13.77159925848147
 31
0.0
  0
ARC
  5
4A
330
22
100
AcDbEntity
  8
0
100
AcDbCircle
 10
22.59973089678116
 20
-7.271599258481472
 30
0.0
 40
2.5
100
AcDbArc
 50
270.0
 51
270.0000000000007
  0
LINE
  5
4B
330
22
100
AcDbEntity
  8
0
100
AcDbLine
 10
28.77130377203494
 20
-12.77159925848147
 30
0.0
 11
24.43885465448463
 21
-12.77159925848144
 31
0.0
  0
LINE
  5
4C
330
22
100
AcDbEntity
  8
0
100
AcDbLine
 10
3.599730896781125
 20
-4.771599258481472
 30
0.0
 11
2.599730896781125
 21
-4.771599258481472
 31
0.0
  0
LINE
  5
4D
330
22
100
AcDbEntity
  8
0
100
AcDbLine
 10
22.59973089678116
 20
-8.771599258481472
 30
0.0
 11
18.59973089678115
 21
-8.771599258481472
 31
0.0
  0
LINE
  5
4E
330
22
100
AcDbEntity
  8
0
100
AcDbLine
 10
22.59973089678116
 20
-5.771599258481472
 30
0.0
 11
18.59973089678115
 21
-5.771599258481472
 31
0.0
  0
LINE
  5
4F
330
22
100
AcDbEntity
  8
0
100
AcDbLine
 10
22.59973089678116
 20
-4.771599258481472
 30
0.0
 11
17.59973089678115
 21
-4.771599258481472
 31
0.0
  0
LINE
  5
50
330
22
100
AcDbEntity
  8
0
100
AcDbLine
 10
18.59973089678115
 20
-5.771599258481472
 30
0.0
 11
18.59973089678115
 21
-8.771599258481472
 31
0.0
  0
ARC
  5
51
330
22
100
AcDbEntity
  8
0
100
AcDbCircle
 10
22.59973089678116
 20
-7.271599258481472
 30
0.0
 40
1.5
100
AcDbArc
 50
270.0
 51
90.0
  0
ENDBLK
  5
52
330
22
100
AcDbEntity
  8
0
100
AcDbBlockEnd
  0
BLOCK
  5
9A1
330
9A0
100
AcDbEntity
  8
0
100
AcDbBlockBegin
  2
*X3
 70
     1
 10
0.0
 20
0.0
 30
0.0
  3
*X3
  1

  0
LINE
  5
9A2
330
9A0
100
AcDbEntity
  8
0
 62
     0
100
AcDbLine
 10
79.32077674428251
 20
194.9
 30
0.0
 11
81.41819574192139
 21
194.9
 31
0.0
  0
LINE
  5
9A3
330
9A0
100
AcDbEntity
  8
0
 62
     0
100
AcDbLine
 10
144.4201502523208
 20
194.9
 30
0.0
 11
146.5816266836468
 21
194.9
 31
0.0
  0
LINE
  5
9A4
330
9A0
100
AcDbEntity
  8
0
 62
     0
100
AcDbLine
 10
79.33526816155088
 20
195.0
 30
0.0
 11
81.46770711432152
 21
195.0
 31
0.0
  0
LINE
  5
9A5
330
9A0
100
AcDbEntity
  8
0
 62
     0
100
AcDbLine
 10
144.3706388799206
 20
195.0
 30
0.0
 11
146.5681474429247
 21
195.0
 31
0.0
  0
LINE
  5
9A6
330
9A0
100
AcDbEntity
  8
0
 62
     0
100
AcDbLine
 10
79.35276858843032
 20
195.1
 30
0.0
 11
81.51770711432153
 21
195.1
 31
0.0
  0
LINE
  5
9A7
330
9A0
100
AcDbEntity
  8
0
 62
     0
100
AcDbLine
 10
144.3206388799206
 20
195.1
 30
0.0
 11
146.5516446089998
 21
195.1
 31
0.0
  0
LINE
  5
9A8
330
9A0
100
AcDbEntity
  8
0
 62
     0
100
AcDbLine
 10
79.37332488694639
 20
195.2
 30
0.0
 11
81.56770711432152
 21
195.2
 31
0.0
  0
LINE
  5
9A9
330
9A0
100
AcDbEntity
  8
0
 62
     0
100
AcDbLine
 10
144.2706388799207
 20
195.2
 30
0.0
 11
146.5320734485303
 21
195.2
 31
0.0
  0
LINE
  5
9AA
330
9A0
100
AcDbEntity
  8
0
 62
     0
100
AcDbLine
 10
79.39699335447834
 20
195.3
 30
0.0
 11
81.61770711432152
 21
195.3
 31
0.0
  0
LINE
  5
9AB
330
9A0
100
AcDbEntity
  8
0
 62
     0
100
AcDbLine
 10
144.2206388799206
 20
195.3
 30
0.0
 11
146.5093797586509
 21
195.3
 31
0.0
  0
LINE
  5
9AC
330
9A0
100
AcDbEntity
  8
0
 62
     0
100
AcDbLine
 10
79.4238405394806
 20
195.4
 30
0.0
 11
81.66770711432151
 21
195.4
 31
0.0
  0
LINE
  5
9AD
330
9A0
100
AcDbEntity
  8
0
 62
     0
100
AcDbLine
 10
144.1706388799207
 20
195.4
 30
0.0
 11
146.4834990764285
 21
195.4
 31
0.0
  0
LINE
  5
9AE
330
9A0
100
AcDbEntity
  8
0
 62
     0
100
AcDbLine
 10
79.45394424735653
 20
195.5
 30
0.0
 11
81.7177071143215
 21
195.5
 31
0.0
  0
LINE
  5
9AF
330
9A0
100
AcDbEntity
  8
0
 62
     0
100
AcDbLine
 10
144.1206388799207
 20
195.5
 30
0.0
 11
146.4543556995011
 21
195.5
 31
0.0
  0
LINE
  5
9B0
330
9A0
100
AcDbEntity
  8
0
 62
     0
100
AcDbLine
 10
79.48739477439516
 20
195.6
 30
0.0
 11
81.76770711432153
 21
195.6
 31
0.0
  0
LINE
  5
9B1
330
9A0
100
AcDbEntity
  8
0
 62
     0
100
AcDbLine
 10
144.0706388799206
 20
195.6
 30
0.0
 11
146.4218614809443
 21
195.6
 31
0.0
  0
LINE
  5
9B2
330
9A0
100
AcDbEntity
  8
0
 62
     0
100
AcDbLine
 10
79.52429641922042
 20
195.7
 30
0.0
 11
81.81770711432152
 21
195.7
 31
0.0
  0
LINE
  5
9B3
330
9A0
100
AcDbEntity
  8
0
 62
     0
100
AcDbLine
 10
144.0206388799207
 20
195.7
 30
0.0
 11
146.3859143500747
 21
195.7
 31
0.0
  0
LINE
  5
9B4
330
9A0
100
AcDbEntity
  8
0
 62
     0
100
AcDbLine
 10
79.56476933655732
 20
195.8
 30
0.0
 11
81.86770711432151
 21
195.8
 31
0.0
  0
LINE
  5
9B5
330
9A0
100
AcDbEntity
  8
0
 62
     0
100
AcDbLine
 10
143.9706388799207
 20
195.8
 30
0.0
 11
146.3463964958547
 21
195.8
 31
0.0
  0
LINE
  5
9B6
330
9A0
100
AcDbEntity
  8
0
 62
     0
100
AcDbLine
 10
79.60895181886856
 20
195.9
 30
0.0
 11
81.91770711432152
 21
195.9
 31
0.0
  0
LINE
  5
9B7
330
9A0
100
AcDbEntity
  8
0
 62
     0
100
AcDbLine
 10
143.9206388799207
 20
195.9
 30
0.0
 11
146.3031721292529
 21
195.9
 31
0.0
  0
LINE
  5
9B8
330
9A0
100
AcDbEntity
  8
0
 62
     0
100
AcDbLine
 10
79.65700311989095
 20
196.0
 30
0.0
 11
81.96770711432151
 21
196.0
 31
0.0
  0
LINE
  5
9B9
330
9A0
100
AcDbEntity
  8
0
 62
     0
100
AcDbLine
 10
143.8706388799207
 20
196.0
 30
0.0
 11
146.2560847130963
 21
196.0
 31
0.0
  0
LINE
  5
9BA
330
9A0
100
AcDbEntity
  8
0
 62
     0
100
AcDbLine
 10
79.70910697379917
 20
196.1
 30
0.0
 11
82.01770711432152
 21
196.1
 31
0.0
  0
LINE
  5
9BB
330
9A0
100
AcDbEntity
  8
0
 62
     0
100
AcDbLine
 10
143.8206388799206
 20
196.1
 30
0.0
 11
146.2049535091973
 21
196.1
 31
0.0
  0
LINE
  5
9BC
330
9A0
100
AcDbEntity
  8
0
 62
     0
100
AcDbLine
 10
79.76547602001281
 20
196.2
 30
0.0
 11
82.06770711432152
 21
196.2
 31
0.0
  0
LINE
  5
9BD
330
9A0
100
AcDbEntity
  8
0
 62
     0
100
AcDbLine
 10
143.7706388799206
 20
196.2
 30
0.0
 11
146.149569237678
 21
196.2
 31
0.0
  0
LINE
  5
9BE
330
9A0
100
AcDbEntity
  8
0
 62
     0
100
AcDbLine
 10
79.82635742492745
 20
196.3
 30
0.0
 11
82.11770711432151
 21
196.3
 31
0.0
  0
LINE
  5
9BF
330
9A0
100
AcDbEntity
  8
0
 62
     0
100
AcDbLine
 10
143.7206388799206
 20
196.3
 30
0.0
 11
146.0896885642878
 21
196.3
 31
0.0
  0
LINE
  5
9C0
330
9A0
100
AcDbEntity
  8
0
 62
     0
100
AcDbLine
 10
79.8920401115179
 20
196.4
 30
0.0
 11
82.16770711432152
 21
196.4
 31
0.0
  0
LINE
  5
9C1
330
9A0
100
AcDbEntity
  8
0
 62
     0
100
AcDbLine
 10
143.6706388799207
 20
196.4
 30
0.0
 11
146.0250270151617
 21
196.4
 31
0.0
  0
LINE
  5
9C2
330
9A0
100
AcDbEntity
  8
0
 62
     0
100
AcDbLine
 10
79.96286418787995
 20
196.5
 30
0.0
 11
82.21770711432151
 21
196.5
 31
0.0
  0
LINE
  5
9C3
330
9A0
100
AcDbEntity
  8
0
 62
     0
100
AcDbLine
 10
143.6206388799206
 20
196.5
 30
0.0
 11
145.9552497435792
 21
196.5
 31
0.0
  0
LINE
  5
9C4
330
9A0
100
AcDbEntity
  8
0
 62
     0
100
AcDbLine
 10
80.03923344356527
 20
196.6
 30
0.0
 11
82.26770711432152
 21
196.6
 31
0.0
  0
LINE
  5
9C5
330
9A0
100
AcDbEntity
  8
0
 62
     0
100
AcDbLine
 10
143.5706388799206
 20
196.6
 30
0.0
 11
145.8799593039952
 21
196.6
 31
0.0
  0
LINE
  5
9C6
330
9A0
100
AcDbEntity
  8
0
 62
     0
100
AcDbLine
 10
80.12163222291142
 20
196.7
 30
0.0
 11
82.31770711432153
 21
196.7
 31
0.0
  0
LINE
  5
9C7
330
9A0
100
AcDbEntity
  8
0
 62
     0
100
AcDbLine
 10
143.5206388799207
 20
196.7
 30
0.0
 11
145.7986791624848
 21
196.7
 31
0.0
  0
LINE
  5
9C8
330
9A0
100
AcDbEntity
  8
0
 62
     0
100
AcDbLine
 10
80.21064870471041
 20
196.8
 30
0.0
 11
82.36770711432152
 21
196.8
 31
0.0
  0
LINE
  5
9C9
330
9A0
100
AcDbEntity
  8
0
 62
     0
100
AcDbLine
 10
143.4706388799206
 20
196.8
 30
0.0
 11
145.7108309772558
 21
196.8
 31
0.0
  0
LINE
  5
9CA
330
9A0
100
AcDbEntity
  8
0
 62
     0
100
AcDbLine
 10
80.30700783818431
 20
196.9
 30
0.0
 11
82.41770711432151
 21
196.9
 31
0.0
  0
LINE
  5
9CB
330
9A0
100
AcDbEntity
  8
0
 62
     0
100
AcDbLine
 10
143.4206388799207
 20
196.9
 30
0.0
 11
145.6157025067557
 21
196.9
 31
0.0
  0
LINE
  5
9CC
330
9A0
100
AcDbEntity
  8
0
 62
     0
100
AcDbLine
 10
80.41161934196749
 20
197.0
 30
0.0
 11
82.46770711432152
 21
197.0
 31
0.0
  0
LINE
  5
9CD
330
9A0
100
AcDbEntity
  8
0
 62
     0
100
AcDbLine
 10
143.3706388799206
 20
197.0
 30
0.0
 11
145.5124009303725
 21
197.0
 31
0.0
  0
LINE
  5
9CE
330
9A0
100
AcDbEntity
  8
0
 62
     0
100
AcDbLine
 10
80.52565017455016
 20
197.1
 30
0.0
 11
82.51770711432152
 21
197.1
 31
0.0
  0
LINE
  5
9CF
330
9A0
100
AcDbEntity
  8
0
 62
     0
100
AcDbLine
 10
143.3206388799206
 20
197.1
 30
0.0
 11
145.3997825334333
 21
197.1
 31
0.0
  0
LINE
  5
9D0
330
9A0
100
AcDbEntity
  8
0
 62
     0
100
AcDbLine
 10
80.65063875718603
 20
197.2
 30
0.0
 11
82.56770711432151
 21
197.2
 31
0.0
  0
LINE
  5
9D1
330
9A0
100
AcDbEntity
  8
0
 62
     0
100
AcDbLine
 10
143.2706388799207
 20
197.2
 30
0.0
 11
145.2763421959326
 21
197.2
 31
0.0
  0
LINE
  5
9D2
330
9A0
100
AcDbEntity
  8
0
 62
     0
100
AcDbLine
 10
80.78868486431494
 20
197.3
 30
0.0
 11
82.61770711432152
 21
197.3
 31
0.0
  0
LINE
  5
9D3
330
9A0
100
AcDbEntity
  8
0
 62
     0
100
AcDbLine
 10
143.2206388799206
 20
197.3
 30
0.0
 11
145.1400303264906
 21
197.3
 31
0.0
  0
LINE
  5
9D4
330
9A0
100
AcDbEntity
  8
0
 62
     0
100
AcDbLine
 10
80.94278753249263
 20
197.4
 30
0.0
 11
82.66770711432151
 21
197.4
 31
0.0
  0
LINE
  5
9D5
330
9A0
100
AcDbEntity
  8
0
 62
     0
100
AcDbLine
 10
143.1706388799207
 20
197.4
 30
0.0
 11
144.9879285975809
 21
197.4
 31
0.0
  0
LINE
  5
9D6
330
9A0
100
AcDbEntity
  8
0
 62
     0
100
AcDbLine
 10
81.11750308141076
 20
197.5
 30
0.0
 11
82.71770711432152
 21
197.5
 31
0.0
  0
LINE
  5
9D7
330
9A0
100
AcDbEntity
  8
0
 62
     0
100
AcDbLine
 10
143.1206388799207
 20
197.5
 30
0.0
 11
144.8156224200128
 21
197.5
 31
0.0
  0
LINE
  5
9D8
330
9A0
100
AcDbEntity
  8
0
 62
     0
100
AcDbLine
 10
81.32039855776769
 20
197.6
 30
0.0
 11
82.76770711432153
 21
197.6
 31
0.0
  0
LINE
  5
9D9
330
9A0
100
AcDbEntity
  8
0
 62
     0
100
AcDbLine
 10
143.0706388799206
 20
197.6
 30
0.0
 11
144.6158272455517
 21
197.6
 31
0.0
  0
LINE
  5
9DA
330
9A0
100
AcDbEntity
  8
0
 62
     0
100
AcDbLine
 10
81.56594029700327
 20
197.7
 30
0.0
 11
82.81770711432152
 21
197.7
 31
0.0
  0
LINE
  5
9DB
330
9A0
100
AcDbEntity
  8
0
 62
     0
100
AcDbLine
 10
143.0206388799207
 20
197.7
 30
0.0
 11
144.3747657163166
 21
197.7
 31
0.0
  0
LINE
  5
9DC
330
9A0
100
AcDbEntity
  8
0
 62
     0
100
AcDbLine
 10
81.89014265188971
 20
197.8
 30
0.0
 11
82.86770711432152
 21
197.8
 31
0.0
  0
LINE
  5
9DD
330
9A0
100
AcDbEntity
  8
0
 62
     0
100
AcDbLine
 10
142.9706388799206
 20
197.8
 30
0.0
 11
144.0589034502794
 21
197.8
 31
0.0
  0
LINE
  5
9DE
330
9A0
100
AcDbEntity
  8
0
 62
     0
100
AcDbLine
 10
82.51912563758933
 20
197.9
 30
0.0
 11
82.91770711432151
 21
197.9
 31
0.0
  0
LINE
  5
9DF
330
9A0
100
AcDbEntity
  8
0
 62
     0
100
AcDbLine
 10
142.9206388799206
 20
197.9
 30
0.0
 11
143.4874773240484
 21
197.9
 31
0.0
  0
LINE
  5
9E0
330
9A0
100
AcDbEntity
  8
0
 62
     0
100
AcDbLine
 10
79.30925625528407
 20
194.8
 30
0.0
 11
81.38486240858805
 21
194.8
 31
0.0
  0
LINE
  5
9E1
330
9A0
100
AcDbEntity
  8
0
 62
     0
100
AcDbLine
 10
144.4534835856542
 20
194.8
 30
0.0
 11
146.5921182249943
 21
194.8
 31
0.0
  0
LINE
  5
9E2
330
9A0
100
AcDbEntity
  8
0
 62
     0
100
AcDbLine
 10
79.30067687802957
 20
194.7
 30
0.0
 11
81.35152907525471
 21
194.7
 31
0.0
  0
LINE
  5
9E3
330
9A0
100
AcDbEntity
  8
0
 62
     0
100
AcDbLine
 10
144.4868169189875
 20
194.7
 30
0.0
 11
146.5996496122663
 21
194.7
 31
0.0
  0
LINE
  5
9E4
330
9A0
100
AcDbEntity
  8
0
 62
     0
100
AcDbLine
 10
79.2950166669159
 20
194.6
 30
0.0
 11
81.31819574192139
 21
194.6
 31
0.0
  0
LINE
  5
9E5
330
9A0
100
AcDbEntity
  8
0
 62
     0
100
AcDbLine
 10
144.5201502523208
 20
194.6
 30
0.0
 11
146.6042404103104
 21
194.6
 31
0.0
  0
LINE
  5
9E6
330
9A0
100
AcDbEntity
  8
0
 62
     0
100
AcDbLine
 10
79.29226126293578
 20
194.5
 30
0.0
 11
81.28486240858803
 21
194.5
 31
0.0
  0
LINE
  5
9E7
330
9A0
100
AcDbEntity
  8
0
 62
     0
100
AcDbLine
 10
144.5534835856541
 20
194.5
 30
0.0
 11
146.6059024603926
 21
194.5
 31
0.0
  0
LINE
  5
9E8
330
9A0
100
AcDbEntity
  8
0
 62
     0
100
AcDbLine
 10
79.29240371019433
 20
194.4
 30
0.0
 11
81.25152907525471
 21
194.4
 31
0.0
  0
LINE
  5
9E9
330
9A0
100
AcDbEntity
  8
0
 62
     0
100
AcDbLine
 10
144.5868169189875
 20
194.4
 30
0.0
 11
146.6046400338271
 21
194.4
 31
0.0
  0
LINE
  5
9EA
330
9A0
100
AcDbEntity
  8
0
 62
     0
100
AcDbLine
 10
79.2954443677481
 20
194.3
 30
0.0
 11
81.21819574192137
 21
194.3
 31
0.0
  0
LINE
  5
9EB
330
9A0
100
AcDbEntity
  8
0
 62
     0
100
AcDbLine
 10
144.6201502523208
 20
194.3
 30
0.0
 11
146.6004498870548
 21
194.3
 31
0.0
  0
LINE
  5
9EC
330
9A0
100
AcDbEntity
  8
0
 62
     0
100
AcDbLine
 10
79.30139091414433
 20
194.2
 30
0.0
 11
81.18486240858805
 21
194.2
 31
0.0
  0
LINE
  5
9ED
330
9A0
100
AcDbEntity
  8
0
 62
     0
100
AcDbLine
 10
144.6534835856541
 20
194.2
 30
0.0
 11
146.5933212198341
 21
194.2
 31
0.0
  0
LINE
  5
9EE
330
9A0
100
AcDbEntity
  8
0
 62
     0
100
AcDbLine
 10
79.31025844479491
 20
194.1
 30
0.0
 11
81.15152907525471
 21
194.1
 31
0.0
  0
LINE
  5
9EF
330
9A0
100
AcDbEntity
  8
0
 62
     0
100
AcDbLine
 10
144.6868169189874
 20
194.1
 30
0.0
 11
146.583235535282
 21
194.1
 31
0.0
  0
LINE
  5
9F0
330
9A0
100
AcDbEntity
  8
0
 62
     0
100
AcDbLine
 10
79.3220696650837
 20
194.0
 30
0.0
 11
81.11819574192137
 21
194.0
 31
0.0
  0
LINE
  5
9F1
330
9A0
100
AcDbEntity
  8
0
 62
     0
100
AcDbLine
 10
144.7201502523208
 20
194.0
 30
0.0
 11
146.5701663975015
 21
194.0
 31
0.0
  0
LINE
  5
9F2
330
9A0
100
AcDbEntity
  8
0
 62
     0
100
AcDbLine
 10
79.33685518502691
 20
193.9
 30
0.0
 11
81.08486240858805
 21
193.9
 31
0.0
  0
LINE
  5
9F3
330
9A0
100
AcDbEntity
  8
0
 62
     0
100
AcDbLine
 10
144.7534835856542
 20
193.9
 30
0.0
 11
146.5540790792982
 21
193.9
 31
0.0
  0
LINE
  5
9F4
330
9A0
100
AcDbEntity
  8
0
 62
     0
100
AcDbLine
 10
79.35465392454601
 20
193.8
 30
0.0
 11
81.05152907525472
 21
193.8
 31
0.0
  0
LINE
  5
9F5
330
9A0
100
AcDbEntity
  8
0
 62
     0
100
AcDbLine
 10
144.7868169189875
 20
193.8
 30
0.0
 11
146.5349300888296
 21
193.8
 31
0.0
  0
LINE
  5
9F6
330
9A0
100
AcDbEntity
  8
0
 62
     0
100
AcDbLine
 10
79.37551364216263
 20
193.7
 30
0.0
 11
81.01819574192139
 21
193.7
 31
0.0
  0
LINE
  5
9F7
330
9A0
100
AcDbEntity
  8
0
 62
     0
100
AcDbLine
 10
144.8201502523208
 20
193.7
 30
0.0
 11
146.5126665597255
 21
193.7
 31
0.0
  0
LINE
  5
9F8
330
9A0
100
AcDbEntity
  8
0
 62
     0
100
AcDbLine
 10
79.3994916044216
 20
193.6
 30
0.0
 11
80.98486240858806
 21
193.6
 31
0.0
  0
LINE
  5
9F9
330
9A0
100
AcDbEntity
  8
0
 62
     0
100
AcDbLine
 10
144.8534835856541
 20
193.6
 30
0.0
 11
146.4872254839745
 21
193.6
 31
0.0
  0
LINE
  5
9FA
330
9A0
100
AcDbEntity
  8
0
 62
     0
100
AcDbLine
 10
79.42665541889748
 20
193.5
 30
0.0
 11
80.95152907525472
 21
193.5
 31
0.0
  0
LINE
  5
9FB
330
9A0
100
AcDbEntity
  8
0
 62
     0
100
AcDbLine
 10
144.8868169189875
 20
193.5
 30
0.0
 11
146.4585327603217
 21
193.5
 31
0.0
  0
LINE
  5
9FC
330
9A0
100
AcDbEntity
  8
0
 62
     0
100
AcDbLine
 10
79.4570840606535
 20
193.4
 30
0.0
 11
80.91819574192138
 21
193.4
 31
0.0
  0
LINE
  5
9FD
330
9A0
100
AcDbEntity
  8
0
 62
     0
100
AcDbLine
 10
144.9201502523208
 20
193.4
 30
0.0
 11
146.4265020225406
 21
193.4
 31
0.0
  0
LINE
  5
9FE
330
9A0
100
AcDbEntity
  8
0
 62
     0
100
AcDbLine
 10
79.49086913106306
 20
193.3
 30
0.0
 11
80.88486240858804
 21
193.3
 31
0.0
  0
LINE
  5
9FF
330
9A0
100
AcDbEntity
  8
0
 62
     0
100
AcDbLine
 10
144.9534835856541
 20
193.3
 30
0.0
 11
146.3910332010325
 21
193.3
 31
0.0
  0
LINE
  5
A00
330
9A0
100
AcDbEntity
  8
0
 62
     0
100
AcDbLine
 10
79.52811639976275
 20
193.2
 30
0.0
 11
80.85152907525472
 21
193.2
 31
0.0
  0
LINE
  5
A01
330
9A0
100
AcDbEntity
  8
0
 62
     0
100
AcDbLine
 10
144.9868169189875
 20
193.2
 30
0.0
 11
146.3520107567386
 21
193.2
 31
0.0
  0
LINE
  5
A02
330
9A0
100
AcDbEntity
  8
0
 62
     0
100
AcDbLine
 10
79.56894769631166
 20
193.1
 30
0.0
 11
80.81819574192138
 21
193.1
 31
0.0
  0
LINE
  5
A03
330
9A0
100
AcDbEntity
  8
0
 62
     0
100
AcDbLine
 10
145.0201502523208
 20
193.1
 30
0.0
 11
146.3093015068805
 21
193.1
 31
0.0
  0
LINE
  5
A04
330
9A0
100
AcDbEntity
  8
0
 62
     0
100
AcDbLine
 10
79.61350323952316
 20
193.0
 30
0.0
 11
80.78486240858804
 21
193.0
 31
0.0
  0
LINE
  5
A05
330
9A0
100
AcDbEntity
  8
0
 62
     0
100
AcDbLine
 10
145.0534835856541
 20
193.0
 30
0.0
 11
146.2627519354162
 21
193.0
 31
0.0
  0
LINE
  5
A06
330
9A0
100
AcDbEntity
  8
0
 62
     0
100
AcDbLine
 10
79.66194452183419
 20
192.9
 30
0.0
 11
80.7515290752547
 21
192.9
 31
0.0
  0
LINE
  5
A07
330
9A0
100
AcDbEntity
  8
0
 62
     0
100
AcDbLine
 10
145.0868169189875
 20
192.9
 30
0.0
 11
146.2121848441023
 21
192.9
 31
0.0
  0
LINE
  5
A08
330
9A0
100
AcDbEntity
  8
0
 62
     0
100
AcDbLine
 10
79.71445790713288
 20
192.8
 30
0.0
 11
80.71819574192138
 21
192.8
 31
0.0
  0
LINE
  5
A09
330
9A0
100
AcDbEntity
  8
0
 62
     0
100
AcDbLine
 10
145.1201502523208
 20
192.8
 30
0.0
 11
146.1573951477848
 21
192.8
 31
0.0
  0
LINE
  5
A0A
330
9A0
100
AcDbEntity
  8
0
 62
     0
100
AcDbLine
 10
79.77125915877421
 20
192.7
 30
0.0
 11
80.68486240858804
 21
192.7
 31
0.0
  0
LINE
  5
A0B
330
9A0
100
AcDbEntity
  8
0
 62
     0
100
AcDbLine
 10
145.1534835856541
 20
192.7
 30
0.0
 11
146.0981445423692
 21
192.7
 31
0.0
  0
LINE
  5
A0C
330
9A0
100
AcDbEntity
  8
0
 62
     0
100
AcDbLine
 10
79.83259919885435
 20
192.6
 30
0.0
 11
80.65152907525471
 21
192.6
 31
0.0
  0
LINE
  5
A0D
330
9A0
100
AcDbEntity
  8
0
 62
     0
100
AcDbLine
 10
145.1868169189875
 20
192.6
 30
0.0
 11
146.0341546636674
 21
192.6
 31
0.0
  0
LINE
  5
A0E
330
9A0
100
AcDbEntity
  8
0
 62
     0
100
AcDbLine
 10
79.89877152426784
 20
192.5
 30
0.0
 11
80.61819574192139
 21
192.5
 31
0.0
  0
LINE
  5
A0F
330
9A0
100
AcDbEntity
  8
0
 62
     0
100
AcDbLine
 10
145.2201502523208
 20
192.5
 30
0.0
 11
145.9650981901397
 21
192.5
 31
0.0
  0
LINE
  5
A10
330
9A0
100
AcDbEntity
  8
0
 62
     0
100
AcDbLine
 10
79.97012189281742
 20
192.4
 30
0.0
 11
80.58486240858805
 21
192.4
 31
0.0
  0
LINE
  5
A11
330
9A0
100
AcDbEntity
  8
0
 62
     0
100
AcDbLine
 10
145.2534835856542
 20
192.4
 30
0.0
 11
145.8905870890629
 21
192.4
 31
0.0
  0
LINE
  5
A12
330
9A0
100
AcDbEntity
  8
0
 62
     0
100
AcDbLine
 10
80.04706118294228
 20
192.3
 30
0.0
 11
80.55152907525473
 21
192.3
 31
0.0
  0
LINE
  5
A13
330
9A0
100
AcDbEntity
  8
0
 62
     0
100
AcDbLine
 10
145.2868169189875
 20
192.3
 30
0.0
 11
145.8101568061227
 21
192.3
 31
0.0
  0
LINE
  5
A14
330
9A0
100
AcDbEntity
  8
0
 62
     0
100
AcDbLine
 10
80.13008279213343
 20
192.2
 30
0.0
 11
80.51819574192139
 21
192.2
 31
0.0
  0
LINE
  5
A15
330
9A0
100
AcDbEntity
  8
0
 62
     0
100
AcDbLine
 10
145.3201502523208
 20
192.2
 30
0.0
 11
145.723244549252
 21
192.2
 31
0.0
  0
LINE
  5
A16
330
9A0
100
AcDbEntity
  8
0
 62
     0
100
AcDbLine
 10
80.21978669633854
 20
192.1
 30
0.0
 11
80.48486240858805
 21
192.1
 31
0.0
  0
LINE
  5
A17
330
9A0
100
AcDbEntity
  8
0
 62
     0
100
AcDbLine
 10
145.3534835856542
 20
192.1
 30
0.0
 11
145.6291587253646
 21
192.1
 31
0.0
  0
LINE
  5
A18
330
9A0
100
AcDbEntity
  8
0
 62
     0
100
AcDbLine
 10
80.3169135810557
 20
192.0
 30
0.0
 11
80.45152907525471
 21
192.0
 31
0.0
  0
LINE
  5
A19
330
9A0
100
AcDbEntity
  8
0
 62
     0
100
AcDbLine
 10
145.3868169189875
 20
192.0
 30
0.0
 11
145.5270346755964
 21
192.0
 31
0.0
  0
ENDBLK
  5
A1A
330
9A0
100
AcDbEntity
  8
0
100
AcDbBlockEnd
  0
BLOCK
  5
B33
330
B28
100
AcDbEntity
  8
0
100
AcDbBlockBegin
  2
*D5
 70
     1
 10
0.0
 20
0.0
 30
0.0
  3
*D5
  1

  0
LINE
  5
D4B
330
B28
100
AcDbEntity
  8
BEM
 62
     0
370
    -2
100
AcDbLine
 10
75.99999999999994
 20
117.0123112970048
 30
0.0
 11
75.99999999999994
 21
97.60631569792085
 31
0.0
  0
LINE
  5
D4C
330
B28
100
AcDbEntity
  8
BEM
 62
     0
370
    -2
100
AcDbLine
 10
148.9999999999999
 20
117.0123112970046
 30
0.0
 11
148.9999999999999
 21
97.60631569792085
 31
0.0
  0
LINE
  5
D4D
330
B28
100
AcDbEntity
  8
BEM
 62
     0
370
    -2
100
AcDbLine
 10
79.49999999999994
 20
98.60631569792085
 30
0.0
 11
145.4999999999999
 21
98.60631569792085
 31
0.0
  0
SOLID
  5
D4E
330
B28
100
AcDbEntity
  8
BEM
 62
     0
100
AcDbTrace
 10
79.49999999999994
 20
99.18964903125418
 30
0.0
 11
79.49999999999994
 21
98.02298236458753
 31
0.0
 12
75.99999999999994
 22
98.60631569792085
 32
0.0
 13
75.99999999999994
 23
98.60631569792085
 33
0.0
  0
SOLID
  5
D4F
330
B28
100
AcDbEntity
  8
BEM
 62
     0
100
AcDbTrace
 10
145.4999999999999
 20
99.18964903125418
 30
0.0
 11
145.4999999999999
 21
98.02298236458753
 31
0.0
 12
148.9999999999999
 22
98.60631569792085
 32
0.0
 13
148.9999999999999
 23
98.60631569792085
 33
0.0
  0
MTEXT
  5
D50
330
B28
100
AcDbEntity
  8
BEM
 62
     1
100
AcDbMText
 10
112.4999999999999
 20
101.8563156979208
 30
0.0
 40
3.5
 41
0.0
 71
     5
 72
     1
  1
\A1;%%C73
 73
     1
 44
1.0
  0
POINT
  5
D51
330
B28
100
AcDbEntity
  8
DEFPOINTS
 62
     0
100
AcDbPoint
 10
75.99999999999994
 20
118.0123112970048
 30
0.0
  0
POINT
  5
D52
330
B28
100
AcDbEntity
  8
DEFPOINTS
 62
     0
100
AcDbPoint
 10
148.9999999999999
 20
118.0123112970046
 30
0.0
  0
POINT
  5
D53
330
B28
100
AcDbEntity
  8
DEFPOINTS
 62
     0
100
AcDbPoint
 10
148.9999999999999
 20
98.60631569792085
 30
0.0
  0
ENDBLK
  5
B34
330
B28
100
AcDbEntity
  8
0
100
AcDbBlockEnd
  0
BLOCK
  5
B5A
330
B4F
100
AcDbEntity
  8
0
100
AcDbBlockBegin
  2
*D6
 70
     1
 10
0.0
 20
0.0
 30
0.0
  3
*D6
  1

  0
LINE
  5
D42
330
B4F
100
AcDbEntity
  8
BEM
 62
     0
370
    -2
100
AcDbLine
 10
85.99999999999996
 20
218.6427197285982
 30
0.0
 11
85.99999999999996
 21
269.008364268899
 31
0.0
  0
LINE
  5
D43
330
B4F
100
AcDbEntity
  8
BEM
 62
     0
370
    -2
100
AcDbLine
 10
138.9999999999999
 20
218.6427197285982
 30
0.0
 11
138.9999999999999
 21
269.008364268899
 31
0.0
  0
LINE
  5
D44
330
B4F
100
AcDbEntity
  8
BEM
 62
     0
370
    -2
100
AcDbLine
 10
89.49999999999995
 20
268.008364268899
 30
0.0
 11
135.4999999999999
 21
268.008364268899
 31
0.0
  0
SOLID
  5
D45
330
B4F
100
AcDbEntity
  8
BEM
 62
     0
100
AcDbTrace
 10
89.49999999999995
 20
268.5916976022323
 30
0.0
 11
89.49999999999995
 21
267.4250309355657
 31
0.0
 12
85.99999999999996
 22
268.008364268899
 32
0.0
 13
85.99999999999996
 23
268.008364268899
 33
0.0
  0
SOLID
  5
D46
330
B4F
100
AcDbEntity
  8
BEM
 62
     0
100
AcDbTrace
 10
135.4999999999999
 20
268.5916976022323
 30
0.0
 11
135.4999999999999
 21
267.4250309355657
 31
0.0
 12
138.9999999999999
 22
268.008364268899
 32
0.0
 13
138.9999999999999
 23
268.008364268899
 33
0.0
  0
MTEXT
  5
D47
330
B4F
100
AcDbEntity
  8
BEM
 62
     1
100
AcDbMText
 10
112.4999999999999
 20
271.258364268899
 30
0.0
 40
3.5
 41
0.0
 71
     5
 72
     1
  1
\A1;%%C53
 73
     1
 44
1.0
  0
POINT
  5
D48
330
B4F
100
AcDbEntity
  8
DEFPOINTS
 62
     0
100
AcDbPoint
 10
85.99999999999996
 20
217.6427197285982
 30
0.0
  0
POINT
  5
D49
330
B4F
100
AcDbEntity
  8
DEFPOINTS
 62
     0
100
AcDbPoint
 10
138.9999999999999
 20
217.6427197285982
 30
0.0
  0
POINT
  5
D4A
330
B4F
100
AcDbEntity
  8
DEFPOINTS
 62
     0
100
AcDbPoint
 10
138.9999999999999
 20
268.008364268899
 30
0.0
  0
ENDBLK
  5
B5B
330
B4F
100
AcDbEntity
  8
0
100
AcDbBlockEnd
  0
BLOCK
  5
BA8
330
B9D
100
AcDbEntity
  8
0
100
AcDbBlockBegin
  2
*D9
 70
     1
 10
0.0
 20
0.0
 30
0.0
  3
*D9
  1

  0
LINE
  5
D27
330
B9D
100
AcDbEntity
  8
BEM
 62
     0
370
    -2
100
AcDbLine
 10
75.87488663525919
 20
112.770046568255
 30
0.0
 11
63.10722476066587
 21
112.770046568255
 31
0.0
  0
LINE
  5
D28
330
B9D
100
AcDbEntity
  8
BEM
 62
     0
370
    -2
100
AcDbLine
 10
75.15905838265044
 20
182.770046568255
 30
0.0
 11
63.10722476066588
 21
182.770046568255
 31
0.0
  0
LINE
  5
D29
330
B9D
100
AcDbEntity
  8
BEM
 62
     0
370
    -2
100
AcDbLine
 10
64.10722476066587
 20
116.270046568255
 30
0.0
 11
64.10722476066588
 21
179.270046568255
 31
0.0
  0
SOLID
  5
D2A
330
B9D
100
AcDbEntity
  8
BEM
 62
     0
100
AcDbTrace
 10
63.52389142733254
 20
116.270046568255
 30
0.0
 11
64.6905580939992
 21
116.270046568255
 31
0.0
 12
64.10722476066587
 22
112.770046568255
 32
0.0
 13
64.10722476066587
 23
112.770046568255
 33
0.0
  0
SOLID
  5
D2B
330
B9D
100
AcDbEntity
  8
BEM
 62
     0
100
AcDbTrace
 10
63.52389142733255
 20
179.270046568255
 30
0.0
 11
64.69055809399922
 21
179.270046568255
 31
0.0
 12
64.10722476066588
 22
182.770046568255
 32
0.0
 13
64.10722476066588
 23
182.770046568255
 33
0.0
  0
MTEXT
  5
D2C
330
B9D
100
AcDbEntity
  8
BEM
 62
     1
100
AcDbMText
 10
60.85722476066585
 20
147.770046568255
 30
0.0
 40
3.5
 41
0.0
 71
     5
 72
     1
  1
\A1;70
 11
0.0000000000000001
 21
1.0
 31
0.0
 73
     1
 44
1.0
  0
POINT
  5
D2D
330
B9D
100
AcDbEntity
  8
DEFPOINTS
 62
     0
100
AcDbPoint
 10
76.87488663525918
 20
112.770046568255
 30
0.0
  0
POINT
  5
D2E
330
B9D
100
AcDbEntity
  8
DEFPOINTS
 62
     0
100
AcDbPoint
 10
76.15905838265044
 20
182.770046568255
 30
0.0
  0
POINT
  5
D2F
330
B9D
100
AcDbEntity
  8
DEFPOINTS
 62
     0
100
AcDbPoint
 10
64.10722476066588
 20
182.770046568255
 30
0.0
  0
ENDBLK
  5
BA9
330
B9D
100
AcDbEntity
  8
0
100
AcDbBlockEnd
  0
BLOCK
  5
CEE
330
CE4
100
AcDbEntity
  8
0
100
AcDbBlockBegin
  2
*D12
 70
     1
 10
0.0
 20
0.0
 30
0.0
  3
*D12
  1

  0
LINE
  5
D86
330
CE4
100
AcDbEntity
  8
BEM
 62
     0
370
    -2
100
AcDbLine
 10
81.89295515080869
 20
260.770046568255
 30
0.0
 11
54.75288699089479
 21
260.770046568255
 31
0.0
  0
LINE
  5
D87
330
CE4
100
AcDbEntity
  8
BEM
 62
     0
370
    -2
100
AcDbLine
 10
75.87488663525919
 20
112.770046568255
 30
0.0
 11
54.75288699089476
 21
112.770046568255
 31
0.0
  0
LINE
  5
D88
330
CE4
100
AcDbEntity
  8
BEM
 62
     0
370
    -2
100
AcDbLine
 10
55.7528869908948
 20
257.270046568255
 30
0.0
 11
55.75288699089476
 21
116.270046568255
 31
0.0
  0
SOLID
  5
D89
330
CE4
100
AcDbEntity
  8
BEM
 62
     0
100
AcDbTrace
 10
55.16955365756146
 20
257.270046568255
 30
0.0
 11
56.33622032422813
 21
257.270046568255
 31
0.0
 12
55.7528869908948
 22
260.770046568255
 32
0.0
 13
55.7528869908948
 23
260.770046568255
 33
0.0
  0
SOLID
  5
D8A
330
CE4
100
AcDbEntity
  8
BEM
 62
     0
100
AcDbTrace
 10
55.16955365756142
 20
116.270046568255
 30
0.0
 11
56.3362203242281
 21
116.270046568255
 31
0.0
 12
55.75288699089476
 22
112.770046568255
 32
0.0
 13
55.75288699089476
 23
112.770046568255
 33
0.0
  0
MTEXT
  5
D8B
330
CE4
100
AcDbEntity
  8
BEM
 62
     1
100
AcDbMText
 10
52.50288699089475
 20
186.770046568255
 30
0.0
 40
3.5
 41
0.0
 71
     5
 72
     1
  1
\A1;148
 11
0.0000000000000001
 21
1.0
 31
0.0
 73
     1
 44
1.0
  0
POINT
  5
D8C
330
CE4
100
AcDbEntity
  8
DEFPOINTS
 62
     0
100
AcDbPoint
 10
82.89295515080871
 20
260.770046568255
 30
0.0
  0
POINT
  5
D8D
330
CE4
100
AcDbEntity
  8
DEFPOINTS
 62
     0
100
AcDbPoint
 10
76.87488663525918
 20
112.770046568255
 30
0.0
  0
POINT
  5
D8E
330
CE4
100
AcDbEntity
  8
DEFPOINTS
 62
     0
100
AcDbPoint
 10
55.75288699089476
 20
112.770046568255
 30
0.0
  0
ENDBLK
  5
CEF
330
CE4
100
AcDbEntity
  8
0
100
AcDbBlockEnd
  0
ENDSEC
  0
SECTION
  2
ENTITIES
  0
LINE
  5
57
330
1E
100
AcDbEntity
  8
STEMPEL
100
AcDbLine
 10
205.0
 20
55.00000000000003
 30
0.0
 11
19.99999999999998
 21
55.0
 31
0.0
  0
LINE
  5
58
330
1E
100
AcDbEntity
  8
STEMPEL
100
AcDbLine
 10
68.00000000000006
 20
54.99999999999997
 30
0.0
 11
68.0
 21
4.999999999999985
 31
0.0
  0
LINE
  5
59
330
1E
100
AcDbEntity
  8
STEMPEL
100
AcDbLine
 10
110.0
 20
55.00000000000003
 30
0.0
 11
110.0
 21
4.999999999999985
 31
0.0
  0
LINE
  5
5A
330
1E
100
AcDbEntity
  8
STEMPEL
100
AcDbLine
 10
166.0
 20
54.99999999999989
 30
0.0
 11
166.0
 21
20.0
 31
0.0
  0
LINE
  5
5B
330
1E
100
AcDbEntity
  8
STEMPEL
100
AcDbLine
 10
67.99999999999994
 20
14.99999999999998
 30
0.0
 11
19.99999999999998
 21
14.99999999999998
 31
0.0
  0
LINE
  5
5C
330
1E
100
AcDbEntity
  8
STEMPEL
100
AcDbLine
 10
205.0
 20
20.0
 30
0.0
 11
68.00000000000006
 21
19.99999999999998
 31
0.0
  0
LINE
  5
5D
330
1E
100
AcDbEntity
  8
STEMPEL
100
AcDbLine
 10
205.0
 20
40.0
 30
0.0
 11
68.00000000000006
 21
39.99999999999997
 31
0.0
  0
LINE
  5
5E
330
1E
100
AcDbEntity
  8
VOLL
100
AcDbLine
 10
27.00000000000005
 20
55.00000000000003
 30
0.0
 11
26.99999999999999
 21
4.999999999999985
 31
0.0
  0
LINE
  5
5F
330
1E
100
AcDbEntity
  8
VOLL
100
AcDbLine
 10
47.00000000000005
 20
54.99999999999997
 30
0.0
 11
47.0
 21
4.999999999999985
 31
0.0
  0
LINE
  5
60
330
1E
100
AcDbEntity
  8
VOLL
100
AcDbLine
 10
57.00000000000006
 20
54.99999999999997
 30
0.0
 11
57.0
 21
4.999999999999985
 31
0.0
  0
LINE
  5
61
330
1E
100
AcDbEntity
  8
VOLL
100
AcDbLine
 10
77.00000000000006
 20
39.99999999999997
 30
0.0
 11
77.00000000000006
 21
19.99999999999998
 31
0.0
  0
LINE
  5
62
330
1E
100
AcDbEntity
  8
VOLL
100
AcDbLine
 10
90.00000000000005
 20
54.99999999999992
 30
0.0
 11
90.0
 21
19.99999999999998
 31
0.0
  0
LINE
  5
63
330
1E
100
AcDbEntity
  8
HILF
100
AcDbLine
 10
20.00000000000004
 20
50.00000000000003
 30
0.0
 11
68.00000000000006
 21
50.00000000000003
 31
0.0
  0
LINE
  5
64
330
1E
100
AcDbEntity
  8
HILF
100
AcDbLine
 10
20.00000000000004
 20
45.00000000000002
 30
0.0
 11
68.00000000000006
 21
45.00000000000002
 31
0.0
  0
LINE
  5
65
330
1E
100
AcDbEntity
  8
HILF
100
AcDbLine
 10
20.00000000000004
 20
39.99999999999997
 30
0.0
 11
68.00000000000006
 21
39.99999999999997
 31
0.0
  0
LINE
  5
66
330
1E
100
AcDbEntity
  8
HILF
100
AcDbLine
 10
20.00000000000004
 20
34.99999999999997
 30
0.0
 11
68.00000000000006
 21
34.99999999999997
 31
0.0
  0
LINE
  5
67
330
1E
100
AcDbEntity
  8
HILF
100
AcDbLine
 10
20.00000000000004
 20
29.99999999999999
 30
0.0
 11
68.00000000000006
 21
29.99999999999999
 31
0.0
  0
LINE
  5
68
330
1E
100
AcDbEntity
  8
HILF
100
AcDbLine
 10
20.00000000000004
 20
24.99999999999999
 30
0.0
 11
68.00000000000006
 21
24.99999999999999
 31
0.0
  0
LINE
  5
69
330
1E
100
AcDbEntity
  8
HILF
100
AcDbLine
 10
20.00000000000004
 20
19.99999999999998
 30
0.0
 11
68.00000000000006
 21
19.99999999999998
 31
0.0
  0
LINE
  5
6A
330
1E
100
AcDbEntity
  8
HILF
100
AcDbLine
 10
68.00000000000006
 20
34.99999999999997
 30
0.0
 11
110.0
 21
34.99999999999997
 31
0.0
  0
LINE
  5
6B
330
1E
100
AcDbEntity
  8
HILF
100
AcDbLine
 10
68.00000000000006
 20
29.99999999999999
 30
0.0
 11
110.0
 21
29.99999999999999
 31
0.0
  0
LINE
  5
6C
330
1E
100
AcDbEntity
  8
HILF
100
AcDbLine
 10
68.00000000000006
 20
24.99999999999999
 30
0.0
 11
110.0
 21
24.99999999999999
 31
0.0
  0
LINE
  5
6D
330
1E
100
AcDbEntity
  8
HILF
100
AcDbLine
 10
112.3868400548474
 20
42.01879123782069
 30
0.0
 11
162.4176958278155
 21
42.01879123782069
 31
0.0
  0
LINE
  5
6E
330
1E
100
AcDbEntity
  8
HILF
100
AcDbLine
 10
112.3868400548474
 20
34.99999999999997
 30
0.0
 11
162.4176958278155
 21
34.99999999999997
 31
0.0
  0
LINE
  5
6F
330
1E
100
AcDbEntity
  8
HILF
100
AcDbLine
 10
112.3868400548474
 20
29.99999999999999
 30
0.0
 11
162.4176958278155
 21
29.99999999999999
 31
0.0
  0
LINE
  5
70
330
1E
100
AcDbEntity
  8
HILF
100
AcDbLine
 10
112.3868400548474
 20
24.99999999999999
 30
0.0
 11
162.4176958278155
 21
24.99999999999999
 31
0.0
  0
LINE
  5
71
330
1E
100
AcDbEntity
  8
VOLL
100
AcDbLine
 10
166.0
 20
30.0
 30
0.0
 11
205.0
 21
30.0
 31
0.0
  0
LINE
  5
72
330
1E
100
AcDbEntity
  8
HILF
100
AcDbLine
 10
168.3619308148496
 20
41.88991818477913
 30
0.0
 11
202.4294419663364
 21
41.88991818477913
 31
0.0
  0
LINE
  5
73
330
1E
100
AcDbEntity
  8
HILF
100
AcDbLine
 10
111.7454849644942
 20
7.446991290141568
 30
0.0
 11
202.4294419663364
 21
7.446991290141568
 31
0.0
  0
TEXT
  5
74
330
1E
100
AcDbEntity
  8
TEXT
100
AcDbText
 10
31.9308298981591
 20
9.336909474920659
 30
0.0
 40
2.0
  1
Änderung
 41
0.8
  7
GREEKS
 72
     1
 11
37.30225846958767
 21
9.336909474920659
 31
0.0
100
AcDbText
  0
TEXT
  5
75
330
1E
100
AcDbEntity
  8
TEXT
100
AcDbText
 10
71.75817860751886
 20
51.23104475435443
 30
0.0
 40
2.5
  1
Maßstab
 41
0.8
  7
GREEKS
100
AcDbText
  0
TEXT
  5
76
330
1E
100
AcDbEntity
  8
TEXT
100
AcDbText
 10
92.14294773670257
 20
51.20920842174095
 30
0.0
 40
2.5
  1
Zul. Abw.
 41
0.8
  7
GREEKS
100
AcDbText
  0
TEXT
  5
77
330
1E
100
AcDbEntity
  8
TEXT
100
AcDbText
 10
112.4389701904505
 20
51.27446640058898
 30
0.0
 40
2.5
  1
Benennung
 41
0.8
  7
GREEKS
100
AcDbText
  0
TEXT
  5
78
330
1E
100
AcDbEntity
  8
TEXT
100
AcDbText
 10
168.089377478817
 20
51.15660172685682
 30
0.0
 40
2.5
  1
Zeichnungs Nr.
 41
0.8
  7
GREEKS
100
AcDbText
  0
TEXT
  5
79
330
1E
100
AcDbEntity
  8
TEXT
100
AcDbText
 10
112.371119195568
 20
15.42280285096528
 30
0.0
 40
2.5
  1
Bauvorhaben
 41
0.8
  7
GREEKS
100
AcDbText
  0
TEXT
  5
7A
330
1E
100
AcDbEntity
  8
TEXT
100
AcDbText
 10
168.3619308148496
 20
36.59059118549985
 30
0.0
 40
2.5
  1
Ersatz für:
 41
0.8
  7
GREEKS
100
AcDbText
  0
TEXT
  5
7B
330
1E
100
AcDbEntity
  8
TEXT
100
AcDbText
 10
24.13320553522878
 20
6.827329230135958
 30
0.0
 40
2.0
  1
Index
 50
90.0
 41
0.8
  7
GREEKS
100
AcDbText
  0
TEXT
  5
7C
330
1E
100
AcDbEntity
  8
TEXT
100
AcDbText
 10
50.04673380377405
 20
9.33578134669905
 30
0.0
 40
2.0
  1
Tag
 41
0.8
  7
GREEKS
 72
     1
 11
51.91340047044072
 21
9.33578134669905
 31
0.0
100
AcDbText
  0
TEXT
  5
7D
330
1E
100
AcDbEntity
  8
TEXT
100
AcDbText
 10
59.50613721932963
 20
9.29662108483204
 30
0.0
 40
2.0
  1
Name
 41
0.8
  7
GREEKS
 72
     1
 11
62.66804198123439
 21
9.29662108483204
 31
0.0
100
AcDbText
  0
TEXT
  5
7E
330
1E
100
AcDbEntity
  8
TEXT
100
AcDbText
 10
81.16558365768254
 20
36.65940250614963
 30
0.0
 40
2.0
  1
Tag
 41
0.8
  7
GREEKS
100
AcDbText
  0
TEXT
  5
7F
330
1E
100
AcDbEntity
  8
TEXT
100
AcDbText
 10
96.23132921131475
 20
36.65480545957612
 30
0.0
 40
2.0
  1
Name
 41
0.8
  7
GREEKS
100
AcDbText
  0
TEXT
  5
80
330
1E
100
AcDbEntity
  8
TEXT
100
AcDbText
 10
68.79180635838077
 20
31.81495184808982
 30
0.0
 40
2.0
  1
Gez.
 41
0.8
  7
GREEKS
100
AcDbText
  0
TEXT
  5
81
330
1E
100
AcDbEntity
  8
TEXT
100
AcDbText
 10
68.77575432858361
 20
26.84463145714189
 30
0.0
 40
2.0
  1
Gepr.
 41
0.8
  7
GREEKS
100
AcDbText
  0
TEXT
  5
82
330
1E
100
AcDbEntity
  8
TEXT
100
AcDbText
 10
68.80033886936519
 20
21.76473194824904
 30
0.0
 40
2.0
  1
Norm.
 41
0.8
  7
GREEKS
100
AcDbText
  0
LINE
  5
83
330
1E
100
AcDbEntity
  8
STEMPEL
100
AcDbLine
 10
24.99999999999995
 20
5.0
 30
0.0
 11
205.0
 21
5.0
 31
0.0
  0
TEXT
  5
84
330
1E
100
AcDbEntity
  8
TEXT
100
AcDbText
 10
168.6200430748503
 20
26.03708088939301
 30
0.0
 40
2.5
  1
ersetzt durch:
 41
0.8
  7
GREEKS
100
AcDbText
  0
LINE
  5
85
330
1E
100
AcDbEntity
  8
STEMPEL
100
AcDbLine
 10
205.0
 20
5.0
 30
0.0
 11
19.99999999999994
 21
5.0
 31
0.0
  0
LINE
  5
86
330
1E
100
AcDbEntity
  8
STEMPEL
100
AcDbLine
 10
205.0
 20
5.0
 30
0.0
 11
205.0
 21
292.0
 31
0.0
  0
LINE
  5
87
330
1E
100
AcDbEntity
  8
STEMPEL
100
AcDbLine
 10
20.0
 20
5.0
 30
0.0
 11
19.99999999999994
 21
292.0
 31
0.0
  0
LINE
  5
88
330
1E
100
AcDbEntity
  8
STEMPEL
100
AcDbLine
 10
205.0
 20
292.0
 30
0.0
 11
19.99999999999994
 21
292.0
 31
0.0
  0
LINE
  5
89
330
1E
100
AcDbEntity
  8
HILF
100
AcDbLine
 10
0.0
 20
0.0
 30
0.0
 11
-0.0000000000000568
 21
297.0
 31
0.0
  0
LINE
  5
8A
330
1E
100
AcDbEntity
  8
HILF
100
AcDbLine
 10
210.0
 20
297.0000000000001
 30
0.0
 11
0.0
 21
297.0
 31
0.0
  0
LINE
  5
8B
330
1E
100
AcDbEntity
  8
HILF
100
AcDbLine
 10
210.0
 20
0.0
 30
0.0
 11
0.0
 21
0.0
 31
0.0
  0
LINE
  5
8C
330
1E
100
AcDbEntity
  8
HILF
100
AcDbLine
 10
15.54383567856928
 20
148.5
 30
0.0
 11
0.0000000000000568
 21
148.5
 31
0.0
  0
TEXT
  5
8D
330
1E
100
AcDbEntity
  8
TEXT
100
AcDbText
 10
69.31105491105199
 20
36.57012735575833
 30
0.0
 40
2.0
  1
2011
 41
0.8
  7
GREEKS
100
AcDbText
  0
LINE
  5
8E
330
1E
100
AcDbEntity
  8
HILF
100
AcDbLine
 10
210.0
 20
-0.0000000000000568
 30
0.0
 11
210.0
 21
297.0
 31
0.0
  0
TEXT
  5
8F
330
1E
100
AcDbEntity
  8
VOLL
100
AcDbText
 10
78.07675471698113
 20
31.02594776470585
 30
0.0
 40
1.8
  1

  7
GREEKS
100
AcDbText
  0
TEXT
  5
90
330
1E
100
AcDbEntity
  8
TEXT
100
AcDbText
 10
20.92754975488837
 20
55.83599999999997
 30
0.0
 40
2.5
  1
Erstellt mit AUTOCAD 2004
 41
0.8
  7
GREEKS
100
AcDbText
  0
TEXT
  5
91
330
1E
100
AcDbEntity
  8
TEXT
100
AcDbText
 10
97.21080242906285
 20
31.54481959861755
 30
0.0
 40
2.0
  1
Koeh
 41
0.8
  7
GREEKS
 72
     1
 11
99.83937385763429
 21
31.54481959861755
 31
0.0
100
AcDbText
  0
TEXT
  5
92
330
1E
100
AcDbEntity
  8
TEXT
 62
     1
100
AcDbText
 10
173.4425114699529
 20
44.07450714456979
 30
0.0
 40
3.5
  1
00600BC0W
 41
0.8
  7
GREEKS
 72
     1
 11
185.5758448032862
 21
44.07450714456979
 31
0.0
100
AcDbText
  0
TEXT
  5
93
330
1E
100
AcDbEntity
  8
TEXT
 62
     1
100
AcDbText
 10
75.25031532409435
 20
44.07450714456979
 30
0.0
 40
3.5
  1
1:1
 41
0.8
  7
GREEKS
100
AcDbText
  0
TEXT
  5
94
330
1E
100
AcDbEntity
  8
TEXT
100
AcDbText
 10
80.19949855411802
 20
31.55382520412866
 30
0.0
 40
2.0
  1
04.04.
 41
0.8
  7
GREEKS
 72
     1
 11
83.70426045887993
 21
31.55382520412866
 31
0.0
100
AcDbText
  0
TEXT
  5
95
330
1E
100
AcDbEntity
  8
TEXT
 62
     1
100
AcDbText
 10
112.1454620504011
 20
43.70874394626889
 30
0.0
 40
3.5
  1
Übergangsrohr DN50/70
 41
0.8
  7
GREEKS
100
AcDbText
  0
TEXT
  5
96
330
1E
100
AcDbEntity
  8
TEXT
100
AcDbText
 10
112.5648195562657
 20
35.75167208792644
 30
0.0
 40
2.5
  1
konzentrisches Red.-Stück
 41
0.8
  7
GREEKS
100
AcDbText
  0
TEXT
  5
98
330
1E
100
AcDbEntity
  8
TEXT
100
AcDbText
 10
112.5648195562657
 20
25.82005971521079
 30
0.0
 40
2.5
  1
EDV-Art.Nr. 00600.BC0X
 41
0.8
  7
GREEKS
100
AcDbText
  0
TEXT
  5
99
330
1E
100
AcDbEntity
  8
TEXT
100
AcDbText
 10
112.4918750788913
 20
21.31487076511316
 30
0.0
 40
2.0
  1
00600BC0W.DWG
 41
0.8
  7
GREEKS
100
AcDbText
  0
TEXT
  5
9A
330
1E
100
AcDbEntity
  8
TEXT
100
AcDbText
 10
91.31306610404202
 20
45.38181920511511
 30
0.0
 40
2.0
  1
DIN EN1123-2
 41
0.8
  7
GREEKS
 72
     1
 11
99.80830419928011
 21
45.38181920511511
 31
0.0
100
AcDbText
  0
INSERT
  5
9B
330
1E
100
AcDbEntity
  8
STEMPEL
100
AcDbBlockReference
  2
LOGO
 10
70.4977742728897
 20
22.51052638224161
 30
0.0
  0
TEXT
  5
118
330
1E
100
AcDbEntity
  8
BEM
100
AcDbText
 10
208.6511461928583
 20
5.083950539994247
 30
0.0
 40
2.0
  1
Diese Zeichnung ist urheberrechtlich geschützt und bleibt unser Eigentum. Sie darf weder ganz noch teilweise verfielfältigt und nicht an Dritte weitergegeben werden.
 50
90.0
 41
0.8
  7
GREEKS
100
AcDbText
  0
TEXT
  5
1CA
330
1E
100
AcDbEntity
  8
TEXT
 62
     1
100
AcDbText
 10
108.5243702553643
 20
244.8214210557481
 30
0.0
 40
3.5
  1
DN50
 50
90.0
 41
0.8
  7
GREEKS
100
AcDbText
  0
TEXT
  5
2B5
330
1E
100
AcDbEntity
  8
TEXT
 62
     1
100
AcDbText
 10
27.93697966668461
 20
77.69649266758091
 30
0.0
 40
3.5
  1
Rohrende leicht eingezogen
 41
0.8
  7
GREEKS
100
AcDbText
  0
TEXT
  5
31C
330
1E
100
AcDbEntity
  8
TEXT
 62
     1
100
AcDbText
 10
108.5243702553643
 20
147.1472739912764
 30
0.0
 40
3.5
  1
DN70
 50
90.0
 41
0.8
  7
GREEKS
100
AcDbText
  0
TEXT
  5
3CA
330
1E
100
AcDbEntity
  8
TEXT
 62
     1
100
AcDbText
 10
137.3028829473233
 20
64.53917328727413
 30
0.0
 40
3.5
  1
und innen beschichtet
 41
0.8
  7
GREEKS
100
AcDbText
  0
TEXT
  5
3CB
330
1E
100
AcDbEntity
  8
TEXT
 62
     1
100
AcDbText
 10
113.3280242286244
 20
69.90022919477588
 30
0.0
 40
3.5
  1
Werkstoff: E195 EN10305 feuerverzinkt
 41
0.8
  7
GREEKS
100
AcDbText
  0
INSERT
  5
A9D
330
1E
100
AcDbEntity
  8
SCHRAFF
100
AcDbBlockReference
  2
*X3
 10
-0.4191729971211516
 20
2.867114802655805
 30
0.0
1001
ACAD
1000
HATCH
1002
{
1070
    16
1000
_U,I
1040
0.1
1040
0.0
1070
     0
1002
}
  0
ARC
  5
A9E
330
1E
100
AcDbEntity
  8
SCHRAFF
100
AcDbCircle
 10
142.7665694582761
 20
197.3602838425367
 30
0.0
 40
3.420166826601207
100
AcDbArc
 50
310.7695354253394
 51
94.4701944707417
  0
ARC
  5
A9F
330
1E
100
AcDbEntity
  8
SCHRAFF
100
AcDbCircle
 10
82.32523451048493
 20
197.3220321888862
 30
0.0
 40
3.45244060581193
100
AcDbArc
 50
87.09839863685795
 51
227.6618714670609
  0
ARC
  5
AA1
330
1E
100
AcDbEntity
  8
SCHRAFF
100
AcDbCircle
 10
135.7784181369257
 20
197.770046568255
 30
0.0
 40
3.925474053405508
100
AcDbArc
 50
310.1606707408823
 51
49.83932925911769
  0
ARC
  5
AA2
330
1E
100
AcDbEntity
  8
SCHRAFF
100
AcDbCircle
 10
129.2551866988049
 20
197.770046568255
 30
0.0
 40
3.925474053405508
100
AcDbArc
 50
310.1606707408823
 51
49.83932925911769
  0
ARC
  5
AA4
330
1E
100
AcDbEntity
  8
SCHRAFF
100
AcDbCircle
 10
109.6854923844424
 20
197.770046568255
 30
0.0
 40
3.925474053405508
100
AcDbArc
 50
310.1606707408823
 51
49.83932925911769
  0
ARC
  5
AA7
330
1E
100
AcDbEntity
  8
SCHRAFF
100
AcDbCircle
 10
116.2087238225632
 20
197.770046568255
 30
0.0
 40
3.925474053405508
100
AcDbArc
 50
310.1606707408823
 51
49.83932925911769
  0
ARC
  5
AA9
330
1E
100
AcDbEntity
  8
SCHRAFF
100
AcDbCircle
 10
122.7319552606841
 20
197.770046568255
 30
0.0
 40
3.925474053405508
100
AcDbArc
 50
310.1606707408823
 51
49.83932925911769
  0
ARC
  5
AAA
330
1E
100
AcDbEntity
  8
SCHRAFF
100
AcDbCircle
 10
96.63902950820075
 20
197.770046568255
 30
0.0
 40
3.925474053405508
100
AcDbArc
 50
310.1606707408823
 51
49.83932925911769
  0
ARC
  5
AAD
330
1E
100
AcDbEntity
  8
SCHRAFF
100
AcDbCircle
 10
103.1622609463216
 20
197.770046568255
 30
0.0
 40
3.925474053405508
100
AcDbArc
 50
310.1606707408823
 51
49.83932925911769
  0
ARC
  5
AAE
330
1E
100
AcDbEntity
  8
SCHRAFF
100
AcDbCircle
 10
90.11579807007992
 20
197.770046568255
 30
0.0
 40
3.925474053405508
100
AcDbArc
 50
310.1606707408823
 51
49.83932925911769
  0
ARC
  5
AB1
330
1E
100
AcDbEntity
  8
SCHRAFF
100
AcDbCircle
 10
83.59256663195909
 20
197.770046568255
 30
0.0
 40
3.925474053405508
100
AcDbArc
 50
310.1606707408823
 51
49.83932925911769
  0
LINE
  5
AB3
330
1E
100
AcDbEntity
  8
MITTEL
100
AcDbLine
 10
112.4999999999999
 20
185.0306459013222
 30
0.0
 11
112.4999999999999
 21
107.770046568255
 31
0.0
  0
DIMENSION
  5
AB5
330
1E
100
AcDbEntity
  8
BEM
100
AcDbDimension
  2
*D5
 10
148.9999999999999
 20
98.60631569792085
 30
0.0
 11
112.4999999999999
 21
101.8563156979208
 31
0.0
 70
    32
  1
%%C<>
 71
     5
 42
73.0
  3
Standard
100
AcDbAlignedDimension
 13
75.99999999999994
 23
118.0123112970048
 33
0.0
 14
148.9999999999999
 24
118.0123112970046
 34
0.0
100
AcDbRotatedDimension
1001
ACAD
1000
DSTYLE
1002
{
1070
    41
1040
3.5
1070
    42
1040
1.0
1070
    43
1040
7.0
1070
    44
1040
1.0
1070
    73
1070
     0
1070
    74
1070
     0
1070
    77
1070
     1
1070
    78
1070
     8
1070
    79
1070
     2
1070
   140
1040
3.5
1070
   141
1040
1.5
1070
   146
1040
0.5142857142857144
1070
   147
1040
1.5
1070
   172
1070
     1
1070
   178
1070
     1
1070
   179
1070
     2
1070
   271
1070
     2
1070
   272
1070
     2
1070
   284
1070
     8
1070
   285
1070
     8
1070
   286
1070
     8
1002
}
  0
DIMENSION
  5
AB8
330
1E
100
AcDbEntity
  8
BEM
100
AcDbDimension
  2
*D6
 10
138.9999999999999
 20
268.008364268899
 30
0.0
 11
112.4999999999999
 21
271.258364268899
 31
0.0
 70
    32
  1
%%C<>
 71
     5
 42
52.99999999999998
  3
Standard
100
AcDbAlignedDimension
 13
85.99999999999996
 23
217.6427197285982
 33
0.0
 14
138.9999999999999
 24
217.6427197285982
 34
0.0
100
AcDbRotatedDimension
1001
ACAD
1000
DSTYLE
1002
{
1070
    41
1040
3.5
1070
    42
1040
1.0
1070
    43
1040
7.0
1070
    44
1040
1.0
1070
    73
1070
     0
1070
    74
1070
     0
1070
    77
1070
     1
1070
    78
1070
     8
1070
    79
1070
     2
1070
   140
1040
3.5
1070
   141
1040
1.5
1070
   146
1040
0.5142857142857144
1070
   147
1040
1.5
1070
   172
1070
     1
1070
   178
1070
     1
1070
   179
1070
     2
1070
   271
1070
     2
1070
   272
1070
     2
1070
   284
1070
     8
1070
   285
1070
     8
1070
   286
1070
     8
1002
}
  0
DIMENSION
  5
AED
330
1E
100
AcDbEntity
  8
BEM
100
AcDbDimension
  2
*D9
 10
64.10722476066588
 20
182.770046568255
 30
0.0
 11
60.85722476066585
 21
147.770046568255
 31
0.0
 70
    32
 71
     5
 42
70.00000000000003
  3
Standard
100
AcDbAlignedDimension
 13
76.87488663525918
 23
112.770046568255
 33
0.0
 14
76.15905838265044
 24
182.770046568255
 34
0.0
 50
90.0
100
AcDbRotatedDimension
1001
ACAD
1000
DSTYLE
1002
{
1070
    41
1040
3.5
1070
    42
1040
1.0
1070
    43
1040
7.0
1070
    44
1040
1.0
1070
    73
1070
     0
1070
    74
1070
     0
1070
    77
1070
     1
1070
    78
1070
     8
1070
    79
1070
     2
1070
   140
1040
3.5
1070
   141
1040
1.5
1070
   146
1040
0.5142857142857144
1070
   147
1040
1.5
1070
   172
1070
     1
1070
   178
1070
     1
1070
   179
1070
     2
1070
   271
1070
     2
1070
   272
1070
     2
1070
   284
1070
     8
1070
   285
1070
     8
1070
   286
1070
     8
1002
}
  0
LINE
  5
AEF
330
1E
100
AcDbEntity
  8
STEMPEL
100
AcDbLine
 10
148.9999999999999
 20
118.0123112970046
 30
0.0
 11
148.1251133647407
 21
112.770046568255
 31
0.0
  0
LINE
  5
AF0
330
1E
100
AcDbEntity
  8
STEMPEL
100
AcDbLine
 10
75.99999999999994
 20
118.0123112970049
 30
0.0
 11
76.87488663525918
 21
112.770046568255
 31
0.0
  0
LINE
  5
AF1
330
1E
100
AcDbEntity
  8
HILF
  6
Continuous
100
AcDbLine
 10
147.4
 20
118.0123112970048
 30
0.0
 11
77.59999999999992
 21
118.0123112970048
 31
0.0
  0
ARC
  5
AF8
330
1E
100
AcDbEntity
  8
STEMPEL
100
AcDbCircle
 10
87.99999999999995
 20
180.8227146462344
 30
0.0
 40
12.0
100
AcDbArc
 50
161.565051177078
 51
180.0
  0
ARC
  5
AF9
330
1E
100
AcDbEntity
  8
STEMPEL
100
AcDbCircle
 10
136.9999999999999
 20
180.8227146462345
 30
0.0
 40
12.0
100
AcDbArc
 50
0.0
 51
18.43494882292201
  0
ARC
  5
AFA
330
1E
100
AcDbEntity
  8
STEMPEL
100
AcDbCircle
 10
77.99999999999996
 20
209.6585903882533
 30
0.0
 40
8.0
100
AcDbArc
 50
333.4349488229218
 51
0.0
  0
ARC
  5
AFB
330
1E
100
AcDbEntity
  8
STEMPEL
100
AcDbCircle
 10
146.9999999999999
 20
209.6585903882533
 30
0.0
 40
8.0
100
AcDbArc
 50
180.0
 51
206.5650511770782
  0
LINE
  5
AFC
330
1E
100
AcDbEntity
  8
STEMPEL
100
AcDbLine
 10
80.99999999999996
 20
197.770046568255
 30
0.0
 11
85.15541752799929
 21
206.0808816242537
 31
0.0
  0
LINE
  5
AFD
330
1E
100
AcDbEntity
  8
STEMPEL
100
AcDbLine
 10
76.61580042339379
 20
184.6174478384364
 30
0.0
 11
80.99999999999996
 21
197.770046568255
 31
0.0
  0
LINE
  5
AFE
330
1E
100
AcDbEntity
  8
STEMPEL
100
AcDbLine
 10
143.9999999999999
 20
197.770046568255
 30
0.0
 11
139.8445824720006
 21
206.0808816242537
 31
0.0
  0
LINE
  5
AFF
330
1E
100
AcDbEntity
  8
STEMPEL
100
AcDbLine
 10
148.3841995766061
 20
184.6174478384366
 30
0.0
 11
143.9999999999999
 21
197.770046568255
 31
0.0
  0
LINE
  5
B00
330
1E
100
AcDbEntity
  8
HILF
  6
Continuous
100
AcDbLine
 10
137.6896078364041
 20
207.770046568255
 30
0.0
 11
87.31039216359576
 21
207.770046568255
 31
0.0
  0
LINE
  5
B01
330
1E
100
AcDbEntity
  8
STEMPEL
100
AcDbLine
 10
144.0
 20
197.770046568255
 30
0.0
 11
80.99999999999996
 21
197.770046568255
 31
0.0
  0
LINE
  5
B02
330
1E
100
AcDbEntity
  8
HILF
  6
Continuous
100
AcDbLine
 10
147.2160608056862
 20
182.770046568255
 30
0.0
 11
77.78393919431366
 21
182.770046568255
 31
0.0
  0
LINE
  5
B03
330
1E
100
AcDbEntity
  8
STEMPEL
100
AcDbLine
 10
148.9999999999999
 20
180.8227146462345
 30
0.0
 11
148.9999999999999
 21
118.0123112970046
 31
0.0
  0
LINE
  5
B04
330
1E
100
AcDbEntity
  8
STEMPEL
100
AcDbLine
 10
75.99999999999996
 20
180.8227146462344
 30
0.0
 11
75.99999999999994
 21
118.0123112970049
 31
0.0
  0
LINE
  5
B05
330
1E
100
AcDbEntity
  8
STEMPEL
100
AcDbLine
 10
148.1251133647407
 20
112.770046568255
 30
0.0
 11
76.87488663525918
 21
112.770046568255
 31
0.0
  0
LINE
  5
B06
330
1E
100
AcDbEntity
  8
STEMPEL
100
AcDbLine
 10
142.1070448491911
 20
260.770046568255
 30
0.0
 11
142.1730018472146
 21
260.6286013295378
 31
0.0
  0
LINE
  5
B07
330
1E
100
AcDbEntity
  8
STEMPEL
100
AcDbLine
 10
143.9999999999999
 20
252.3875452255941
 30
0.0
 11
143.9999999999999
 21
247.892010866247
 31
0.0
  0
ARC
  5
B08
330
1E
100
AcDbEntity
  8
STEMPEL
100
AcDbCircle
 10
151.9999999999999
 20
236.270046568255
 30
0.0
 40
10.0
100
AcDbArc
 50
160.5369005553114
 51
180.0
  0
ARC
  5
B09
330
1E
100
AcDbEntity
  8
STEMPEL
100
AcDbCircle
 10
118.9999999999999
 20
247.932046568255
 30
0.0
 40
25.00003205712822
100
AcDbArc
 50
340.5369005553114
 51
0.0917549918093305
  0
ARC
  5
B0A
330
1E
100
AcDbEntity
  8
STEMPEL
100
AcDbCircle
 10
124.4999999999999
 20
252.3875452255941
 30
0.0
 40
19.5
100
AcDbArc
 50
0.0
 51
24.99999999999333
  0
ARC
  5
B0B
330
1E
100
AcDbEntity
  8
STEMPEL
100
AcDbCircle
 10
129.9999999999999
 20
228.178373481451
 30
0.0
 40
12.0
100
AcDbArc
 50
328.2116693829484
 51
0.0
  0
ARC
  5
B0C
330
1E
100
AcDbEntity
  8
STEMPEL
100
AcDbCircle
 10
146.9999999999999
 20
217.6427197285982
 30
0.0
 40
8.0
100
AcDbArc
 50
148.2116693829484
 51
180.0
  0
LINE
  5
B0D
330
1E
100
AcDbEntity
  8
STEMPEL
100
AcDbLine
 10
138.9999999999999
 20
217.6427197285982
 30
0.0
 11
138.9999999999999
 21
209.6585903882533
 31
0.0
  0
LINE
  5
B0E
330
1E
100
AcDbEntity
  8
MITTEL
100
AcDbLine
 10
112.5
 20
265.770046568255
 30
0.0
 11
112.4999999999999
 21
192.6370464641497
 31
0.0
  0
LINE
  5
B0F
330
1E
100
AcDbEntity
  8
STEMPEL
100
AcDbLine
 10
141.9999999999998
 20
236.270046568255
 30
0.0
 11
141.9999999999999
 21
228.178373481451
 31
0.0
  0
LINE
  5
B10
330
1E
100
AcDbEntity
  8
STEMPEL
100
AcDbLine
 10
82.89295515080871
 20
260.770046568255
 30
0.0
 11
82.8269981527853
 21
260.6286013295378
 31
0.0
  0
LINE
  5
B11
330
1E
100
AcDbEntity
  8
STEMPEL
100
AcDbLine
 10
80.99999999999996
 20
252.3875452255941
 30
0.0
 11
80.99999999999996
 21
247.892010866247
 31
0.0
  0
ARC
  5
B12
330
1E
100
AcDbEntity
  8
STEMPEL
100
AcDbCircle
 10
72.99999999999996
 20
236.270046568255
 30
0.0
 40
10.0
100
AcDbArc
 50
0.0
 51
19.4630994446886
  0
ARC
  5
B13
330
1E
100
AcDbEntity
  8
STEMPEL
100
AcDbCircle
 10
105.9999999999999
 20
247.932046568255
 30
0.0
 40
25.00003205712822
100
AcDbArc
 50
179.9082450081906
 51
199.4630994446885
  0
ARC
  5
B14
330
1E
100
AcDbEntity
  8
STEMPEL
100
AcDbCircle
 10
100.4999999999999
 20
252.3875452255941
 30
0.0
 40
19.5
100
AcDbArc
 50
155.0000000000039
 51
180.0
  0
ARC
  5
B16
330
1E
100
AcDbEntity
  8
STEMPEL
100
AcDbCircle
 10
94.99999999999996
 20
228.178373481451
 30
0.0
 40
12.0
100
AcDbArc
 50
180.0
 51
211.7883306170516
  0
ARC
  5
B17
330
1E
100
AcDbEntity
  8
STEMPEL
100
AcDbCircle
 10
77.99999999999996
 20
217.6427197285982
 30
0.0
 40
8.0
100
AcDbArc
 50
0.0
 51
31.78833061705158
  0
LINE
  5
B18
330
1E
100
AcDbEntity
  8
STEMPEL
100
AcDbLine
 10
85.99999999999996
 20
217.6427197285982
 30
0.0
 11
85.99999999999996
 21
209.6585903882533
 31
0.0
  0
LINE
  5
B19
330
1E
100
AcDbEntity
  8
STEMPEL
100
AcDbLine
 10
82.99999999999995
 20
236.270046568255
 30
0.0
 11
82.99999999999995
 21
228.178373481451
 31
0.0
  0
LINE
  5
B1A
330
1E
100
AcDbEntity
  8
STEMPEL
100
AcDbLine
 10
142.1070448491911
 20
260.770046568255
 30
0.0
 11
82.89295515080871
 21
260.770046568255
 31
0.0
  0
DIMENSION
  5
CE3
330
1E
100
AcDbEntity
  8
BEM
100
AcDbDimension
  2
*D12
 10
55.75288699089476
 20
112.770046568255
 30
0.0
 11
52.50288699089475
 21
186.770046568255
 31
0.0
 70
    32
 71
     5
 42
148.0
  3
Standard
100
AcDbAlignedDimension
 13
82.89295515080871
 23
260.770046568255
 33
0.0
 14
76.87488663525918
 24
112.770046568255
 34
0.0
 50
90.0
100
AcDbRotatedDimension
1001
ACAD
1000
DSTYLE
1002
{
1070
    41
1040
3.5
1070
    42
1040
1.0
1070
    43
1040
7.0
1070
    44
1040
1.0
1070
    73
1070
     0
1070
    74
1070
     0
1070
    77
1070
     1
1070
    78
1070
     8
1070
    79
1070
     2
1070
   140
1040
3.5
1070
   141
1040
1.5
1070
   146
1040
0.5142857142857144
1070
   147
1040
1.5
1070
   172
1070
     1
1070
   178
1070
     1
1070
   179
1070
     2
1070
   271
1070
     2
1070
   272
1070
     2
1070
   284
1070
     8
1070
   285
1070
     8
1070
   286
1070
     8
1002
}
  0
LINE
  5
D5D
330
1E
100
AcDbEntity
  8
HILF
100
AcDbLine
 10
84.37509621778676
 20
237.9603678501692
 30
0.0
 11
140.6249037822131
 21
237.9603678501692
 31
0.0
  0
LINE
  5
D5E
330
1E
100
AcDbEntity
  8
HILF
100
AcDbLine
 10
85.02753791684316
 20
224.89203813642
 30
0.0
 11
139.9724620831567
 21
224.89203813642
 31
0.0
  0
LINE
  5
D5F
330
1E
100
AcDbEntity
  8
HILF
100
AcDbLine
 10
137.7560830812906
 20
219.8336099586189
 30
0.0
 11
87.48744532376766
 21
219.8336099586189
 31
0.0
  0
ENDSEC
  0
SECTION
  2
OBJECTS
  0
DICTIONARY
  5
C
330
0
100
AcDbDictionary
281
     1
  3
ACAD_COLOR
350
DF
  3
ACAD_GROUP
350
D
  3
ACAD_LAYOUT
350
19
  3
ACAD_MATERIAL
350
DE
  3
ACAD_MLINESTYLE
350
16
  3
ACAD_PLOTSETTINGS
350
18
  3
ACAD_PLOTSTYLENAME
350
E
  3
AcDbVariableDictionary
350
EA
  0
DICTIONARY
  5
A0
330
1E
100
AcDbDictionary
280
     1
281
     1
  3
ACAD_LAYOUTSELFREF
360
D4
  0
DICTIONARY
  5
A2
330
1A
100
AcDbDictionary
280
     1
281
     1
  3
ACAD_LAYOUTSELFREF
360
D3
  0
DICTIONARY
  5
DF
102
{ACAD_REACTORS
330
C
102
}
330
C
100
AcDbDictionary
281
     1
  0
DICTIONARY
  5
D
102
{ACAD_REACTORS
330
C
102
}
330
C
100
AcDbDictionary
281
     1
  0
DICTIONARY
  5
19
102
{ACAD_REACTORS
330
C
102
}
330
C
100
AcDbDictionary
281
     1
  3
Layout1
350
1D
  3
Model
350
21
  0
DICTIONARY
  5
DE
102
{ACAD_REACTORS
330
C
102
}
330
C
100
AcDbDictionary
281
     1
  0
DICTIONARY
  5
16
102
{ACAD_REACTORS
330
C
102
}
330
C
100
AcDbDictionary
281
     1
  3
Standard
350
17
  0
DICTIONARY
  5
18
102
{ACAD_REACTORS
330
C
102
}
330
C
100
AcDbDictionary
281
     1
  0
ACDBDICTIONARYWDFLT
  5
E
102
{ACAD_REACTORS
330
C
102
}
330
C
100
AcDbDictionary
281
     1
  3
Normal
350
F
100
AcDbDictionaryWithDefault
340
F
  0
DICTIONARY
  5
EA
102
{ACAD_REACTORS
330
C
102
}
330
C
100
AcDbDictionary
281
     1
  3
DIMASSOC
350
EB
  3
PROJECTNAME
350
EC
  0
XRECORD
  5
D4
102
{ACAD_REACTORS
330
A0
102
}
330
A0
100
AcDbXrecord
280
     1
340
1E
  0
XRECORD
  5
D3
102
{ACAD_REACTORS
330
A2
102
}
330
A2
100
AcDbXrecord
280
     1
340
1A
  0
LAYOUT
  5
1D
102
{ACAD_REACTORS
330
19
102
}
330
19
100
AcDbPlotSettings
  1

  2
\\NT_WORK01\HP LaserJet 5000 PCL 6
  4

  6

 40
0.0
 41
0.0
 42
0.0
 43
0.0
 44
0.0
 45
0.0
 46
0.0
 47
0.0
 48
0.0
 49
0.0
140
0.0
141
0.0
142
1.0
143
1.0
 70
   688
 72
     0
 73
     0
 74
     5
  7

 75
    16
147
1.0
 76
     0
 77
     2
 78
   300
148
0.0
149
0.0
100
AcDbLayout
  1
Layout1
 70
     0
 71
     1
 10
0.0
 20
0.0
 11
12.0
 21
9.0
 12
0.0
 22
0.0
 32
0.0
 14
1.000000000000000E+20
 24
1.000000000000000E+20
 34
1.000000000000000E+20
 15
-1.000000000000000E+20
 25
-1.000000000000000E+20
 35
-1.000000000000000E+20
146
0.0
 13
0.0
 23
0.0
 33
0.0
 16
1.0
 26
0.0
 36
0.0
 17
0.0
 27
1.0
 37
0.0
 76
     0
330
1A
  0
LAYOUT
  5
21
102
{ACAD_REACTORS
330
19
102
}
330
19
100
AcDbPlotSettings
  1

  2
none_device
  4
Letter_(8.50_x_11.00_Inches)
  6

 40
6.349999904632568
 41
6.349999904632568
 42
6.350006103515625
 43
6.350006103515625
 44
215.8999938964844
 45
279.3999938964844
 46
0.0
 47
0.0
 48
0.0
 49
0.0
140
0.0
141
0.0
142
1.0
143
1.0
 70
 11952
 72
     0
 73
     1
 74
     0
  7

 75
     0
147
1.0
 76
     0
 77
     2
 78
   300
148
1152.62220946049
149
47.72217472897223
100
AcDbLayout
  1
Model
 70
     1
 71
     0
 10
0.0
 20
0.0
 11
12.0
 21
9.0
 12
0.0
 22
0.0
 32
0.0
 14
0.0
 24
0.0
 34
0.0
 15
0.0
 25
0.0
 35
0.0
146
0.0
 13
0.0
 23
0.0
 33
0.0
 16
1.0
 26
0.0
 36
0.0
 17
0.0
 27
1.0
 37
0.0
 76
     0
330
1E
  0
MLINESTYLE
  5
17
102
{ACAD_REACTORS
330
16
102
}
330
16
100
AcDbMlineStyle
  2
STANDARD
 70
     0
  3

 62
   256
 51
90.0
 52
90.0
 71
     2
 49
0.5
 62
   256
  6
BYLAYER
 49
-0.5
 62
   256
  6
BYLAYER
  0
ACDBPLACEHOLDER
  5
F
102
{ACAD_REACTORS
330
E
102
}
330
E
  0
DICTIONARYVAR
  5
EB
102
{ACAD_REACTORS
330
EA
102
}
330
EA
100
DictionaryVariables
280
     0
  1
1
  0
DICTIONARYVAR
  5
EC
102
{ACAD_REACTORS
330
EA
102
}
330
EA
100
DictionaryVariables
280
     0
  1

  0
ENDSEC
  0
EOF
