  0
SECTION
  2
HEADER
  9
$ACADVER
  1
AC1018
  9
$ACADMAINTVER
 70
     2
  9
$DWGCODEPAGE
  3
ANSI_1252
  9
$INSBASE
 10
0.0
 20
0.0
 30
0.0
  9
$EXTMIN
 10
-0.0192209888436992
 20
-0.0271839699362317
 30
-0.0000000000000058
  9
$EXTMAX
 10
420.0192288123714
 20
594.0271950346398
 30
0.0000000000000104
  9
$LIMMIN
 10
0.0
 20
0.0
  9
$LIMMAX
 10
419.9999999999999
 20
594.0
  9
$ORTHOMODE
 70
     1
  9
$REGENMODE
 70
     1
  9
$FILLMODE
 70
     1
  9
$QTEXTMODE
 70
     0
  9
$MIRRTEXT
 70
     1
  9
$LTSCALE
 40
20.0
  9
$ATTMODE
 70
     1
  9
$TEXTSIZE
 40
2.5
  9
$TRACEWID
 40
0.5
  9
$TEXTSTYLE
  7
GREEKS
  9
$CLAYER
  8
BEM
  9
$CELTYPE
  6
BYLAYER
  9
$CECOLOR
 62
   256
  9
$CELTSCALE
 40
1.0
  9
$DISPSILH
 70
     0
  9
$DIMSCALE
 40
2.0
  9
$DIMASZ
 40
3.5
  9
$DIMEXO
 40
1.0
  9
$DIMDLI
 40
7.0
  9
$DIMRND
 40
0.0
  9
$DIMDLE
 40
0.0
  9
$DIMEXE
 40
1.0
  9
$DIMTP
 40
0.7
  9
$DIMTM
 40
0.0
  9
$DIMTXT
 40
3.5
  9
$DIMCEN
 40
1.5
  9
$DIMTSZ
 40
0.0
  9
$DIMTOL
 70
     0
  9
$DIMLIM
 70
     0
  9
$DIMTIH
 70
     0
  9
$DIMTOH
 70
     0
  9
$DIMSE1
 70
     0
  9
$DIMSE2
 70
     0
  9
$DIMTAD
 70
     1
  9
$DIMZIN
 70
     8
  9
$DIMBLK
  1

  9
$DIMASO
 70
     1
  9
$DIMSHO
 70
     0
  9
$DIMPOST
  1

  9
$DIMAPOST
  1

  9
$DIMALT
 70
     0
  9
$DIMALTD
 70
     2
  9
$DIMALTF
 40
25.4
  9
$DIMLFAC
 40
1.0
  9
$DIMTOFL
 70
     1
  9
$DIMTVP
 40
0.0
  9
$DIMTIX
 70
     0
  9
$DIMSOXD
 70
     0
  9
$DIMSAH
 70
     0
  9
$DIMBLK1
  1

  9
$DIMBLK2
  1

  9
$DIMSTYLE
  2
STANDARD
  9
$DIMCLRD
 70
     0
  9
$DIMCLRE
 70
     0
  9
$DIMCLRT
 70
     1
  9
$DIMTFAC
 40
1.0
  9
$DIMGAP
 40
1.5
  9
$DIMJUST
 70
     0
  9
$DIMSD1
 70
     0
  9
$DIMSD2
 70
     0
  9
$DIMTOLJ
 70
     1
  9
$DIMTZIN
 70
     8
  9
$DIMALTZ
 70
     8
  9
$DIMALTTZ
 70
     8
  9
$DIMUPT
 70
     0
  9
$DIMDEC
 70
     2
  9
$DIMTDEC
 70
     2
  9
$DIMALTU
 70
     2
  9
$DIMALTTD
 70
     2
  9
$DIMTXSTY
  7
STANDARD
  9
$DIMAUNIT
 70
     0
  9
$DIMADEC
 70
     2
  9
$DIMALTRND
 40
0.0
  9
$DIMAZIN
 70
     2
  9
$DIMDSEP
 70
    46
  9
$DIMATFIT
 70
     3
  9
$DIMFRAC
 70
     0
  9
$DIMLDRBLK
  1

  9
$DIMLUNIT
 70
     2
  9
$DIMLWD
 70
    -2
  9
$DIMLWE
 70
    -2
  9
$DIMTMOVE
 70
     0
  9
$LUNITS
 70
     2
  9
$LUPREC
 70
     2
  9
$SKETCHINC
 40
1.0
  9
$FILLETRAD
 40
7.0
  9
$AUNITS
 70
     0
  9
$AUPREC
 70
     0
  9
$MENU
  1
ACAD
  9
$ELEVATION
 40
0.0
  9
$PELEVATION
 40
0.0
  9
$THICKNESS
 40
0.0
  9
$LIMCHECK
 70
     0
  9
$CHAMFERA
 40
0.0
  9
$CHAMFERB
 40
0.0
  9
$CHAMFERC
 40
0.0
  9
$CHAMFERD
 40
0.0
  9
$SKPOLY
 70
     0
  9
$TDCREATE
 40
2452170.469180787
  9
$TDUCREATE
 40
2452170.385847454
  9
$TDUPDATE
 40
2455448.615019282
  9
$TDUUPDATE
 40
2455448.531685950
  9
$TDINDWG
 40
0.1005457407
  9
$TDUSRTIMER
 40
0.1005457407
  9
$USRTIMER
 70
     1
  9
$ANGBASE
 50
0.0
  9
$ANGDIR
 70
     0
  9
$PDMODE
 70
     0
  9
$PDSIZE
 40
0.0
  9
$PLINEWID
 40
0.0
  9
$SPLFRAME
 70
     0
  9
$SPLINETYPE
 70
     6
  9
$SPLINESEGS
 70
     8
  9
$HANDSEED
  5
697
  9
$SURFTAB1
 70
     6
  9
$SURFTAB2
 70
     6
  9
$SURFTYPE
 70
     6
  9
$SURFU
 70
     6
  9
$SURFV
 70
     6
  9
$UCSBASE
  2

  9
$UCSNAME
  2

  9
$UCSORG
 10
0.0
 20
0.0
 30
0.0
  9
$UCSXDIR
 10
1.0
 20
0.0
 30
0.0
  9
$UCSYDIR
 10
0.0
 20
1.0
 30
0.0
  9
$UCSORTHOREF
  2

  9
$UCSORTHOVIEW
 70
     0
  9
$UCSORGTOP
 10
0.0
 20
0.0
 30
0.0
  9
$UCSORGBOTTOM
 10
0.0
 20
0.0
 30
0.0
  9
$UCSORGLEFT
 10
0.0
 20
0.0
 30
0.0
  9
$UCSORGRIGHT
 10
0.0
 20
0.0
 30
0.0
  9
$UCSORGFRONT
 10
0.0
 20
0.0
 30
0.0
  9
$UCSORGBACK
 10
0.0
 20
0.0
 30
0.0
  9
$PUCSBASE
  2

  9
$PUCSNAME
  2

  9
$PUCSORG
 10
0.0
 20
0.0
 30
0.0
  9
$PUCSXDIR
 10
1.0
 20
0.0
 30
0.0
  9
$PUCSYDIR
 10
0.0
 20
1.0
 30
0.0
  9
$PUCSORTHOREF
  2

  9
$PUCSORTHOVIEW
 70
     0
  9
$PUCSORGTOP
 10
0.0
 20
0.0
 30
0.0
  9
$PUCSORGBOTTOM
 10
0.0
 20
0.0
 30
0.0
  9
$PUCSORGLEFT
 10
0.0
 20
0.0
 30
0.0
  9
$PUCSORGRIGHT
 10
0.0
 20
0.0
 30
0.0
  9
$PUCSORGFRONT
 10
0.0
 20
0.0
 30
0.0
  9
$PUCSORGBACK
 10
0.0
 20
0.0
 30
0.0
  9
$USERI1
 70
     0
  9
$USERI2
 70
     0
  9
$USERI3
 70
     0
  9
$USERI4
 70
     0
  9
$USERI5
 70
     0
  9
$USERR1
 40
0.0
  9
$USERR2
 40
0.0
  9
$USERR3
 40
0.0
  9
$USERR4
 40
0.0
  9
$USERR5
 40
0.0
  9
$WORLDVIEW
 70
     1
  9
$SHADEDGE
 70
     3
  9
$SHADEDIF
 70
    70
  9
$TILEMODE
 70
     1
  9
$MAXACTVP
 70
    16
  9
$PINSBASE
 10
0.0
 20
0.0
 30
0.0
  9
$PLIMCHECK
 70
     0
  9
$PEXTMIN
 10
1.000000000000000E+20
 20
1.000000000000000E+20
 30
1.000000000000000E+20
  9
$PEXTMAX
 10
-1.000000000000000E+20
 20
-1.000000000000000E+20
 30
-1.000000000000000E+20
  9
$PLIMMIN
 10
0.0
 20
0.0
  9
$PLIMMAX
 10
12.0
 20
9.0
  9
$UNITMODE
 70
     0
  9
$VISRETAIN
 70
     0
  9
$PLINEGEN
 70
     0
  9
$PSLTSCALE
 70
     0
  9
$TREEDEPTH
 70
  3020
  9
$CMLSTYLE
  2
STANDARD
  9
$CMLJUST
 70
     0
  9
$CMLSCALE
 40
1.0
  9
$PROXYGRAPHICS
 70
     1
  9
$MEASUREMENT
 70
     0
  9
$CELWEIGHT
370
    -1
  9
$ENDCAPS
280
     0
  9
$JOINSTYLE
280
     0
  9
$LWDISPLAY
290
     0
  9
$INSUNITS
 70
     0
  9
$HYPERLINKBASE
  1

  9
$STYLESHEET
  1
monochrome 1.ctb
  9
$XEDIT
290
     1
  9
$CEPSNTYPE
380
     0
  9
$PSTYLEMODE
290
     1
  9
$FINGERPRINTGUID
  2
{7FB7BC72-8F0B-49FD-895E-58DC2A5F986A}
  9
$VERSIONGUID
  2
{A47D8E70-E766-439B-932B-8D00344AA680}
  9
$EXTNAMES
290
     1
  9
$PSVPSCALE
 40
0.0
  9
$OLESTARTUP
290
     0
  9
$SORTENTS
280
    96
  9
$INDEXCTL
280
     0
  9
$HIDETEXT
280
     0
  9
$XCLIPFRAME
290
     0
  9
$HALOGAP
280
     0
  9
$OBSCOLOR
 70
   257
  9
$OBSLTYPE
280
     0
  9
$INTERSECTIONDISPLAY
280
     0
  9
$INTERSECTIONCOLOR
 70
   257
  9
$DIMASSOC
280
     1
  9
$PROJECTNAME
  1

  0
ENDSEC
  0
SECTION
  2
CLASSES
  0
CLASS
  1
DICTIONARYVAR
  2
AcDbDictionaryVar
  3
ObjectDBX Classes
 90
        0
 91
        4
280
     0
281
     0
  0
CLASS
  1
ACDBDICTIONARYWDFLT
  2
AcDbDictionaryWithDefault
  3
ObjectDBX Classes
 90
        0
 91
        1
280
     0
281
     0
  0
ENDSEC
  0
SECTION
  2
TABLES
  0
TABLE
  2
VPORT
  5
8
330
0
100
AcDbSymbolTable
 70
     2
  0
VPORT
  5
696
330
8
100
AcDbSymbolTableRecord
100
AcDbViewportTableRecord
  2
*Active
 70
     0
 10
0.0
 20
0.0
 11
1.0
 21
1.0
 12
210.0000039117638
 22
297.0000055323518
 13
0.0
 23
0.0
 14
1.0
 24
1.0
 15
20.0
 25
20.0
 16
0.0
 26
0.0
 36
1.0
 17
0.0
 27
0.0
 37
0.0
 40
598.8515879871163
 41
1.336927223719676
 42
50.0
 43
0.0
 44
0.0
 50
0.0
 51
0.0
 71
     0
 72
  1500
 73
     1
 74
     0
 75
     0
 76
     0
 77
     0
 78
     0
281
     0
 65
     1
110
0.0
120
0.0
130
0.0
111
1.0
121
0.0
131
0.0
112
0.0
122
1.0
132
0.0
 79
     0
146
0.0
  0
ENDTAB
  0
TABLE
  2
LTYPE
  5
5
330
0
100
AcDbSymbolTable
 70
     3
  0
LTYPE
  5
11
330
5
100
AcDbSymbolTableRecord
100
AcDbLinetypeTableRecord
  2
BYBLOCK
 70
     0
  3

 72
    65
 73
     0
 40
0.0
  0
LTYPE
  5
12
330
5
100
AcDbSymbolTableRecord
100
AcDbLinetypeTableRecord
  2
BYLAYER
 70
     0
  3

 72
    65
 73
     0
 40
0.0
  0
LTYPE
  5
13
330
5
100
AcDbSymbolTableRecord
100
AcDbLinetypeTableRecord
  2
AUSGEZOGEN
 70
     0
  3
Ausgezogene Linie
 72
    65
 73
     0
 40
0.0
  0
LTYPE
  5
27
330
5
100
AcDbSymbolTableRecord
100
AcDbLinetypeTableRecord
  2
STRICHPUNKT
 70
     0
  3
__ . __ . __ . __ . __ . __ . __ . __ . __ . __
 72
    65
 73
     4
 40
1.0
 49
0.5
 74
     0
 49
-0.25
 74
     0
 49
0.0
 74
     0
 49
-0.25
 74
     0
  0
LTYPE
  5
32
330
5
100
AcDbSymbolTableRecord
100
AcDbLinetypeTableRecord
  2
CONTINUOUS
 70
     0
  3
Solid line
 72
    65
 73
     0
 40
0.0
  0
ENDTAB
  0
TABLE
  2
LAYER
  5
2
330
0
100
AcDbSymbolTable
 70
     9
  0
LAYER
  5
E
330
2
100
AcDbSymbolTableRecord
100
AcDbLayerTableRecord
  2
0
 70
     0
 62
     7
  6
AUSGEZOGEN
370
    -3
390
50E
  0
LAYER
  5
2A
330
2
100
AcDbSymbolTableRecord
100
AcDbLayerTableRecord
  2
VOLL
 70
     0
 62
     1
  6
AUSGEZOGEN
370
    -3
390
50E
  0
LAYER
  5
2B
330
2
100
AcDbSymbolTableRecord
100
AcDbLayerTableRecord
  2
HILF
 70
     0
 62
     2
  6
AUSGEZOGEN
370
    -3
390
50E
  0
LAYER
  5
2C
330
2
100
AcDbSymbolTableRecord
100
AcDbLayerTableRecord
  2
MITTEL
 70
     0
 62
     2
  6
STRICHPUNKT
370
    -3
390
50E
  0
LAYER
  5
2D
330
2
100
AcDbSymbolTableRecord
100
AcDbLayerTableRecord
  2
BEM
 70
     0
 62
     7
  6
AUSGEZOGEN
370
    -3
390
50E
  0
LAYER
  5
2E
330
2
100
AcDbSymbolTableRecord
100
AcDbLayerTableRecord
  2
STEMPEL
 70
     0
 62
     3
  6
AUSGEZOGEN
370
    -3
390
50E
  0
LAYER
  5
2F
330
2
100
AcDbSymbolTableRecord
100
AcDbLayerTableRecord
  2
TEXT
 70
     0
 62
     7
  6
AUSGEZOGEN
370
    -3
390
50E
  0
LAYER
  5
30
330
2
100
AcDbSymbolTableRecord
100
AcDbLayerTableRecord
  2
DEFPOINTS
 70
     0
 62
     7
  6
AUSGEZOGEN
290
     0
370
    -3
390
50E
  0
LAYER
  5
31
330
2
100
AcDbSymbolTableRecord
100
AcDbLayerTableRecord
  2
SCHRAFF
 70
     0
 62
     7
  6
AUSGEZOGEN
370
    -3
390
50E
  0
ENDTAB
  0
TABLE
  2
STYLE
  5
3
330
0
100
AcDbSymbolTable
 70
     2
  0
STYLE
  5
F
330
3
100
AcDbSymbolTableRecord
100
AcDbTextStyleTableRecord
  2
STANDARD
 70
     0
 40
0.0
 41
0.8
 50
0.0
 71
     0
 42
3.5
  3
simplex.shx
  4

  0
STYLE
  5
26
330
3
100
AcDbSymbolTableRecord
100
AcDbTextStyleTableRecord
  2
GREEKS
 70
     0
 40
0.0
 41
0.8
 50
0.0
 71
     0
 42
2.5
  3
SIMPLEX.shx
  4

  0
ENDTAB
  0
TABLE
  2
VIEW
  5
6
330
0
100
AcDbSymbolTable
 70
     0
  0
ENDTAB
  0
TABLE
  2
UCS
  5
7
330
0
100
AcDbSymbolTable
 70
     0
  0
ENDTAB
  0
TABLE
  2
APPID
  5
9
330
0
100
AcDbSymbolTable
 70
     1
  0
APPID
  5
10
330
9
100
AcDbSymbolTableRecord
100
AcDbRegAppTableRecord
  2
ACAD
 70
     0
  0
ENDTAB
  0
TABLE
  2
DIMSTYLE
  5
A
330
0
100
AcDbSymbolTable
 70
     1
100
AcDbDimStyleTable
 71
     1
340
1E5
  0
DIMSTYLE
105
1E5
102
{ACAD_REACTORS
330
598
330
2B7
330
29F
330
271
102
}
330
A
100
AcDbSymbolTableRecord
100
AcDbDimStyleTableRecord
  2
STANDARD
 70
     0
 40
2.0
 41
3.5
 42
1.0
 43
7.0
 44
1.0
 47
0.7
 73
     0
 74
     0
 77
     1
 78
     8
 79
     2
140
3.5
141
1.5
147
1.5
172
     1
178
     1
179
     2
271
     2
272
     2
284
     8
285
     8
286
     8
340
F
  0
ENDTAB
  0
TABLE
  2
BLOCK_RECORD
  5
1
330
0
100
AcDbSymbolTable
 70
     5
  0
BLOCK_RECORD
  5
17
330
1
100
AcDbSymbolTableRecord
100
AcDbBlockTableRecord
  2
*MODEL_SPACE
340
513
  0
BLOCK_RECORD
  5
14
330
1
100
AcDbSymbolTableRecord
100
AcDbBlockTableRecord
  2
*PAPER_SPACE
340
514
  0
BLOCK_RECORD
  5
1C
330
1
100
AcDbSymbolTableRecord
100
AcDbBlockTableRecord
  2
LOGO
340
0
102
{BLKREFS
331
15F
102
}
  0
BLOCK_RECORD
  5
265
330
1
100
AcDbSymbolTableRecord
100
AcDbBlockTableRecord
  2
*D1
340
0
  0
BLOCK_RECORD
  5
293
330
1
100
AcDbSymbolTableRecord
100
AcDbBlockTableRecord
  2
*D2
340
0
  0
BLOCK_RECORD
  5
2AB
330
1
100
AcDbSymbolTableRecord
100
AcDbBlockTableRecord
  2
*D3
340
0
  0
BLOCK_RECORD
  5
599
330
1
100
AcDbSymbolTableRecord
100
AcDbBlockTableRecord
  2
*D4
340
0
  0
ENDTAB
  0
ENDSEC
  0
SECTION
  2
BLOCKS
  0
BLOCK
  5
35
330
17
100
AcDbEntity
  8
0
100
AcDbBlockBegin
  2
*MODEL_SPACE
 70
     0
 10
0.0
 20
0.0
 30
0.0
  3
*MODEL_SPACE
  1

  0
ENDBLK
  5
36
330
17
100
AcDbEntity
  8
0
100
AcDbBlockEnd
  0
BLOCK
  5
33
330
14
100
AcDbEntity
 67
     1
  8
0
100
AcDbBlockBegin
  2
*PAPER_SPACE
 70
     0
 10
0.0
 20
0.0
 30
0.0
  3
*PAPER_SPACE
  1

  0
ENDBLK
  5
34
330
14
100
AcDbEntity
 67
     1
  8
0
100
AcDbBlockEnd
  0
BLOCK
  5
39
330
1C
100
AcDbEntity
  8
0
100
AcDbBlockBegin
  2
LOGO
 70
     0
 10
0.0
 20
0.0
 30
0.0
  3
LOGO
  1

  0
ARC
  5
3A
330
1C
100
AcDbEntity
  8
0
100
AcDbCircle
 10
11.59973089678112
 20
-9.271599258481501
 30
0.0
 40
4.5
100
AcDbArc
 50
270.0
 51
231.0575587310159
  0
LINE
  5
3B
330
1C
100
AcDbEntity
  8
0
100
AcDbLine
 10
3.599730896781125
 20
-4.771599258481529
 30
0.0
 11
3.599730896781153
 21
-11.77159925848133
 31
0.0
  0
LINE
  5
3C
330
1C
100
AcDbEntity
  8
0
100
AcDbLine
 10
2.599730896781125
 20
-4.771599258481529
 30
0.0
 11
2.599730896781153
 21
-11.77159925848133
 31
0.0
  0
CIRCLE
  5
3D
330
1C
100
AcDbEntity
  8
0
100
AcDbCircle
 10
11.59973089678112
 20
-9.271599258481501
 30
0.0
 40
3.5
  0
ARC
  5
3E
330
1C
100
AcDbEntity
  8
0
100
AcDbCircle
 10
31.59973089678115
 20
-9.271599258481472
 30
0.0
 40
4.5
100
AcDbArc
 50
270.0
 51
231.0575587310182
  0
LINE
  5
3F
330
1C
100
AcDbEntity
  8
0
100
AcDbLine
 10
17.59973089678112
 20
-4.771599258481472
 30
0.0
 11
17.59973089678115
 21
-13.77159925848147
 31
0.0
  0
ARC
  5
40
330
1C
100
AcDbEntity
  8
0
100
AcDbCircle
 10
22.59973089678116
 20
-7.271599258481472
 30
0.0
 40
2.5
100
AcDbArc
 50
293.1161887722295
 51
90.0
  0
CIRCLE
  5
41
330
1C
100
AcDbEntity
  8
0
100
AcDbCircle
 10
31.59973089678115
 20
-9.271599258481472
 30
0.0
 40
3.5
  0
ARC
  5
42
330
1C
100
AcDbEntity
  8
0
100
AcDbCircle
 10
4.599730896781153
 20
-11.77159925848133
 30
0.0
 40
1.0
100
AcDbArc
 50
180.0
 51
270.0
  0
ARC
  5
43
330
1C
100
AcDbEntity
  8
0
100
AcDbCircle
 10
4.599730896781153
 20
-11.77159925848133
 30
0.0
 40
2.0
100
AcDbArc
 50
179.9999999999992
 51
270.0
  0
LINE
  5
44
330
1C
100
AcDbEntity
  8
0
100
AcDbLine
 10
11.59973089678115
 20
-13.77159925848144
 30
0.0
 11
4.599730896781153
 21
-13.77159925848147
 31
0.0
  0
LINE
  5
45
330
1C
100
AcDbEntity
  8
0
100
AcDbLine
 10
8.771303772034769
 20
-12.77159925848136
 30
0.0
 11
4.599730896781153
 21
-12.77159925848133
 31
0.0
  0
LINE
  5
46
330
1C
100
AcDbEntity
  8
0
100
AcDbLine
 10
31.59973089678115
 20
-13.77159925848147
 30
0.0
 11
23.6715276665056
 21
-13.77159925848144
 31
0.0
  0
LINE
  5
47
330
1C
100
AcDbEntity
  8
0
100
AcDbLine
 10
23.56565672307022
 20
-9.51278021337896
 30
0.0
 11
24.4388546544846
 21
-12.77159925848144
 31
0.0
  0
LINE
  5
48
330
1C
100
AcDbEntity
  8
0
100
AcDbLine
 10
22.59973089678116
 20
-9.771599258481472
 30
0.0
 11
18.59973089678112
 21
-9.771599258481472
 31
0.0
  0
LINE
  5
49
330
1C
100
AcDbEntity
  8
0
100
AcDbLine
 10
18.59973089678115
 20
-13.77159925848144
 30
0.0
 11
17.59973089678115
 21
-13.77159925848144
 31
0.0
  0
LINE
  5
4A
330
1C
100
AcDbEntity
  8
0
100
AcDbLine
 10
18.59973089678115
 20
-9.771599258481472
 30
0.0
 11
18.59973089678115
 21
-13.77159925848144
 31
0.0
  0
LINE
  5
4B
330
1C
100
AcDbEntity
  8
0
100
AcDbLine
 10
22.59973089678116
 20
-9.771599258481472
 30
0.0
 11
23.67152766650562
 21
-13.77159925848147
 31
0.0
  0
ARC
  5
4C
330
1C
100
AcDbEntity
  8
0
100
AcDbCircle
 10
22.59973089678116
 20
-7.271599258481472
 30
0.0
 40
2.5
100
AcDbArc
 50
270.0
 51
270.0000000000007
  0
LINE
  5
4D
330
1C
100
AcDbEntity
  8
0
100
AcDbLine
 10
28.77130377203494
 20
-12.77159925848147
 30
0.0
 11
24.43885465448463
 21
-12.77159925848144
 31
0.0
  0
LINE
  5
4E
330
1C
100
AcDbEntity
  8
0
100
AcDbLine
 10
3.599730896781125
 20
-4.771599258481472
 30
0.0
 11
2.599730896781125
 21
-4.771599258481472
 31
0.0
  0
LINE
  5
4F
330
1C
100
AcDbEntity
  8
0
100
AcDbLine
 10
22.59973089678116
 20
-8.771599258481472
 30
0.0
 11
18.59973089678115
 21
-8.771599258481472
 31
0.0
  0
LINE
  5
50
330
1C
100
AcDbEntity
  8
0
100
AcDbLine
 10
22.59973089678116
 20
-5.771599258481472
 30
0.0
 11
18.59973089678115
 21
-5.771599258481472
 31
0.0
  0
LINE
  5
51
330
1C
100
AcDbEntity
  8
0
100
AcDbLine
 10
22.59973089678116
 20
-4.771599258481472
 30
0.0
 11
17.59973089678115
 21
-4.771599258481472
 31
0.0
  0
LINE
  5
52
330
1C
100
AcDbEntity
  8
0
100
AcDbLine
 10
18.59973089678115
 20
-5.771599258481472
 30
0.0
 11
18.59973089678115
 21
-8.771599258481472
 31
0.0
  0
ARC
  5
53
330
1C
100
AcDbEntity
  8
0
100
AcDbCircle
 10
22.59973089678116
 20
-7.271599258481472
 30
0.0
 40
1.5
100
AcDbArc
 50
270.0
 51
90.0
  0
ENDBLK
  5
54
330
1C
100
AcDbEntity
  8
0
100
AcDbBlockEnd
  0
BLOCK
  5
377
330
265
100
AcDbEntity
  8
0
100
AcDbBlockBegin
  2
*D1
 70
     1
 10
0.0
 20
0.0
 30
0.0
  3
*D1
  1

  0
LINE
  5
5FE
330
265
100
AcDbEntity
  8
BEM
 62
     0
370
    -2
100
AcDbLine
 10
199.9681849245439
 20
205.9508552930745
 30
0.0
 11
199.9681849245439
 21
175.0146783521495
 31
0.0
  0
LINE
  5
5FF
330
265
100
AcDbEntity
  8
BEM
 62
     0
370
    -2
100
AcDbLine
 10
252.9681849245439
 20
205.9508552930745
 30
0.0
 11
252.9681849245439
 21
175.0146783521495
 31
0.0
  0
LINE
  5
600
330
265
100
AcDbEntity
  8
BEM
 62
     0
370
    -2
100
AcDbLine
 10
206.9681849245439
 20
177.0146783521495
 30
0.0
 11
245.9681849245439
 21
177.0146783521495
 31
0.0
  0
SOLID
  5
601
330
265
100
AcDbEntity
  8
BEM
 62
     0
100
AcDbTrace
 10
206.9681849245439
 20
178.1813450188162
 30
0.0
 11
206.9681849245439
 21
175.8480116854828
 31
0.0
 12
199.9681849245439
 22
177.0146783521495
 32
0.0
 13
199.9681849245439
 23
177.0146783521495
 33
0.0
  0
SOLID
  5
602
330
265
100
AcDbEntity
  8
BEM
 62
     0
100
AcDbTrace
 10
245.9681849245439
 20
178.1813450188162
 30
0.0
 11
245.9681849245439
 21
175.8480116854828
 31
0.0
 12
252.9681849245439
 22
177.0146783521495
 32
0.0
 13
252.9681849245439
 23
177.0146783521495
 33
0.0
  0
MTEXT
  5
603
330
265
100
AcDbEntity
  8
BEM
 62
     1
100
AcDbMText
 10
226.468184924544
 20
183.5146783521495
 30
0.0
 40
7.0
 41
0.0
 71
     5
 72
     1
  1
\A1;%%c53
 73
     1
 44
1.0
  0
POINT
  5
604
330
265
100
AcDbEntity
  8
DEFPOINTS
 62
     0
100
AcDbPoint
 10
199.9681849245439
 20
207.9508552930745
 30
0.0
  0
POINT
  5
605
330
265
100
AcDbEntity
  8
DEFPOINTS
 62
     0
100
AcDbPoint
 10
252.9681849245439
 20
207.9508552930745
 30
0.0
  0
POINT
  5
606
330
265
100
AcDbEntity
  8
DEFPOINTS
 62
     0
100
AcDbPoint
 10
252.9681849245439
 20
177.0146783521495
 30
0.0
  0
ENDBLK
  5
381
330
265
100
AcDbEntity
  8
0
100
AcDbBlockEnd
  0
BLOCK
  5
361
330
293
100
AcDbEntity
  8
0
100
AcDbBlockBegin
  2
*D2
 70
     1
 10
0.0
 20
0.0
 30
0.0
  3
*D2
  1

  0
LINE
  5
683
330
293
100
AcDbEntity
  8
BEM
 62
     0
370
    -2
100
AcDbLine
 10
139.468184924544
 20
484.7778604643015
 30
0.0
 11
126.8463716721067
 21
484.7778604643016
 31
0.0
  0
LINE
  5
684
330
293
100
AcDbEntity
  8
BEM
 62
     0
370
    -2
100
AcDbLine
 10
198.4681849245439
 20
202.9508552930745
 30
0.0
 11
126.8463716721066
 21
202.9508552930745
 31
0.0
  0
LINE
  5
685
330
293
100
AcDbEntity
  8
BEM
 62
     0
370
    -2
100
AcDbLine
 10
128.8463716721067
 20
477.7778604643016
 30
0.0
 11
128.8463716721066
 21
209.9508552930745
 31
0.0
  0
SOLID
  5
686
330
293
100
AcDbEntity
  8
BEM
 62
     0
100
AcDbTrace
 10
127.67970500544
 20
477.7778604643016
 30
0.0
 11
130.0130383387734
 21
477.7778604643016
 31
0.0
 12
128.8463716721067
 22
484.7778604643015
 32
0.0
 13
128.8463716721067
 23
484.7778604643015
 33
0.0
  0
SOLID
  5
687
330
293
100
AcDbEntity
  8
BEM
 62
     0
100
AcDbTrace
 10
127.67970500544
 20
209.9508552930745
 30
0.0
 11
130.0130383387733
 21
209.9508552930745
 31
0.0
 12
128.8463716721066
 22
202.9508552930745
 32
0.0
 13
128.8463716721066
 23
202.9508552930745
 33
0.0
  0
MTEXT
  5
688
330
293
100
AcDbEntity
  8
BEM
 62
     1
100
AcDbMText
 10
122.3463716721066
 20
343.8643578786881
 30
0.0
 40
7.0
 41
0.0
 71
     5
 72
     1
  1
\A1;500
 11
0.0000000000000001
 21
1.0
 31
0.0
 73
     1
 44
1.0
  0
POINT
  5
689
330
293
100
AcDbEntity
  8
DEFPOINTS
 62
     0
100
AcDbPoint
 10
141.468184924544
 20
484.7778604643015
 30
0.0
  0
POINT
  5
68A
330
293
100
AcDbEntity
  8
DEFPOINTS
 62
     0
100
AcDbPoint
 10
200.4681849245439
 20
202.9508552930745
 30
0.0
  0
POINT
  5
68B
330
293
100
AcDbEntity
  8
DEFPOINTS
 62
     0
100
AcDbPoint
 10
128.8463716721066
 20
202.9508552930745
 30
0.0
  0
ENDBLK
  5
36B
330
293
100
AcDbEntity
  8
0
100
AcDbBlockEnd
  0
BLOCK
  5
38D
330
2AB
100
AcDbEntity
  8
0
100
AcDbBlockBegin
  2
*D3
 70
     1
 10
0.0
 20
0.0
 30
0.0
  3
*D3
  1

  0
LINE
  5
5D0
330
2AB
100
AcDbEntity
  8
BEM
 62
     0
370
    -2
100
AcDbLine
 10
306.4681849245439
 20
516.3842136142383
 30
0.0
 11
306.4681849245439
 21
543.4251390361565
 31
0.0
  0
LINE
  5
5D1
330
2AB
100
AcDbEntity
  8
BEM
 62
     0
370
    -2
100
AcDbLine
 10
146.468184924544
 20
516.3842136142383
 30
0.0
 11
146.468184924544
 21
543.4251390361565
 31
0.0
  0
LINE
  5
5D2
330
2AB
100
AcDbEntity
  8
BEM
 62
     0
370
    -2
100
AcDbLine
 10
299.4681849245438
 20
541.4251390361564
 30
0.0
 11
153.4681849245439
 21
541.4251390361564
 31
0.0
  0
SOLID
  5
5D3
330
2AB
100
AcDbEntity
  8
BEM
 62
     0
100
AcDbTrace
 10
299.4681849245438
 20
542.5918057028231
 30
0.0
 11
299.4681849245438
 21
540.2584723694898
 31
0.0
 12
306.4681849245439
 22
541.4251390361564
 32
0.0
 13
306.4681849245439
 23
541.4251390361564
 33
0.0
  0
SOLID
  5
5D4
330
2AB
100
AcDbEntity
  8
BEM
 62
     0
100
AcDbTrace
 10
153.4681849245439
 20
542.5918057028231
 30
0.0
 11
153.4681849245439
 21
540.2584723694898
 31
0.0
 12
146.468184924544
 22
541.4251390361564
 32
0.0
 13
146.468184924544
 23
541.4251390361564
 33
0.0
  0
MTEXT
  5
5D5
330
2AB
100
AcDbEntity
  8
BEM
 62
     1
100
AcDbMText
 10
226.4681849245439
 20
547.9251390361564
 30
0.0
 40
7.0
 41
0.0
 71
     5
 72
     1
  1
\A1;160
 73
     1
 44
1.0
  0
POINT
  5
5D6
330
2AB
100
AcDbEntity
  8
DEFPOINTS
 62
     0
100
AcDbPoint
 10
306.4681849245439
 20
514.3842136142382
 30
0.0
  0
POINT
  5
5D7
330
2AB
100
AcDbEntity
  8
DEFPOINTS
 62
     0
100
AcDbPoint
 10
146.468184924544
 20
514.3842136142382
 30
0.0
  0
POINT
  5
5D8
330
2AB
100
AcDbEntity
  8
DEFPOINTS
 62
     0
100
AcDbPoint
 10
146.468184924544
 20
541.4251390361564
 30
0.0
  0
ENDBLK
  5
397
330
2AB
100
AcDbEntity
  8
0
100
AcDbBlockEnd
  0
BLOCK
  5
5A3
330
599
100
AcDbEntity
  8
0
100
AcDbBlockBegin
  2
*D4
 70
     1
 10
0.0
 20
0.0
 30
0.0
  3
*D4
  1

  0
LINE
  5
619
330
599
100
AcDbEntity
  8
BEM
 62
     0
370
    -2
100
AcDbLine
 10
244.4681849245439
 20
249.8300853948186
 30
0.0
 11
237.468184924544
 21
249.8300853948186
 31
0.0
  0
LINE
  5
61A
330
599
100
AcDbEntity
  8
BEM
 62
     0
370
    -2
100
AcDbLine
 10
259.968184924544
 20
249.8300853948186
 30
0.0
 11
283.6348515912106
 21
249.8300853948186
 31
0.0
  0
LINE
  5
61B
330
599
100
AcDbEntity
  8
BEM
 62
     0
370
    -2
100
AcDbLine
 10
251.468184924544
 20
249.8300853948186
 30
0.0
 11
252.9681849245439
 21
249.8300853948186
 31
0.0
  0
SOLID
  5
61C
330
599
100
AcDbEntity
  8
BEM
 62
     0
100
AcDbTrace
 10
244.4681849245439
 20
250.9967520614853
 30
0.0
 11
244.4681849245439
 21
248.663418728152
 31
0.0
 12
251.468184924544
 22
249.8300853948186
 32
0.0
 13
251.468184924544
 23
249.8300853948186
 33
0.0
  0
SOLID
  5
61D
330
599
100
AcDbEntity
  8
BEM
 62
     0
100
AcDbTrace
 10
259.968184924544
 20
250.9967520614853
 30
0.0
 11
259.968184924544
 21
248.663418728152
 31
0.0
 12
252.9681849245439
 22
249.8300853948186
 32
0.0
 13
252.9681849245439
 23
249.8300853948186
 33
0.0
  0
MTEXT
  5
61E
330
599
100
AcDbEntity
  8
BEM
 62
     1
100
AcDbMText
 10
275.3015182578772
 20
256.3300853948186
 30
0.0
 40
7.0
 41
0.0
 71
     5
 72
     1
  1
\A1;1.5
 73
     1
 44
1.0
  0
POINT
  5
61F
330
599
100
AcDbEntity
  8
DEFPOINTS
 62
     0
100
AcDbPoint
 10
251.468184924544
 20
249.8300853948186
 30
0.0
  0
POINT
  5
620
330
599
100
AcDbEntity
  8
DEFPOINTS
 62
     0
100
AcDbPoint
 10
252.9681849245439
 20
249.8300853948186
 30
0.0
  0
POINT
  5
621
330
599
100
AcDbEntity
  8
DEFPOINTS
 62
     0
100
AcDbPoint
 10
252.9681849245439
 20
249.8300853948186
 30
0.0
  0
ENDBLK
  5
5A4
330
599
100
AcDbEntity
  8
0
100
AcDbBlockEnd
  0
ENDSEC
  0
SECTION
  2
ENTITIES
  0
TEXT
  5
101
330
17
100
AcDbEntity
  8
TEXT
100
AcDbText
 10
204.4216048581257
 20
63.0896391972351
 30
0.0
 40
4.0
  1
Koeh
 41
0.8
  7
GREEKS
 72
     1
 11
209.6787477152686
 21
63.0896391972351
 31
0.0
100
AcDbText
  0
INSERT
  5
15F
330
17
100
AcDbEntity
  8
STEMPEL
100
AcDbBlockReference
  2
LOGO
 10
150.9955485457794
 20
45.02105276448322
 30
0.0
 41
2.0
 42
2.0
 43
2.0
  0
LINE
  5
160
330
17
100
AcDbEntity
  8
HILF
100
AcDbLine
 10
420.0
 20
0.0
 30
0.0
 11
0.0
 21
0.0
 31
0.0
  0
LINE
  5
161
330
17
100
AcDbEntity
  8
HILF
100
AcDbLine
 10
419.9999999999999
 20
594.0000000000002
 30
0.0
 11
0.0
 21
594.0
 31
0.0
  0
LINE
  5
162
330
17
100
AcDbEntity
  8
STEMPEL
100
AcDbLine
 10
410.0
 20
584.0
 30
0.0
 11
39.99999999999989
 21
584.0
 31
0.0
  0
LINE
  5
163
330
17
100
AcDbEntity
  8
STEMPEL
100
AcDbLine
 10
410.0
 20
10.0
 30
0.0
 11
39.99999999999989
 21
10.0
 31
0.0
  0
LINE
  5
164
330
17
100
AcDbEntity
  8
STEMPEL
100
AcDbLine
 10
49.99999999999989
 20
10.0
 30
0.0
 11
410.0
 21
10.0
 31
0.0
  0
TEXT
  5
165
330
17
100
AcDbEntity
  8
TEXT
100
AcDbText
 10
202.4626584226295
 20
73.30961091915225
 30
0.0
 40
4.0
  1
Name
 41
0.8
  7
GREEKS
100
AcDbText
  0
TEXT
  5
166
330
17
100
AcDbEntity
  8
TEXT
100
AcDbText
 10
195.7332228374648
 20
102.4184168434819
 30
0.0
 40
5.0
  1
Zul. Abw.
 41
0.8
  7
GREEKS
100
AcDbText
  0
LINE
  5
167
330
17
100
AcDbEntity
  8
HILF
100
AcDbLine
 10
146.0000000000001
 20
49.99999999999997
 30
0.0
 11
230.0
 21
49.99999999999997
 31
0.0
  0
LINE
  5
168
330
17
100
AcDbEntity
  8
HILF
100
AcDbLine
 10
146.0000000000001
 20
59.99999999999997
 30
0.0
 11
230.0
 21
59.99999999999997
 31
0.0
  0
LINE
  5
169
330
17
100
AcDbEntity
  8
HILF
100
AcDbLine
 10
146.0000000000001
 20
69.99999999999994
 30
0.0
 11
230.0
 21
69.99999999999994
 31
0.0
  0
LINE
  5
16A
330
17
100
AcDbEntity
  8
STEMPEL
100
AcDbLine
 10
410.0
 20
80.0
 30
0.0
 11
146.0000000000001
 21
79.99999999999994
 31
0.0
  0
LINE
  5
16B
330
17
100
AcDbEntity
  8
STEMPEL
100
AcDbLine
 10
410.0
 20
40.0
 30
0.0
 11
146.0000000000001
 21
39.99999999999997
 31
0.0
  0
LINE
  5
16C
330
17
100
AcDbEntity
  8
STEMPEL
100
AcDbLine
 10
410.0
 20
110.0
 30
0.0
 11
39.99999999999997
 21
110.0
 31
0.0
  0
LINE
  5
16F
330
17
100
AcDbEntity
  8
HILF
100
AcDbLine
 10
0.0
 20
0.0
 30
0.0
 11
-0.0000000000001137
 21
594.0
 31
0.0
  0
LINE
  5
170
330
17
100
AcDbEntity
  8
STEMPEL
100
AcDbLine
 10
40.0
 20
10.0
 30
0.0
 11
39.99999999999989
 21
584.0
 31
0.0
  0
TEXT
  5
171
330
17
100
AcDbEntity
  8
TEXT
100
AcDbText
 10
41.85509950977674
 20
111.6719999999999
 30
0.0
 40
5.0
  1
Erstellt mit AUTOCAD 2004
 41
0.8
  7
GREEKS
100
AcDbText
  0
TEXT
  5
172
330
17
100
AcDbEntity
  8
TEXT
100
AcDbText
 10
67.24852368668987
 20
18.67381894984132
 30
0.0
 40
4.0
  1
Änderung
 41
0.8
 72
     1
 11
77.99138082954701
 21
18.67381894984132
 31
0.0
100
AcDbText
  0
LINE
  5
173
330
17
100
AcDbEntity
  8
HILF
100
AcDbLine
 10
40.00000000000008
 20
39.99999999999997
 30
0.0
 11
146.0000000000001
 21
39.99999999999997
 31
0.0
  0
LINE
  5
174
330
17
100
AcDbEntity
  8
HILF
100
AcDbLine
 10
40.00000000000008
 20
49.99999999999997
 30
0.0
 11
146.0000000000001
 21
49.99999999999997
 31
0.0
  0
LINE
  5
175
330
17
100
AcDbEntity
  8
HILF
100
AcDbLine
 10
40.00000000000008
 20
59.99999999999997
 30
0.0
 11
146.0000000000001
 21
59.99999999999997
 31
0.0
  0
LINE
  5
176
330
17
100
AcDbEntity
  8
HILF
100
AcDbLine
 10
40.00000000000008
 20
69.99999999999994
 30
0.0
 11
146.0000000000001
 21
69.99999999999994
 31
0.0
  0
LINE
  5
177
330
17
100
AcDbEntity
  8
HILF
100
AcDbLine
 10
40.00000000000008
 20
79.99999999999994
 30
0.0
 11
146.0000000000001
 21
79.99999999999994
 31
0.0
  0
LINE
  5
178
330
17
100
AcDbEntity
  8
HILF
100
AcDbLine
 10
40.00000000000008
 20
90.00000000000005
 30
0.0
 11
146.0000000000001
 21
90.00000000000005
 31
0.0
  0
LINE
  5
179
330
17
100
AcDbEntity
  8
HILF
100
AcDbLine
 10
40.00000000000008
 20
100.0
 30
0.0
 11
146.0000000000001
 21
100.0
 31
0.0
  0
LINE
  5
17A
330
17
100
AcDbEntity
  8
STEMPEL
100
AcDbLine
 10
145.9999999999999
 20
29.99999999999997
 30
0.0
 11
39.99999999999997
 21
29.99999999999997
 31
0.0
  0
TEXT
  5
17B
330
17
100
AcDbEntity
  8
TEXT
100
AcDbText
 10
48.26641107045756
 20
13.65465846027192
 30
0.0
 40
4.0
  1
Index
 50
90.0
 41
0.8
  7
GREEKS
100
AcDbText
  0
LINE
  5
17C
330
17
100
AcDbEntity
  8
VOLL
100
AcDbLine
 10
54.00000000000009
 20
110.0
 30
0.0
 11
53.99999999999997
 21
9.999999999999971
 31
0.0
  0
LINE
  5
17D
330
17
100
AcDbEntity
  8
HILF
100
AcDbLine
 10
31.08767135713856
 20
297.0
 30
0.0
 11
0.0000000000001137
 21
297.0
 31
0.0
  0
TEXT
  5
17E
330
17
100
AcDbEntity
  8
TEXT
100
AcDbText
 10
109.8414877122666
 20
18.6715626933981
 30
0.0
 40
4.0
  1
Tag
 41
0.8
 72
     1
 11
113.5748210455999
 21
18.6715626933981
 31
0.0
100
AcDbText
  0
LINE
  5
17F
330
17
100
AcDbEntity
  8
VOLL
100
AcDbLine
 10
124.0000000000001
 20
109.9999999999999
 30
0.0
 11
124.0
 21
9.999999999999971
 31
0.0
  0
LINE
  5
180
330
17
100
AcDbEntity
  8
VOLL
100
AcDbLine
 10
104.0000000000001
 20
109.9999999999999
 30
0.0
 11
104.0
 21
9.999999999999971
 31
0.0
  0
TEXT
  5
181
330
17
100
AcDbEntity
  8
TEXT
100
AcDbText
 10
129.4448790234934
 20
18.59324216966408
 30
0.0
 40
4.0
  1
Name
 41
0.8
 72
     1
 11
135.768688547303
 21
18.59324216966408
 31
0.0
100
AcDbText
  0
LINE
  5
182
330
17
100
AcDbEntity
  8
STEMPEL
100
AcDbLine
 10
146.0000000000001
 20
109.9999999999999
 30
0.0
 11
146.0
 21
9.999999999999971
 31
0.0
  0
TEXT
  5
183
330
17
100
AcDbEntity
  8
TEXT
100
AcDbText
 10
170.7037590129979
 20
63.10765040825732
 30
0.0
 40
4.0
  1
31.08.
 41
0.8
  7
GREEKS
 72
     1
 11
177.4085209177598
 21
63.10765040825732
 31
0.0
100
AcDbText
  0
TEXT
  5
184
330
17
100
AcDbEntity
  8
TEXT
100
AcDbText
 10
172.331167315365
 20
73.31880501229926
 30
0.0
 40
4.0
  1
Tag
 41
0.8
  7
GREEKS
100
AcDbText
  0
TEXT
  5
185
330
17
100
AcDbEntity
  8
TEXT
100
AcDbText
 10
147.5836127167615
 20
63.62990369617964
 30
0.0
 40
4.0
  1
Gez.
 41
0.8
  7
GREEKS
100
AcDbText
  0
LINE
  5
186
330
17
100
AcDbEntity
  8
VOLL
100
AcDbLine
 10
164.0000000000001
 20
79.99999999999994
 30
0.0
 11
164.0000000000001
 21
39.99999999999997
 31
0.0
  0
TEXT
  5
187
330
17
100
AcDbEntity
  8
TEXT
100
AcDbText
 10
147.6006777387303
 20
43.52946389649807
 30
0.0
 40
4.0
  1
Norm.
 41
0.8
  7
GREEKS
100
AcDbText
  0
TEXT
  5
188
330
17
100
AcDbEntity
  8
TEXT
100
AcDbText
 10
147.5515086571672
 20
53.68926291428377
 30
0.0
 40
4.0
  1
Gepr.
 41
0.8
  7
GREEKS
100
AcDbText
  0
TEXT
  5
189
330
17
100
AcDbEntity
  8
TEXT
 62
     1
100
AcDbText
 10
160.5006306481887
 20
88.14901428913959
 30
0.0
 40
7.0
  1
1:2
 41
0.8
  7
GREEKS
100
AcDbText
  0
TEXT
  5
18A
330
17
100
AcDbEntity
  8
TEXT
100
AcDbText
 10
153.5163572150377
 20
102.4620895087088
 30
0.0
 40
5.0
  1
Maßstab
 41
0.8
  7
GREEKS
100
AcDbText
  0
TEXT
  5
18B
330
17
100
AcDbEntity
  8
TEXT
100
AcDbText
 10
148.622109822104
 20
73.14025471151666
 30
0.0
 40
4.0
  1
2007
 41
0.8
  7
GREEKS
100
AcDbText
  0
LINE
  5
18C
330
17
100
AcDbEntity
  8
VOLL
100
AcDbLine
 10
190.0000000000001
 20
109.9999999999998
 30
0.0
 11
190.0
 21
39.99999999999997
 31
0.0
  0
LINE
  5
1AC
330
17
100
AcDbEntity
  8
HILF
100
AcDbLine
 10
420.0
 20
-0.0000000000001137
 30
0.0
 11
419.9999999999999
 21
594.0
 31
0.0
  0
LINE
  5
1AD
330
17
100
AcDbEntity
  8
STEMPEL
100
AcDbLine
 10
410.0
 20
10.0
 30
0.0
 11
410.0
 21
584.0
 31
0.0
  0
TEXT
  5
1AE
330
17
100
AcDbEntity
  8
TEXT
100
AcDbText
 10
337.2400861497006
 20
52.07416177878602
 30
0.0
 40
5.0
  1
ersetzt durch:
 41
0.8
  7
GREEKS
100
AcDbText
  0
TEXT
  5
1AF
330
17
100
AcDbEntity
  8
TEXT
100
AcDbText
 10
336.7238616296993
 20
73.1811823709997
 30
0.0
 40
5.0
  1
Ersatz für:
 41
0.8
  7
GREEKS
100
AcDbText
  0
TEXT
  5
1B0
330
17
100
AcDbEntity
  8
TEXT
100
AcDbText
 10
336.178754957634
 20
102.3132034537136
 30
0.0
 40
5.0
  1
Zeichnungs Nr.
 41
0.8
  7
GREEKS
100
AcDbText
  0
LINE
  5
1B1
330
17
100
AcDbEntity
  8
HILF
100
AcDbLine
 10
233.4909699289885
 20
14.89398258028314
 30
0.0
 11
404.8588839326728
 21
14.89398258028314
 31
0.0
  0
LINE
  5
1B2
330
17
100
AcDbEntity
  8
HILF
100
AcDbLine
 10
336.7238616296993
 20
83.77983636955827
 30
0.0
 11
404.8588839326728
 21
83.77983636955827
 31
0.0
  0
LINE
  5
1B3
330
17
100
AcDbEntity
  8
VOLL
100
AcDbLine
 10
332.0
 20
60.0
 30
0.0
 11
410.0
 21
60.0
 31
0.0
  0
TEXT
  5
1B4
330
17
100
AcDbEntity
  8
TEXT
100
AcDbText
 10
235.1296391125315
 20
51.64011943042158
 30
0.0
 40
5.0
  1
EDV-Art.Nr. 00512.BB0X
 41
0.8
  7
GREEKS
100
AcDbText
  0
TEXT
  5
1B5
330
17
100
AcDbEntity
  8
TEXT
 62
     1
100
AcDbText
 10
234.8479608684915
 20
87.41748789253779
 30
0.0
 40
7.0
  1
Hosen T-Stück DN50
 41
0.75
  7
GREEKS
100
AcDbText
  0
LINE
  5
1B6
330
17
100
AcDbEntity
  8
HILF
100
AcDbLine
 10
234.7736801096947
 20
49.99999999999997
 30
0.0
 11
324.835391655631
 21
49.99999999999997
 31
0.0
  0
LINE
  5
1B7
330
17
100
AcDbEntity
  8
HILF
100
AcDbLine
 10
234.7736801096947
 20
59.99999999999997
 30
0.0
 11
324.835391655631
 21
59.99999999999997
 31
0.0
  0
LINE
  5
1B8
330
17
100
AcDbEntity
  8
HILF
100
AcDbLine
 10
234.7736801096947
 20
69.99999999999994
 30
0.0
 11
324.835391655631
 21
69.99999999999994
 31
0.0
  0
LINE
  5
1B9
330
17
100
AcDbEntity
  8
HILF
100
AcDbLine
 10
234.7736801096947
 20
84.03758247564139
 30
0.0
 11
324.8353916556311
 21
84.03758247564139
 31
0.0
  0
LINE
  5
1BA
330
17
100
AcDbEntity
  8
STEMPEL
100
AcDbLine
 10
230.0
 20
110.0
 30
0.0
 11
230.0
 21
9.999999999999971
 31
0.0
  0
TEXT
  5
1BB
330
17
100
AcDbEntity
  8
TEXT
100
AcDbText
 10
234.9837501577827
 20
42.62974153022632
 30
0.0
 40
4.0
  1
00512BB0W.DWG
 41
0.8
  7
GREEKS
100
AcDbText
  0
TEXT
  5
1BC
330
17
100
AcDbEntity
  8
TEXT
100
AcDbText
 10
234.742238391136
 20
30.84560570193057
 30
0.0
 40
5.0
  1
Bauvorhaben
 41
0.8
  7
GREEKS
100
AcDbText
  0
TEXT
  5
1BD
330
17
100
AcDbEntity
  8
TEXT
100
AcDbText
 10
234.877940380901
 20
102.5489328011779
 30
0.0
 40
5.0
  1
Benennung
 41
0.8
  7
GREEKS
100
AcDbText
  0
LINE
  5
1BE
330
17
100
AcDbEntity
  8
STEMPEL
100
AcDbLine
 10
332.0
 20
109.9999999999997
 30
0.0
 11
332.0
 21
40.0
 31
0.0
  0
TEXT
  5
1C0
330
17
100
AcDbEntity
  8
TEXT
 62
     1
100
AcDbText
 10
346.2923388482617
 20
88.14901428913959
 30
0.0
 40
7.0
  1
00512BB0W
 41
0.8
  7
GREEKS
 72
     1
 11
370.025672181595
 21
88.14901428913959
 31
0.0
100
AcDbText
  0
LINE
  5
204
330
17
100
AcDbEntity
  8
HILF
100
AcDbLine
 10
181.9354014382501
 20
457.179283831924
 30
0.0
 11
181.9354014382501
 21
512.3764370966789
 31
0.0
  0
LINE
  5
205
330
17
100
AcDbEntity
  8
HILF
100
AcDbLine
 10
186.9938296160512
 20
459.4146678935953
 30
0.0
 11
186.9938296160512
 21
510.1410530350076
 31
0.0
  0
LINE
  5
206
330
17
100
AcDbEntity
  8
STEMPEL
100
AcDbLine
 10
146.468184924544
 20
514.3842136142382
 30
0.0
 11
146.4681849245439
 21
455.1715073143648
 31
0.0
  0
ARC
  5
207
330
17
100
AcDbEntity
  8
STEMPEL
100
AcDbCircle
 10
170.9681849245439
 20
445.2778604643015
 30
0.0
 40
10.0
100
AcDbArc
 50
90.0
 51
109.4630994446888
  0
ARC
  5
208
330
17
100
AcDbEntity
  8
STEMPEL
100
AcDbCircle
 10
179.059858011348
 20
467.2778604643015
 30
0.0
 40
12.0
100
AcDbArc
 50
270.0
 51
301.7883306170515
  0
ARC
  5
209
330
17
100
AcDbEntity
  8
STEMPEL
100
AcDbCircle
 10
189.5955117642007
 20
450.2778604643014
 30
0.0
 40
8.0
100
AcDbArc
 50
98.17910455865543
 51
121.7883306170514
  0
LINE
  5
20A
330
17
100
AcDbEntity
  8
STEMPEL
100
AcDbLine
 10
170.9681849245439
 20
455.2778604643015
 30
0.0
 11
179.059858011348
 21
455.2778604643015
 31
0.0
  0
ARC
  5
20B
330
17
100
AcDbEntity
  8
STEMPEL
100
AcDbCircle
 10
154.8506862672048
 20
472.7778604643015
 30
0.0
 40
19.5
100
AcDbArc
 50
244.5405714311901
 51
270.0
  0
ARC
  5
20C
330
17
100
AcDbEntity
  8
STEMPEL
100
AcDbCircle
 10
159.3061849245439
 20
478.2778604643016
 30
0.0
 40
25.00003205712822
100
AcDbArc
 50
269.9082450082406
 51
289.4630994446887
  0
LINE
  5
20D
330
17
100
AcDbEntity
  8
STEMPEL
100
AcDbLine
 10
154.8506862672048
 20
453.2778604643015
 30
0.0
 11
159.2661492225356
 21
453.2778604643015
 31
0.0
  0
ARC
  5
20E
330
17
100
AcDbEntity
  8
STEMPEL
100
AcDbCircle
 10
170.9681849245438
 20
524.2778604643015
 30
0.0
 40
10.0
100
AcDbArc
 50
250.5369005553113
 51
270.0000000000001
  0
LINE
  5
20F
330
17
100
AcDbEntity
  8
MITTEL
100
AcDbLine
 10
141.468184924544
 20
484.7778604643015
 30
0.0
 11
311.4681849245439
 21
484.7778604643016
 31
0.0
  0
ARC
  5
210
330
17
100
AcDbEntity
  8
STEMPEL
100
AcDbCircle
 10
179.0598580113479
 20
502.2778604643015
 30
0.0
 40
12.0
100
AcDbArc
 50
58.21166938294864
 51
90.00000000000012
  0
ARC
  5
211
330
17
100
AcDbEntity
  8
STEMPEL
100
AcDbCircle
 10
189.5955117642006
 20
519.2778604643015
 30
0.0
 40
8.0
100
AcDbArc
 50
238.2116693829487
 51
270.0000000000001
  0
LINE
  5
212
330
17
100
AcDbEntity
  8
STEMPEL
100
AcDbLine
 10
170.9681849245438
 20
514.2778604643015
 30
0.0
 11
179.0598580113479
 21
514.2778604643015
 31
0.0
  0
ARC
  5
213
330
17
100
AcDbEntity
  8
STEMPEL
100
AcDbCircle
 10
154.8506862672047
 20
496.7778604643014
 30
0.0
 40
19.5
100
AcDbArc
 50
90.00000000000012
 51
115.4594285688052
  0
ARC
  5
214
330
17
100
AcDbEntity
  8
STEMPEL
100
AcDbCircle
 10
159.3061849245439
 20
491.2778604643015
 30
0.0
 40
25.00003205712822
100
AcDbArc
 50
70.53690055531143
 51
90.09175499175956
  0
LINE
  5
215
330
17
100
AcDbEntity
  8
STEMPEL
100
AcDbLine
 10
154.8506862672047
 20
516.2778604643015
 30
0.0
 11
159.2661492225355
 21
516.2778604643015
 31
0.0
  0
LINE
  5
217
330
17
100
AcDbEntity
  8
STEMPEL
100
AcDbLine
 10
189.5955117642006
 20
511.2778604643016
 30
0.0
 11
217.5686899917895
 21
511.2778604643015
 31
0.0
  0
LINE
  5
218
330
17
100
AcDbEntity
  8
MITTEL
100
AcDbLine
 10
226.468184924544
 20
487.0766579306412
 30
0.0
 11
226.468184924544
 21
197.9508552930744
 31
0.0
  0
LINE
  5
219
330
17
100
AcDbEntity
  8
HILF
100
AcDbLine
 10
283.9120543987453
 20
456.61238169227
 30
0.0
 11
283.9120543987453
 21
512.943339236333
 31
0.0
  0
LINE
  5
21A
330
17
100
AcDbEntity
  8
HILF
100
AcDbLine
 10
271.0009684108377
 20
457.179283831924
 30
0.0
 11
271.0009684108377
 21
512.3764370966789
 31
0.0
  0
LINE
  5
21B
330
17
100
AcDbEntity
  8
HILF
100
AcDbLine
 10
265.9425402330366
 20
459.4146678935953
 30
0.0
 11
265.9425402330366
 21
510.1410530350076
 31
0.0
  0
LINE
  5
21C
330
17
100
AcDbEntity
  8
STEMPEL
100
AcDbLine
 10
306.4681849245439
 20
514.3842136142382
 30
0.0
 11
306.4681849245439
 21
455.1715073143648
 31
0.0
  0
ARC
  5
21D
330
17
100
AcDbEntity
  8
STEMPEL
100
AcDbCircle
 10
273.8765118377398
 20
467.2778604643015
 30
0.0
 40
12.0
100
AcDbArc
 50
238.2116693829485
 51
270.0
  0
ARC
  5
21F
330
17
100
AcDbEntity
  8
STEMPEL
100
AcDbCircle
 10
298.0856835818831
 20
472.7778604643015
 30
0.0
 40
19.5
100
AcDbArc
 50
270.0
 51
295.4594285688099
  0
ARC
  5
220
330
17
100
AcDbEntity
  8
STEMPEL
100
AcDbCircle
 10
293.6301849245439
 20
478.2778604643016
 30
0.0
 40
25.00003205712822
100
AcDbArc
 50
250.5369005553113
 51
270.0917549917595
  0
LINE
  5
221
330
17
100
AcDbEntity
  8
STEMPEL
100
AcDbLine
 10
298.0856835818831
 20
453.2778604643015
 30
0.0
 11
293.6702206265522
 21
453.2778604643015
 31
0.0
  0
LINE
  5
222
330
17
100
AcDbEntity
  8
STEMPEL
100
AcDbLine
 10
281.9681849245439
 20
455.2778604643015
 30
0.0
 11
273.8765118377398
 21
455.2778604643015
 31
0.0
  0
ARC
  5
223
330
17
100
AcDbEntity
  8
STEMPEL
100
AcDbCircle
 10
281.9681849245439
 20
445.2778604643015
 30
0.0
 40
10.0
100
AcDbArc
 50
70.5369005553112
 51
90.0
  0
ARC
  5
224
330
17
100
AcDbEntity
  8
STEMPEL
100
AcDbCircle
 10
263.3408580848871
 20
450.2778604643014
 30
0.0
 40
8.0
100
AcDbArc
 50
58.21166938294855
 51
81.82089544134335
  0
ARC
  5
226
330
17
100
AcDbEntity
  8
STEMPEL
100
AcDbCircle
 10
273.8765118377399
 20
502.2778604643015
 30
0.0
 40
12.0
100
AcDbArc
 50
89.99999999999991
 51
121.7883306170513
  0
ARC
  5
227
330
17
100
AcDbEntity
  8
STEMPEL
100
AcDbCircle
 10
298.0856835818831
 20
496.7778604643014
 30
0.0
 40
19.5
100
AcDbArc
 50
64.54057143119475
 51
89.99999999999991
  0
ARC
  5
228
330
17
100
AcDbEntity
  8
STEMPEL
100
AcDbCircle
 10
293.6301849245439
 20
491.2778604643015
 30
0.0
 40
25.00003205712822
100
AcDbArc
 50
89.90824500824045
 51
109.4630994446885
  0
LINE
  5
229
330
17
100
AcDbEntity
  8
STEMPEL
100
AcDbLine
 10
298.0856835818831
 20
516.2778604643015
 30
0.0
 11
293.6702206265522
 21
516.2778604643015
 31
0.0
  0
ARC
  5
22A
330
17
100
AcDbEntity
  8
STEMPEL
100
AcDbCircle
 10
281.968184924544
 20
524.2778604643015
 30
0.0
 40
10.0
100
AcDbArc
 50
269.9999999999999
 51
289.4630994446886
  0
LINE
  5
22B
330
17
100
AcDbEntity
  8
STEMPEL
100
AcDbLine
 10
281.9681849245439
 20
514.2778604643015
 30
0.0
 11
273.8765118377399
 21
514.2778604643015
 31
0.0
  0
ARC
  5
22C
330
17
100
AcDbEntity
  8
STEMPEL
100
AcDbCircle
 10
263.3408580848873
 20
519.2778604643015
 30
0.0
 40
8.0
100
AcDbArc
 50
269.9999999999999
 51
301.7883306170513
  0
LINE
  5
230
330
17
100
AcDbEntity
  8
STEMPEL
100
AcDbLine
 10
226.4681849036867
 20
505.2778604643016
 30
0.0
 11
222.5184374755812
 21
509.2276079171215
 31
0.0
  0
LINE
  5
234
330
17
100
AcDbEntity
  8
STEMPEL
100
AcDbLine
 10
199.9681849245439
 20
445.2846488973178
 30
0.0
 11
199.9681849245439
 21
321.0562523859615
 31
0.0
  0
LINE
  5
238
330
17
100
AcDbEntity
  8
STEMPEL
100
AcDbLine
 10
252.9681849245441
 20
445.2846488973178
 30
0.0
 11
252.9681849245439
 21
321.0562523859614
 31
0.0
  0
LINE
  5
24E
330
17
100
AcDbEntity
  8
STEMPEL
100
AcDbLine
 10
200.4681849245439
 20
202.9508552930745
 30
0.0
 11
252.4681849245439
 21
202.9508552930745
 31
0.0
  0
LINE
  5
251
330
17
100
AcDbEntity
  8
HILF
100
AcDbLine
 10
201.468184924544
 20
207.9508552930745
 30
0.0
 11
251.4681849245439
 21
207.9508552930745
 31
0.0
  0
LINE
  5
252
330
17
100
AcDbEntity
  8
STEMPEL
100
AcDbLine
 10
199.9681849245439
 20
207.9508552930745
 30
0.0
 11
200.4681849245439
 21
202.9508552930745
 31
0.0
  0
LINE
  5
253
330
17
100
AcDbEntity
  8
STEMPEL
100
AcDbLine
 10
252.4681849245439
 20
202.9508552930745
 30
0.0
 11
252.9681849245439
 21
207.9508552930745
 31
0.0
  0
SPLINE
  5
259
330
17
100
AcDbEntity
  8
HILF
100
AcDbSpline
210
0.0
220
0.0
230
1.0
 70
     8
 71
     3
 72
    10
 73
     6
 74
     4
 42
0.0000000001
 43
0.0000000001
 44
0.0000000001
 40
0.0
 40
0.0
 40
0.0
 40
0.0
 40
15.18841996185322
 40
45.56525988555967
 40
60.75367984741292
 40
60.75367984741292
 40
60.75367984741292
 40
60.75367984741292
 10
199.9681849245439
 20
321.0562523859615
 30
0.0
 10
204.3848515912106
 20
324.7685832217579
 30
0.0
 10
217.6348515912106
 20
335.9055757291473
 30
0.0
 10
235.3015182578772
 20
306.2069290427754
 30
0.0
 10
248.5515182578773
 20
317.3439215501649
 30
0.0
 10
252.968184924544
 20
321.0562523859615
 30
0.0
 11
199.9681849245439
 21
321.0562523859615
 31
0.0
 11
213.2181849245439
 21
328.4809140575544
 31
0.0
 11
239.7181849245439
 21
313.6315907143685
 31
0.0
 11
252.968184924544
 21
321.0562523859615
 31
0.0
  0
SPLINE
  5
25A
330
17
100
AcDbEntity
  8
HILF
100
AcDbSpline
210
0.0
220
0.0
230
1.0
 70
     8
 71
     3
 72
    10
 73
     6
 74
     4
 42
0.0000000001
 43
0.0000000001
 44
0.0000000001
 40
0.0
 40
0.0
 40
0.0
 40
0.0
 40
15.18841996185322
 40
45.56525988555967
 40
60.75367984741292
 40
60.75367984741292
 40
60.75367984741292
 40
60.75367984741292
 10
199.9681849245439
 20
311.944166272762
 30
0.0
 10
204.3848515912106
 20
315.6564971085585
 30
0.0
 10
217.6348515912106
 20
326.7934896159478
 30
0.0
 10
235.3015182578772
 20
297.094842929576
 30
0.0
 10
248.5515182578773
 20
308.2318354369655
 30
0.0
 10
252.968184924544
 20
311.944166272762
 30
0.0
 11
199.9681849245439
 21
311.944166272762
 31
0.0
 11
213.2181849245439
 21
319.3688279443549
 31
0.0
 11
239.7181849245439
 21
304.519504601169
 31
0.0
 11
252.968184924544
 21
311.944166272762
 31
0.0
  0
LINE
  5
25B
330
17
100
AcDbEntity
  8
STEMPEL
100
AcDbLine
 10
252.9681849245439
 20
311.944166272762
 30
0.0
 11
252.9681849245439
 21
207.9508552930745
 31
0.0
  0
LINE
  5
25C
330
17
100
AcDbEntity
  8
STEMPEL
100
AcDbLine
 10
199.9681849245439
 20
311.944166272762
 30
0.0
 11
199.9681849245439
 21
207.9508552930745
 31
0.0
  0
LINE
  5
25E
330
17
100
AcDbEntity
  8
STEMPEL
100
AcDbLine
 10
226.4681849036868
 20
505.2778604643015
 30
0.0
 11
230.417932412192
 21
509.2276079480929
 31
0.0
  0
LINE
  5
261
330
17
100
AcDbEntity
  8
STEMPEL
100
AcDbLine
 10
235.3676798650124
 20
511.2778604643016
 30
0.0
 11
263.3408580848873
 21
511.2778604643016
 31
0.0
  0
DIMENSION
  5
271
330
17
100
AcDbEntity
  8
BEM
100
AcDbDimension
  2
*D1
 10
252.9681849245439
 20
177.0146783521495
 30
0.0
 11
226.468184924544
 21
183.5146783521495
 31
0.0
 70
    32
  1
%%c<>
 71
     5
 42
52.99999999999997
  3
STANDARD
100
AcDbAlignedDimension
 13
199.9681849245439
 23
207.9508552930745
 33
0.0
 14
252.9681849245439
 24
207.9508552930745
 34
0.0
100
AcDbRotatedDimension
  0
DIMENSION
  5
29F
330
17
100
AcDbEntity
  8
BEM
100
AcDbDimension
  2
*D2
 10
128.8463716721066
 20
202.9508552930745
 30
0.0
 11
122.3463716721066
 21
343.8643578786881
 31
0.0
 70
    32
  1
500
 71
     5
 42
281.8270051712271
  3
STANDARD
100
AcDbAlignedDimension
 13
141.468184924544
 23
484.7778604643015
 33
0.0
 14
200.4681849245439
 24
202.9508552930745
 34
0.0
 50
90.0
100
AcDbRotatedDimension
  0
DIMENSION
  5
2B7
330
17
100
AcDbEntity
  8
BEM
100
AcDbDimension
  2
*D3
 10
146.468184924544
 20
541.4251390361564
 30
0.0
 11
226.4681849245439
 21
547.9251390361564
 31
0.0
 70
    32
 71
     5
 42
159.9999999999998
  3
STANDARD
100
AcDbAlignedDimension
 13
306.4681849245439
 23
514.3842136142382
 33
0.0
 14
146.468184924544
 24
514.3842136142382
 34
0.0
100
AcDbRotatedDimension
  0
TEXT
  5
2B8
330
17
100
AcDbEntity
  8
TEXT
 62
     1
100
AcDbText
 10
235.3307568995064
 20
490.992589062262
 30
0.0
 40
7.0
  1
DN50
 41
0.8
  7
GREEKS
100
AcDbText
  0
TEXT
  5
2B9
330
17
100
AcDbEntity
  8
TEXT
 62
     1
100
AcDbText
 10
222.3817258047824
 20
386.0121352609184
 30
0.0
 40
7.0
  1
DN50
 50
90.0
 41
0.8
  7
GREEKS
100
AcDbText
  0
LINE
  5
2F5
330
17
100
AcDbEntity
  8
HILF
100
AcDbLine
 10
169.0243154503425
 20
456.6123816922699
 30
0.0
 11
169.0243154503425
 21
512.943339236333
 31
0.0
  0
ARC
  5
450
330
17
100
AcDbEntity
  8
SCHRAFF
100
AcDbCircle
 10
200.9992007369572
 20
456.2778604643016
 30
0.0
 40
2.340756403570811
100
AcDbArc
 50
279.8943296804229
 51
80.10567031957711
  0
ARC
  5
451
330
17
100
AcDbEntity
  8
SCHRAFF
100
AcDbCircle
 10
207.1230038458733
 20
456.2778604643016
 30
0.0
 40
2.340756403570811
100
AcDbArc
 50
279.8943296804229
 51
80.10567031957711
  0
ARC
  5
452
330
17
100
AcDbEntity
  8
SCHRAFF
100
AcDbCircle
 10
225.4944131726214
 20
456.2778604643016
 30
0.0
 40
2.340756403570811
100
AcDbArc
 50
279.8943296804229
 51
80.10567031957711
  0
ARC
  5
453
330
17
100
AcDbEntity
  8
SCHRAFF
100
AcDbCircle
 10
213.2468069547893
 20
456.2778604643016
 30
0.0
 40
2.340756403570811
100
AcDbArc
 50
279.8943296804229
 51
80.10567031957711
  0
ARC
  5
454
330
17
100
AcDbEntity
  8
SCHRAFF
100
AcDbCircle
 10
219.3706100637053
 20
456.2778604643016
 30
0.0
 40
2.340756403570811
100
AcDbArc
 50
279.8943296804229
 51
80.10567031957711
  0
ARC
  5
455
330
17
100
AcDbEntity
  8
SCHRAFF
100
AcDbCircle
 10
231.6182162815374
 20
456.2778604643016
 30
0.0
 40
2.340756403570811
100
AcDbArc
 50
279.8943296804229
 51
80.10567031957711
  0
ARC
  5
456
330
17
100
AcDbEntity
  8
SCHRAFF
100
AcDbCircle
 10
237.7420193904534
 20
456.2778604643016
 30
0.0
 40
2.340756403570811
100
AcDbArc
 50
279.8943296804229
 51
80.10567031957711
  0
ARC
  5
457
330
17
100
AcDbEntity
  8
SCHRAFF
100
AcDbCircle
 10
249.9896256082855
 20
456.2778604643016
 30
0.0
 40
2.340756403570811
100
AcDbArc
 50
279.8943296804229
 51
80.10567031957711
  0
ARC
  5
458
330
17
100
AcDbEntity
  8
SCHRAFF
100
AcDbCircle
 10
243.8658224993695
 20
456.2778604643016
 30
0.0
 40
2.340756403570811
100
AcDbArc
 50
279.8943296804229
 51
80.10567031957711
  0
LINE
  5
46D
102
{ACAD_REACTORS
330
660
102
}
330
17
100
AcDbEntity
  8
STEMPEL
100
AcDbLine
 10
262.6808198205184
 20
457.5240692912193
 30
0.0
 11
254.3394295702841
 21
448.7244358934747
 31
0.0
  0
ARC
  5
47C
102
{ACAD_REACTORS
330
660
102
}
330
17
100
AcDbEntity
  8
STEMPEL
100
AcDbCircle
 10
264.1944658360567
 20
456.2168295505271
 30
0.0
 40
2.0
100
AcDbArc
 50
81.82089544134299
 51
139.1849161251183
  0
LINE
  5
47E
330
17
100
AcDbEntity
  8
STEMPEL
100
AcDbLine
 10
190.2555500285696
 20
457.5240692912193
 30
0.0
 11
198.5969402788039
 21
448.7244358934746
 31
0.0
  0
ARC
  5
47F
330
17
100
AcDbEntity
  8
STEMPEL
100
AcDbCircle
 10
188.7419040130312
 20
456.2168295505271
 30
0.0
 40
2.0
100
AcDbArc
 50
40.81508387488166
 51
98.179104558657
  0
ARC
  5
482
330
17
100
AcDbEntity
  8
STEMPEL
100
AcDbCircle
 10
257.968184924544
 20
445.2846488973178
 30
0.0
 40
5.0
100
AcDbArc
 50
136.5313639796971
 51
179.9999999999999
  0
ARC
  5
483
330
17
100
AcDbEntity
  8
STEMPEL
100
AcDbCircle
 10
194.9681849245439
 20
445.2846488973178
 30
0.0
 40
5.0
100
AcDbArc
 50
0.0
 51
43.46863602030292
  0
ARC
  5
4A3
330
17
100
AcDbEntity
  8
SCHRAFF
100
AcDbCircle
 10
256.1134287172015
 20
456.2778604643016
 30
0.0
 40
2.340756403570811
100
AcDbArc
 50
279.8943296804229
 51
80.10567031957711
  0
ARC
  5
4A4
330
17
100
AcDbEntity
  8
SCHRAFF
100
AcDbCircle
 10
194.8753976280412
 20
456.2778604643016
 30
0.0
 40
2.340756403570811
100
AcDbArc
 50
279.8943296804229
 51
80.10567031957711
  0
LINE
  5
4A8
330
17
100
AcDbEntity
  8
STEMPEL
100
AcDbLine
 10
191.4368622138331
 20
456.2778604643015
 30
0.0
 11
261.499507635255
 21
456.2778604643017
 31
0.0
  0
LINE
  5
4B0
330
17
100
AcDbEntity
  8
HILF
100
AcDbLine
 10
201.1989062620497
 20
447.136164928669
 30
0.0
 11
251.7374635870382
 21
447.1361649286688
 31
0.0
  0
ARC
  5
4D9
330
17
100
AcDbEntity
  8
STEMPEL
100
AcDbCircle
 10
235.3676798650124
 20
504.2778604643015
 30
0.0
 40
7.0
100
AcDbArc
 50
89.99999999999989
 51
134.999999820748
  0
ARC
  5
4DA
330
17
100
AcDbEntity
  8
STEMPEL
100
AcDbCircle
 10
217.5686899917895
 20
504.2778604643014
 30
0.0
 40
7.0
100
AcDbArc
 50
44.99999982074409
 51
90.0
  0
LINE
  5
591
330
17
100
AcDbEntity
  8
HILF
100
AcDbLine
 10
262.1508424351205
 20
459.0582382495963
 30
0.0
 11
226.468184924544
 21
484.7778604643015
 31
0.0
  0
LINE
  5
592
330
17
100
AcDbEntity
  8
HILF
100
AcDbLine
 10
226.468184924544
 20
484.7778604643015
 30
0.0
 11
190.7855274139675
 21
459.0582382495963
 31
0.0
  0
LINE
  5
597
330
17
100
AcDbEntity
  8
STEMPEL
100
AcDbLine
 10
251.468184924544
 20
264.7519662646022
 30
0.0
 11
251.4681849245439
 21
233.4395517619047
 31
0.0
  0
DIMENSION
  5
598
330
17
100
AcDbEntity
  8
BEM
100
AcDbDimension
  2
*D4
 10
252.9681849245439
 20
249.8300853948186
 30
0.0
 11
275.3015182578772
 21
256.3300853948186
 31
0.0
 70
    32
 71
     5
 42
1.5
  3
STANDARD
100
AcDbAlignedDimension
 13
251.468184924544
 23
249.8300853948186
 33
0.0
 14
252.9681849245439
 24
249.8300853948186
 34
0.0
100
AcDbRotatedDimension
  0
SPLINE
  5
5A5
330
17
100
AcDbEntity
  8
HILF
100
AcDbSpline
210
0.0
220
0.0
230
1.0
 70
     8
 71
     3
 72
    11
 73
     7
 74
     0
 42
0.0000000001
 43
0.0000000001
 40
1.77965888504073
 40
1.77965888504073
 40
1.77965888504073
 40
1.77965888504073
 40
15.27327068238913
 40
24.5549801501646
 40
35.66997145723713
 40
50.55503914474151
 40
50.55503914474151
 40
50.55503914474151
 40
50.55503914474151
 10
252.968184924544
 20
265.3445274117756
 30
0.0
 10
248.8027922677346
 20
263.7263745747095
 30
0.0
 10
241.8708175155816
 20
260.7398927488581
 30
0.0
 10
233.6816370685412
 20
250.7937096059992
 30
0.0
 10
240.7348364517168
 20
238.7967498643019
 30
0.0
 10
248.3612359909965
 20
234.6876341646265
 30
0.0
 10
252.9681849245439
 20
232.804349788696
 30
0.0
  0
HATCH
  5
5B4
330
17
100
AcDbEntity
  8
SCHRAFF
100
AcDbHatch
 10
0.0
 20
0.0
 30
0.0
210
0.0
220
0.0
230
1.0
  2
_USER
 70
     0
 71
     0
 91
        1
 92
        5
 93
        4
 72
     4
 94
        3
 73
     0
 74
     0
 95
        8
 96
        4
 40
1.77965888504073
 40
1.77965888504073
 40
1.77965888504073
 40
1.77965888504073
 40
3.402959860812622
 40
3.402959860812622
 40
3.402959860812622
 40
3.402959860812622
 10
252.968184924544
 20
265.3445274117756
 10
252.4670821756417
 20
265.1498612898501
 10
251.9668250624578
 20
264.9530063971217
 10
251.4681849245442
 20
264.7519662645984
 72
     1
 10
251.4681849245439
 20
264.7519662645983
 11
251.4681849245439
 21
233.4395517619047
 72
     4
 94
        3
 73
     0
 74
     0
 95
        8
 96
        4
 40
48.92947872728721
 40
48.92947872728721
 40
48.92947872728721
 40
48.92947872728721
 40
50.55503914474151
 40
50.55503914474151
 40
50.55503914474151
 40
50.55503914474151
 10
251.4681849245439
 20
233.4395517619047
 10
251.9648306988004
 20
233.2212828736652
 10
252.4650717383073
 20
233.0100184897454
 10
252.9681849245439
 20
232.804349788696
 72
     1
 10
252.9681849245439
 20
232.804349788696
 11
252.9681849245438
 21
265.3445274117755
 97
        0
 75
     0
 76
     0
 52
45.0
 41
2.0
 77
     0
 78
     1
 53
45.0
 43
0.0
 44
-42.85027330098728
 45
-1.414213562373094
 46
1.414213562373095
 79
     0
 47
0.2215580686191893
 98
        1
 10
252.4006223973006
 20
257.3387496444536
  0
TEXT
  5
5BC
330
17
100
AcDbEntity
  8
TEXT
 62
     1
100
AcDbText
 10
244.6057658946468
 20
129.0783465745483
 30
0.0
 40
7.0
  1
und innen beschichtet
 41
0.8
  7
GREEKS
100
AcDbText
  0
TEXT
  5
5BD
330
17
100
AcDbEntity
  8
TEXT
 62
     1
100
AcDbText
 10
196.6560484572489
 20
139.8004583895517
 30
0.0
 40
7.0
  1
Werkstoff: E195 EN10305 feuerverzinkt
 41
0.8
  7
GREEKS
100
AcDbText
  0
TEXT
  5
5BE
330
17
100
AcDbEntity
  8
TEXT
100
AcDbText
 10
192.9642555235824
 20
89.04628555175344
 30
0.0
 40
4.0
  1
DIN EN1123-2
 41
0.8
 72
     1
 11
209.9547317140586
 21
89.04628555175344
 31
0.0
100
AcDbText
  0
TEXT
  5
625
330
17
100
AcDbEntity
  8
TEXT
 62
     1
100
AcDbText
 10
266.2870124563148
 20
201.8414313378662
 30
0.0
 40
7.0
  1
Rohrende leicht eingezogen
 41
0.8
  7
GREEKS
100
AcDbText
  0
ARC
  5
654
330
17
100
AcDbEntity
  8
SCHRAFF
100
AcDbCircle
 10
193.2765800818179
 20
458.1116763620021
 30
0.0
 40
3.834226792535024
100
AcDbArc
 50
180.3218486039172
 51
270.8388184045897
  0
HATCH
  5
65B
330
17
100
AcDbEntity
  8
SCHRAFF
100
AcDbHatch
 10
0.0
 20
0.0
 30
0.0
210
0.0
220
0.0
230
1.0
  2
_USER
 70
     0
 71
     0
 91
        1
 92
        7
 72
     1
 73
     1
 93
        4
 10
193.2204484585362
 20
454.2778604643015
 42
0.0
 10
193.3327117051022
 20
454.2778604643016
 42
0.0
 10
190.2555500285696
 20
457.5240692912193
 42
0.125806369229168
 10
189.4424137822176
 20
458.0901384047406
 42
0.4082926592985815
 97
        0
 75
     0
 76
     0
 52
0.0
 41
0.1
 77
     0
 78
     1
 53
0.0
 43
0.0
 44
0.0
 45
0.0
 46
0.1
 79
     0
 47
0.0187516394376417
 98
        1
 10
190.2832846689193
 20
456.1687279149571
  0
ARC
  5
65C
102
{ACAD_REACTORS
330
660
102
}
330
17
100
AcDbEntity
  8
SCHRAFF
100
AcDbCircle
 10
259.6060250794311
 20
458.1665413683558
 30
0.0
 40
3.888681624399179
100
AcDbArc
 50
269.9651256048016
 51
358.8742073866929
  0
HATCH
  5
660
330
17
100
AcDbEntity
  8
SCHRAFF
100
AcDbHatch
 10
0.0
 20
0.0
 30
0.0
210
0.0
220
0.0
230
1.0
  2
_USER
 70
     0
 71
     1
 91
        1
 92
        7
 72
     1
 73
     1
 93
        3
 10
259.6036581439858
 20
454.2778604643014
 42
0.4086477737232378
 10
263.4939560668704
 20
458.0901384047406
 42
0.1258063692290851
 10
262.6808198205188
 20
457.5240692912197
 42
0.0
 97
        3
330
47C
330
46D
330
65C
 75
     0
 76
     0
 52
0.0
 41
0.1
 77
     0
 78
     1
 53
0.0
 43
0.0
 44
0.0
 45
0.0
 46
0.1
 79
     0
 47
0.0154031292314817
 98
        1
 10
262.3824585857869
 20
457.0240481835021
  0
TEXT
  5
66C
330
17
100
AcDbEntity
  8
BEM
100
AcDbText
 10
417.3022923857165
 20
10.16790107998849
 30
0.0
 40
4.0
  1
Diese Zeichnung ist urheberrechtlich geschützt und bleibt unser Eigentum. Sie darf weder ganz noch teilweise verfielfältigt und nicht an Dritte weitergegeben werden.
 50
90.0
 41
0.8
  7
GREEKS
100
AcDbText
  0
ENDSEC
  0
SECTION
  2
OBJECTS
  0
DICTIONARY
  5
C
330
0
100
AcDbDictionary
281
     1
  3
ACAD_COLOR
350
510
  3
ACAD_GROUP
350
D
  3
ACAD_LAYOUT
350
511
  3
ACAD_MATERIAL
350
50F
  3
ACAD_MLINESTYLE
350
1A
  3
ACAD_PLOTSETTINGS
350
512
  3
ACAD_PLOTSTYLENAME
350
50D
  3
ACDBVARIABLEDICTIONARY
350
37
  0
DICTIONARY
  5
510
102
{ACAD_REACTORS
330
C
102
}
330
C
100
AcDbDictionary
281
     1
  0
DICTIONARY
  5
D
102
{ACAD_REACTORS
330
C
102
}
330
C
100
AcDbDictionary
281
     1
  0
DICTIONARY
  5
511
102
{ACAD_REACTORS
330
C
102
}
330
C
100
AcDbDictionary
281
     1
  3
Layout1
350
514
  3
Model
350
513
  0
DICTIONARY
  5
50F
102
{ACAD_REACTORS
330
C
102
}
330
C
100
AcDbDictionary
281
     1
  0
DICTIONARY
  5
1A
102
{ACAD_REACTORS
330
C
102
}
330
C
100
AcDbDictionary
281
     1
  3
STANDARD
350
1B
  0
DICTIONARY
  5
512
102
{ACAD_REACTORS
330
C
102
}
330
C
100
AcDbDictionary
281
     1
  0
ACDBDICTIONARYWDFLT
  5
50D
102
{ACAD_REACTORS
330
C
102
}
330
C
100
AcDbDictionary
281
     1
  3
Normal
350
50E
100
AcDbDictionaryWithDefault
340
50E
  0
DICTIONARY
  5
37
102
{ACAD_REACTORS
330
C
102
}
330
C
100
AcDbDictionary
281
     1
  3
DIMADEC
350
38
  3
DIMASSOC
350
67F
  3
PROJECTNAME
350
680
  3
SORTENTS
350
23D
  0
LAYOUT
  5
514
102
{ACAD_REACTORS
330
511
102
}
330
511
100
AcDbPlotSettings
  1

  2
RICOH Aficio 2027 PCL 6
  4

  6

 40
0.0
 41
0.0
 42
0.0
 43
0.0
 44
0.0
 45
0.0
 46
0.0
 47
0.0
 48
0.0
 49
0.0
140
0.0
141
0.0
142
1.0
143
1.0
 70
   688
 72
     0
 73
     0
 74
     5
  7
monochrome1.ctb
 75
    16
147
1.0
 76
     0
 77
     2
 78
   300
148
0.0
149
0.0
100
AcDbLayout
  1
Layout1
 70
     0
 71
     1
 10
0.0
 20
0.0
 11
12.0
 21
9.0
 12
0.0
 22
0.0
 32
0.0
 14
1.000000000000000E+20
 24
1.000000000000000E+20
 34
1.000000000000000E+20
 15
-1.000000000000000E+20
 25
-1.000000000000000E+20
 35
-1.000000000000000E+20
146
0.0
 13
0.0
 23
0.0
 33
0.0
 16
1.0
 26
0.0
 36
0.0
 17
0.0
 27
1.0
 37
0.0
 76
     0
330
14
  0
LAYOUT
  5
513
102
{ACAD_REACTORS
330
511
102
}
330
511
100
AcDbPlotSettings
  1

  2
RICOH Aficio 2027 PCL 6
  4
A4
  6

 40
5.027083396911621
 41
5.027085304260253
 42
5.027084350585937
 43
5.027069091796875
 44
209.9733276367187
 45
296.9259948730469
 46
0.0
 47
0.0
 48
0.0
 49
0.0
140
0.0
141
0.0
142
1.0
143
1.0
 70
 11952
 72
     0
 73
     1
 74
     0
  7
monochrome1.ctb
 75
     0
147
1.0
 76
     0
 77
     2
 78
   300
148
2299.89518964334
149
90.09517935315257
100
AcDbLayout
  1
Model
 70
     1
 71
     0
 10
0.0
 20
0.0
 11
12.0
 21
9.0
 12
0.0
 22
0.0
 32
0.0
 14
0.0
 24
0.0
 34
0.0
 15
0.0
 25
0.0
 35
0.0
146
0.0
 13
0.0
 23
0.0
 33
0.0
 16
1.0
 26
0.0
 36
0.0
 17
0.0
 27
1.0
 37
0.0
 76
     0
330
17
  0
MLINESTYLE
  5
1B
102
{ACAD_REACTORS
330
1A
102
}
330
1A
100
AcDbMlineStyle
  2
STANDARD
 70
     0
  3

 62
   256
 51
90.0
 52
90.0
 71
     2
 49
0.5
 62
   256
  6
BYLAYER
 49
-0.5
 62
   256
  6
BYLAYER
  0
ACDBPLACEHOLDER
  5
50E
102
{ACAD_REACTORS
330
50D
102
}
330
50D
  0
DICTIONARYVAR
  5
38
102
{ACAD_REACTORS
330
37
102
}
330
37
100
DictionaryVariables
280
     0
  1
0
  0
DICTIONARYVAR
  5
67F
102
{ACAD_REACTORS
330
37
102
}
330
37
100
DictionaryVariables
280
     0
  1
1
  0
DICTIONARYVAR
  5
680
102
{ACAD_REACTORS
330
37
102
}
330
37
100
DictionaryVariables
280
     0
  1

  0
DICTIONARYVAR
  5
23D
102
{ACAD_REACTORS
330
37
102
}
330
37
100
DictionaryVariables
280
     0
  1
96
  0
ENDSEC
  0
EOF
