  0
SECTION
  2
HEADER
  9
$ACADVER
  1
AC1018
  9
$ACADMAINTVER
 70
     2
  9
$DWGCODEPAGE
  3
ANSI_1252
  9
$INSBASE
 10
0.0
 20
0.0
 30
0.0
  9
$EXTMIN
 10
-0.012816796064385
 20
-0.0181266115766903
 30
-0.0000000349181948
  9
$EXTMAX
 10
210.0128187519015
 20
297.0181293776894
 30
0.0000000814935746
  9
$LIMMIN
 10
0.0
 20
0.0
  9
$LIMMAX
 10
210.0
 20
297.0
  9
$ORTHOMODE
 70
     0
  9
$REGENMODE
 70
     1
  9
$FILLMODE
 70
     1
  9
$QTEXTMODE
 70
     0
  9
$MIRRTEXT
 70
     1
  9
$LTSCALE
 40
10.0
  9
$ATTMODE
 70
     1
  9
$TEXTSIZE
 40
3.5
  9
$TRACEWID
 40
0.5
  9
$TEXTSTYLE
  7
STANDARD
  9
$CLAYER
  8
SCHRAFF
  9
$CELTYPE
  6
ByLayer
  9
$CECOLOR
 62
   256
  9
$CELTSCALE
 40
1.0
  9
$DISPSILH
 70
     0
  9
$DIMSCALE
 40
1.0
  9
$DIMASZ
 40
3.5
  9
$DIMEXO
 40
1.0
  9
$DIMDLI
 40
7.0
  9
$DIMRND
 40
0.0
  9
$DIMDLE
 40
0.0
  9
$DIMEXE
 40
1.0
  9
$DIMTP
 40
0.0
  9
$DIMTM
 40
0.0
  9
$DIMTXT
 40
3.5
  9
$DIMCEN
 40
1.5
  9
$DIMTSZ
 40
0.0
  9
$DIMTOL
 70
     0
  9
$DIMLIM
 70
     0
  9
$DIMTIH
 70
     0
  9
$DIMTOH
 70
     0
  9
$DIMSE1
 70
     0
  9
$DIMSE2
 70
     0
  9
$DIMTAD
 70
     1
  9
$DIMZIN
 70
     8
  9
$DIMBLK
  1

  9
$DIMASO
 70
     1
  9
$DIMSHO
 70
     0
  9
$DIMPOST
  1

  9
$DIMAPOST
  1

  9
$DIMALT
 70
     0
  9
$DIMALTD
 70
     2
  9
$DIMALTF
 40
25.4
  9
$DIMLFAC
 40
1.0
  9
$DIMTOFL
 70
     1
  9
$DIMTVP
 40
0.0
  9
$DIMTIX
 70
     0
  9
$DIMSOXD
 70
     0
  9
$DIMSAH
 70
     0
  9
$DIMBLK1
  1

  9
$DIMBLK2
  1

  9
$DIMSTYLE
  2
Standard
  9
$DIMCLRD
 70
     0
  9
$DIMCLRE
 70
     0
  9
$DIMCLRT
 70
     1
  9
$DIMTFAC
 40
0.5
  9
$DIMGAP
 40
1.5
  9
$DIMJUST
 70
     0
  9
$DIMSD1
 70
     0
  9
$DIMSD2
 70
     0
  9
$DIMTOLJ
 70
     1
  9
$DIMTZIN
 70
     8
  9
$DIMALTZ
 70
     8
  9
$DIMALTTZ
 70
     8
  9
$DIMUPT
 70
     0
  9
$DIMDEC
 70
     2
  9
$DIMTDEC
 70
     2
  9
$DIMALTU
 70
     2
  9
$DIMALTTD
 70
     2
  9
$DIMTXSTY
  7
STANDARD
  9
$DIMAUNIT
 70
     0
  9
$DIMADEC
 70
     2
  9
$DIMALTRND
 40
0.0
  9
$DIMAZIN
 70
     2
  9
$DIMDSEP
 70
    46
  9
$DIMATFIT
 70
     3
  9
$DIMFRAC
 70
     0
  9
$DIMLDRBLK
  1

  9
$DIMLUNIT
 70
     2
  9
$DIMLWD
 70
    -2
  9
$DIMLWE
 70
    -2
  9
$DIMTMOVE
 70
     0
  9
$LUNITS
 70
     2
  9
$LUPREC
 70
     2
  9
$SKETCHINC
 40
1.0
  9
$FILLETRAD
 40
26.0
  9
$AUNITS
 70
     0
  9
$AUPREC
 70
     0
  9
$MENU
  1
ACAD
  9
$ELEVATION
 40
0.0
  9
$PELEVATION
 40
0.0
  9
$THICKNESS
 40
0.0
  9
$LIMCHECK
 70
     0
  9
$CHAMFERA
 40
0.0
  9
$CHAMFERB
 40
0.0
  9
$CHAMFERC
 40
0.0
  9
$CHAMFERD
 40
0.0
  9
$SKPOLY
 70
     0
  9
$TDCREATE
 40
2455397.864709028
  9
$TDUCREATE
 40
2455397.781375695
  9
$TDUPDATE
 40
2455652.615136366
  9
$TDUUPDATE
 40
2455652.531803032
  9
$TDINDWG
 40
0.0407490856
  9
$TDUSRTIMER
 40
0.0407490856
  9
$USRTIMER
 70
     1
  9
$ANGBASE
 50
0.0
  9
$ANGDIR
 70
     0
  9
$PDMODE
 70
     0
  9
$PDSIZE
 40
0.0
  9
$PLINEWID
 40
0.0
  9
$SPLFRAME
 70
     0
  9
$SPLINETYPE
 70
     6
  9
$SPLINESEGS
 70
     8
  9
$HANDSEED
  5
322
  9
$SURFTAB1
 70
     6
  9
$SURFTAB2
 70
     6
  9
$SURFTYPE
 70
     6
  9
$SURFU
 70
     6
  9
$SURFV
 70
     6
  9
$UCSBASE
  2

  9
$UCSNAME
  2

  9
$UCSORG
 10
0.0
 20
0.0
 30
0.0
  9
$UCSXDIR
 10
1.0
 20
0.0
 30
0.0
  9
$UCSYDIR
 10
0.0
 20
1.0
 30
0.0
  9
$UCSORTHOREF
  2

  9
$UCSORTHOVIEW
 70
     0
  9
$UCSORGTOP
 10
0.0
 20
0.0
 30
0.0
  9
$UCSORGBOTTOM
 10
0.0
 20
0.0
 30
0.0
  9
$UCSORGLEFT
 10
0.0
 20
0.0
 30
0.0
  9
$UCSORGRIGHT
 10
0.0
 20
0.0
 30
0.0
  9
$UCSORGFRONT
 10
0.0
 20
0.0
 30
0.0
  9
$UCSORGBACK
 10
0.0
 20
0.0
 30
0.0
  9
$PUCSBASE
  2

  9
$PUCSNAME
  2

  9
$PUCSORG
 10
0.0
 20
0.0
 30
0.0
  9
$PUCSXDIR
 10
1.0
 20
0.0
 30
0.0
  9
$PUCSYDIR
 10
0.0
 20
1.0
 30
0.0
  9
$PUCSORTHOREF
  2

  9
$PUCSORTHOVIEW
 70
     0
  9
$PUCSORGTOP
 10
0.0
 20
0.0
 30
0.0
  9
$PUCSORGBOTTOM
 10
0.0
 20
0.0
 30
0.0
  9
$PUCSORGLEFT
 10
0.0
 20
0.0
 30
0.0
  9
$PUCSORGRIGHT
 10
0.0
 20
0.0
 30
0.0
  9
$PUCSORGFRONT
 10
0.0
 20
0.0
 30
0.0
  9
$PUCSORGBACK
 10
0.0
 20
0.0
 30
0.0
  9
$USERI1
 70
     0
  9
$USERI2
 70
     0
  9
$USERI3
 70
     0
  9
$USERI4
 70
     0
  9
$USERI5
 70
     0
  9
$USERR1
 40
0.0
  9
$USERR2
 40
0.0
  9
$USERR3
 40
0.0
  9
$USERR4
 40
0.0
  9
$USERR5
 40
0.0
  9
$WORLDVIEW
 70
     1
  9
$SHADEDGE
 70
     3
  9
$SHADEDIF
 70
    70
  9
$TILEMODE
 70
     1
  9
$MAXACTVP
 70
    16
  9
$PINSBASE
 10
0.0
 20
0.0
 30
0.0
  9
$PLIMCHECK
 70
     0
  9
$PEXTMIN
 10
1.000000000000000E+20
 20
1.000000000000000E+20
 30
1.000000000000000E+20
  9
$PEXTMAX
 10
-1.000000000000000E+20
 20
-1.000000000000000E+20
 30
-1.000000000000000E+20
  9
$PLIMMIN
 10
0.0
 20
0.0
  9
$PLIMMAX
 10
12.0
 20
9.0
  9
$UNITMODE
 70
     0
  9
$VISRETAIN
 70
     0
  9
$PLINEGEN
 70
     0
  9
$PSLTSCALE
 70
     0
  9
$TREEDEPTH
 70
  3020
  9
$CMLSTYLE
  2
Standard
  9
$CMLJUST
 70
     0
  9
$CMLSCALE
 40
1.0
  9
$PROXYGRAPHICS
 70
     1
  9
$MEASUREMENT
 70
     0
  9
$CELWEIGHT
370
    -1
  9
$ENDCAPS
280
     0
  9
$JOINSTYLE
280
     0
  9
$LWDISPLAY
290
     0
  9
$INSUNITS
 70
     0
  9
$HYPERLINKBASE
  1

  9
$STYLESHEET
  1
monochrome 1.ctb
  9
$XEDIT
290
     1
  9
$CEPSNTYPE
380
     0
  9
$PSTYLEMODE
290
     1
  9
$FINGERPRINTGUID
  2
{D68B0D02-A558-11D7-B632-000102183313}
  9
$VERSIONGUID
  2
{BDD701F2-FEC8-4A7C-98C7-C75B0484E068}
  9
$EXTNAMES
290
     1
  9
$PSVPSCALE
 40
0.0
  9
$OLESTARTUP
290
     0
  9
$SORTENTS
280
   127
  9
$INDEXCTL
280
     0
  9
$HIDETEXT
280
     0
  9
$XCLIPFRAME
290
     0
  9
$HALOGAP
280
     0
  9
$OBSCOLOR
 70
   257
  9
$OBSLTYPE
280
     0
  9
$INTERSECTIONDISPLAY
280
     0
  9
$INTERSECTIONCOLOR
 70
   257
  9
$DIMASSOC
280
     1
  9
$PROJECTNAME
  1

  0
ENDSEC
  0
SECTION
  2
CLASSES
  0
CLASS
  1
ACDBDICTIONARYWDFLT
  2
AcDbDictionaryWithDefault
  3
ObjectDBX Classes
 90
        0
 91
        1
280
     0
281
     0
  0
CLASS
  1
DICTIONARYVAR
  2
AcDbDictionaryVar
  3
ObjectDBX Classes
 90
        0
 91
        2
280
     0
281
     0
  0
ENDSEC
  0
SECTION
  2
TABLES
  0
TABLE
  2
VPORT
  5
8
330
0
100
AcDbSymbolTable
 70
     3
  0
VPORT
  5
321
330
8
100
AcDbSymbolTableRecord
100
AcDbViewportTableRecord
  2
*Active
 70
     0
 10
0.0
 20
0.0
 11
1.0
 21
1.0
 12
105.0
 22
148.5
 13
0.0
 23
0.0
 14
1.0
 24
1.0
 15
10.0
 25
10.0
 16
0.0
 26
0.0
 36
1.0
 17
0.0
 27
0.0
 37
0.0
 40
297.0
 41
1.334231805929919
 42
50.0
 43
0.0
 44
0.0
 50
0.0
 51
0.0
 71
     0
 72
  1500
 73
     1
 74
     0
 75
     0
 76
     0
 77
     0
 78
     0
281
     0
 65
     1
110
0.0
120
0.0
130
0.0
111
1.0
121
0.0
131
0.0
112
0.0
122
1.0
132
0.0
 79
     0
146
0.0
  0
ENDTAB
  0
TABLE
  2
LTYPE
  5
5
330
0
100
AcDbSymbolTable
 70
     2
  0
LTYPE
  5
13
330
5
100
AcDbSymbolTableRecord
100
AcDbLinetypeTableRecord
  2
ByBlock
 70
     0
  3

 72
    65
 73
     0
 40
0.0
  0
LTYPE
  5
14
330
5
100
AcDbSymbolTableRecord
100
AcDbLinetypeTableRecord
  2
ByLayer
 70
     0
  3

 72
    65
 73
     0
 40
0.0
  0
LTYPE
  5
15
330
5
100
AcDbSymbolTableRecord
100
AcDbLinetypeTableRecord
  2
Continuous
 70
     0
  3
Solid line
 72
    65
 73
     0
 40
0.0
  0
LTYPE
  5
25
330
5
100
AcDbSymbolTableRecord
100
AcDbLinetypeTableRecord
  2
STRICHPUNKT
 70
     0
  3
__ . __ . __ . __ . __ . __ . __ . __ . __ . __
 72
    65
 73
     4
 40
1.0
 49
0.5
 74
     0
 49
-0.25
 74
     0
 49
0.0
 74
     0
 49
-0.25
 74
     0
  0
ENDTAB
  0
TABLE
  2
LAYER
  5
2
330
0
100
AcDbSymbolTable
 70
     9
  0
LAYER
  5
10
330
2
100
AcDbSymbolTableRecord
100
AcDbLayerTableRecord
  2
0
 70
     0
 62
     7
  6
Continuous
370
    -3
390
F
  0
LAYER
  5
2A
330
2
100
AcDbSymbolTableRecord
100
AcDbLayerTableRecord
  2
VOLL
 70
     0
 62
     1
  6
Continuous
370
    -3
390
F
  0
LAYER
  5
2B
330
2
100
AcDbSymbolTableRecord
100
AcDbLayerTableRecord
  2
HILF
 70
     0
 62
     2
  6
Continuous
370
    -3
390
F
  0
LAYER
  5
2C
330
2
100
AcDbSymbolTableRecord
100
AcDbLayerTableRecord
  2
MITTEL
 70
     0
 62
     2
  6
STRICHPUNKT
370
    -3
390
F
  0
LAYER
  5
2F
330
2
100
AcDbSymbolTableRecord
100
AcDbLayerTableRecord
  2
BEM
 70
     0
 62
     7
  6
Continuous
370
    -3
390
F
  0
LAYER
  5
30
330
2
100
AcDbSymbolTableRecord
100
AcDbLayerTableRecord
  2
STEMPEL
 70
     0
 62
     3
  6
Continuous
370
    -3
390
F
  0
LAYER
  5
31
330
2
100
AcDbSymbolTableRecord
100
AcDbLayerTableRecord
  2
TEXT
 70
     0
 62
     7
  6
Continuous
370
    -3
390
F
  0
LAYER
  5
221
330
2
100
AcDbSymbolTableRecord
100
AcDbLayerTableRecord
  2
Defpoints
 70
     0
 62
     7
  6
Continuous
290
     0
370
    -3
390
F
  0
LAYER
  5
2AD
330
2
100
AcDbSymbolTableRecord
100
AcDbLayerTableRecord
  2
SCHRAFF
 70
     0
 62
     7
  6
Continuous
370
    -3
390
F
  0
ENDTAB
  0
TABLE
  2
STYLE
  5
3
330
0
100
AcDbSymbolTable
 70
     2
  0
STYLE
  5
11
330
3
100
AcDbSymbolTableRecord
100
AcDbTextStyleTableRecord
  2
STANDARD
 70
     0
 40
0.0
 41
0.8
 50
0.0
 71
     0
 42
3.5
  3
simplex.shx
  4

  0
STYLE
  5
24
330
3
100
AcDbSymbolTableRecord
100
AcDbTextStyleTableRecord
  2
GREEKS
 70
     0
 40
0.0
 41
0.8
 50
0.0
 71
     0
 42
2.5
  3
SIMPLEX.shx
  4

  0
ENDTAB
  0
TABLE
  2
VIEW
  5
6
330
0
100
AcDbSymbolTable
 70
     0
  0
ENDTAB
  0
TABLE
  2
UCS
  5
7
330
0
100
AcDbSymbolTable
 70
     0
  0
ENDTAB
  0
TABLE
  2
APPID
  5
9
330
0
100
AcDbSymbolTable
 70
     1
  0
APPID
  5
12
330
9
100
AcDbSymbolTableRecord
100
AcDbRegAppTableRecord
  2
ACAD
 70
     0
  0
ENDTAB
  0
TABLE
  2
DIMSTYLE
  5
A
330
0
100
AcDbSymbolTable
 70
     1
100
AcDbDimStyleTable
 71
     1
340
9D
  0
DIMSTYLE
105
9D
102
{ACAD_REACTORS
330
220
330
238
330
268
330
28B
330
30A
102
}
330
A
100
AcDbSymbolTableRecord
100
AcDbDimStyleTableRecord
  2
Standard
 70
     0
340
11
  0
ENDTAB
  0
TABLE
  2
BLOCK_RECORD
  5
1
330
0
100
AcDbSymbolTable
 70
     8
  0
BLOCK_RECORD
  5
1E
102
{ACAD_XDICTIONARY
360
A0
102
}
330
1
100
AcDbSymbolTableRecord
100
AcDbBlockTableRecord
  2
*Model_Space
340
21
  0
BLOCK_RECORD
  5
1A
102
{ACAD_XDICTIONARY
360
A2
102
}
330
1
100
AcDbSymbolTableRecord
100
AcDbBlockTableRecord
  2
*Paper_Space
340
1D
  0
BLOCK_RECORD
  5
22
330
1
100
AcDbSymbolTableRecord
100
AcDbBlockTableRecord
  2
LOGO
340
0
102
{BLKREFS
331
9B
102
}
  0
BLOCK_RECORD
  5
222
330
1
100
AcDbSymbolTableRecord
100
AcDbBlockTableRecord
  2
*D1
340
0
  0
BLOCK_RECORD
  5
239
330
1
100
AcDbSymbolTableRecord
100
AcDbBlockTableRecord
  2
*D2
340
0
  0
BLOCK_RECORD
  5
269
330
1
100
AcDbSymbolTableRecord
100
AcDbBlockTableRecord
  2
*D4
340
0
  0
BLOCK_RECORD
  5
28C
330
1
100
AcDbSymbolTableRecord
100
AcDbBlockTableRecord
  2
*D5
340
0
  0
BLOCK_RECORD
  5
30B
330
1
100
AcDbSymbolTableRecord
100
AcDbBlockTableRecord
  2
*D7
340
0
  0
ENDTAB
  0
ENDSEC
  0
SECTION
  2
BLOCKS
  0
BLOCK
  5
35
330
1E
100
AcDbEntity
  8
0
100
AcDbBlockBegin
  2
*Model_Space
 70
     0
 10
0.0
 20
0.0
 30
0.0
  3
*Model_Space
  1

  0
ENDBLK
  5
36
330
1E
100
AcDbEntity
  8
0
100
AcDbBlockEnd
  0
BLOCK
  5
33
330
1A
100
AcDbEntity
 67
     1
  8
0
100
AcDbBlockBegin
  2
*Paper_Space
 70
     0
 10
0.0
 20
0.0
 30
0.0
  3
*Paper_Space
  1

  0
ENDBLK
  5
34
330
1A
100
AcDbEntity
 67
     1
  8
0
100
AcDbBlockEnd
  0
BLOCK
  5
37
330
22
100
AcDbEntity
  8
0
100
AcDbBlockBegin
  2
LOGO
 70
     0
 10
0.0
 20
0.0
 30
0.0
  3
LOGO
  1

  0
ARC
  5
38
330
22
100
AcDbEntity
  8
0
100
AcDbCircle
 10
11.59973089678112
 20
-9.271599258481501
 30
0.0
 40
4.5
100
AcDbArc
 50
270.0
 51
231.0575587310159
  0
LINE
  5
39
330
22
100
AcDbEntity
  8
0
100
AcDbLine
 10
3.599730896781125
 20
-4.771599258481529
 30
0.0
 11
3.599730896781153
 21
-11.77159925848133
 31
0.0
  0
LINE
  5
3A
330
22
100
AcDbEntity
  8
0
100
AcDbLine
 10
2.599730896781125
 20
-4.771599258481529
 30
0.0
 11
2.599730896781153
 21
-11.77159925848133
 31
0.0
  0
CIRCLE
  5
3B
330
22
100
AcDbEntity
  8
0
100
AcDbCircle
 10
11.59973089678112
 20
-9.271599258481501
 30
0.0
 40
3.5
  0
ARC
  5
3C
330
22
100
AcDbEntity
  8
0
100
AcDbCircle
 10
31.59973089678115
 20
-9.271599258481472
 30
0.0
 40
4.5
100
AcDbArc
 50
270.0
 51
231.0575587310182
  0
LINE
  5
3D
330
22
100
AcDbEntity
  8
0
100
AcDbLine
 10
17.59973089678112
 20
-4.771599258481472
 30
0.0
 11
17.59973089678115
 21
-13.77159925848147
 31
0.0
  0
ARC
  5
3E
330
22
100
AcDbEntity
  8
0
100
AcDbCircle
 10
22.59973089678116
 20
-7.271599258481472
 30
0.0
 40
2.5
100
AcDbArc
 50
293.1161887722295
 51
90.0
  0
CIRCLE
  5
3F
330
22
100
AcDbEntity
  8
0
100
AcDbCircle
 10
31.59973089678115
 20
-9.271599258481472
 30
0.0
 40
3.5
  0
ARC
  5
40
330
22
100
AcDbEntity
  8
0
100
AcDbCircle
 10
4.599730896781153
 20
-11.77159925848133
 30
0.0
 40
1.0
100
AcDbArc
 50
180.0
 51
270.0
  0
ARC
  5
41
330
22
100
AcDbEntity
  8
0
100
AcDbCircle
 10
4.599730896781153
 20
-11.77159925848133
 30
0.0
 40
2.0
100
AcDbArc
 50
179.9999999999992
 51
270.0
  0
LINE
  5
42
330
22
100
AcDbEntity
  8
0
100
AcDbLine
 10
11.59973089678115
 20
-13.77159925848144
 30
0.0
 11
4.599730896781153
 21
-13.77159925848147
 31
0.0
  0
LINE
  5
43
330
22
100
AcDbEntity
  8
0
100
AcDbLine
 10
8.771303772034769
 20
-12.77159925848136
 30
0.0
 11
4.599730896781153
 21
-12.77159925848133
 31
0.0
  0
LINE
  5
44
330
22
100
AcDbEntity
  8
0
100
AcDbLine
 10
31.59973089678115
 20
-13.77159925848147
 30
0.0
 11
23.6715276665056
 21
-13.77159925848144
 31
0.0
  0
LINE
  5
45
330
22
100
AcDbEntity
  8
0
100
AcDbLine
 10
23.56565672307022
 20
-9.51278021337896
 30
0.0
 11
24.4388546544846
 21
-12.77159925848144
 31
0.0
  0
LINE
  5
46
330
22
100
AcDbEntity
  8
0
100
AcDbLine
 10
22.59973089678116
 20
-9.771599258481472
 30
0.0
 11
18.59973089678112
 21
-9.771599258481472
 31
0.0
  0
LINE
  5
47
330
22
100
AcDbEntity
  8
0
100
AcDbLine
 10
18.59973089678115
 20
-13.77159925848144
 30
0.0
 11
17.59973089678115
 21
-13.77159925848144
 31
0.0
  0
LINE
  5
48
330
22
100
AcDbEntity
  8
0
100
AcDbLine
 10
18.59973089678115
 20
-9.771599258481472
 30
0.0
 11
18.59973089678115
 21
-13.77159925848144
 31
0.0
  0
LINE
  5
49
330
22
100
AcDbEntity
  8
0
100
AcDbLine
 10
22.59973089678116
 20
-9.771599258481472
 30
0.0
 11
23.67152766650562
 21
-13.77159925848147
 31
0.0
  0
ARC
  5
4A
330
22
100
AcDbEntity
  8
0
100
AcDbCircle
 10
22.59973089678116
 20
-7.271599258481472
 30
0.0
 40
2.5
100
AcDbArc
 50
270.0
 51
270.0000000000007
  0
LINE
  5
4B
330
22
100
AcDbEntity
  8
0
100
AcDbLine
 10
28.77130377203494
 20
-12.77159925848147
 30
0.0
 11
24.43885465448463
 21
-12.77159925848144
 31
0.0
  0
LINE
  5
4C
330
22
100
AcDbEntity
  8
0
100
AcDbLine
 10
3.599730896781125
 20
-4.771599258481472
 30
0.0
 11
2.599730896781125
 21
-4.771599258481472
 31
0.0
  0
LINE
  5
4D
330
22
100
AcDbEntity
  8
0
100
AcDbLine
 10
22.59973089678116
 20
-8.771599258481472
 30
0.0
 11
18.59973089678115
 21
-8.771599258481472
 31
0.0
  0
LINE
  5
4E
330
22
100
AcDbEntity
  8
0
100
AcDbLine
 10
22.59973089678116
 20
-5.771599258481472
 30
0.0
 11
18.59973089678115
 21
-5.771599258481472
 31
0.0
  0
LINE
  5
4F
330
22
100
AcDbEntity
  8
0
100
AcDbLine
 10
22.59973089678116
 20
-4.771599258481472
 30
0.0
 11
17.59973089678115
 21
-4.771599258481472
 31
0.0
  0
LINE
  5
50
330
22
100
AcDbEntity
  8
0
100
AcDbLine
 10
18.59973089678115
 20
-5.771599258481472
 30
0.0
 11
18.59973089678115
 21
-8.771599258481472
 31
0.0
  0
ARC
  5
51
330
22
100
AcDbEntity
  8
0
100
AcDbCircle
 10
22.59973089678116
 20
-7.271599258481472
 30
0.0
 40
1.5
100
AcDbArc
 50
270.0
 51
90.0
  0
ENDBLK
  5
52
330
22
100
AcDbEntity
  8
0
100
AcDbBlockEnd
  0
BLOCK
  5
22C
330
222
100
AcDbEntity
  8
0
100
AcDbBlockBegin
  2
*D1
 70
     1
 10
0.0
 20
0.0
 30
0.0
  3
*D1
  1

  0
LINE
  5
22F
330
222
100
AcDbEntity
  8
BEM
 62
     0
370
    -2
100
AcDbLine
 10
80.15645986408291
 20
96.72096844730539
 30
0.0
 11
57.90842946882523
 21
96.72096844730539
 31
0.0
  0
LINE
  5
230
330
222
100
AcDbEntity
  8
BEM
 62
     0
370
    -2
100
AcDbLine
 10
126.7190165464533
 20
226.7209684473054
 30
0.0
 11
57.90842946882527
 21
226.7209684473054
 31
0.0
  0
LINE
  5
231
330
222
100
AcDbEntity
  8
BEM
 62
     0
370
    -2
100
AcDbLine
 10
58.90842946882524
 20
100.2209684473054
 30
0.0
 11
58.90842946882527
 21
223.2209684473054
 31
0.0
  0
SOLID
  5
232
330
222
100
AcDbEntity
  8
BEM
 62
     0
100
AcDbTrace
 10
58.3250961354919
 20
100.2209684473054
 30
0.0
 11
59.49176280215858
 21
100.2209684473054
 31
0.0
 12
58.90842946882524
 22
96.72096844730539
 32
0.0
 13
58.90842946882524
 23
96.72096844730539
 33
0.0
  0
SOLID
  5
233
330
222
100
AcDbEntity
  8
BEM
 62
     0
100
AcDbTrace
 10
58.32509613549193
 20
223.2209684473054
 30
0.0
 11
59.4917628021586
 21
223.2209684473054
 31
0.0
 12
58.90842946882527
 22
226.7209684473054
 32
0.0
 13
58.90842946882527
 23
226.7209684473054
 33
0.0
  0
MTEXT
  5
234
330
222
100
AcDbEntity
  8
BEM
 62
     1
100
AcDbMText
 10
55.65842946882522
 20
161.7209684473054
 30
0.0
 40
3.5
 41
0.0
 71
     5
 72
     1
  1
\A1;1000
 11
0.0000000000000001
 21
1.0
 31
0.0
 73
     1
 44
1.0
  0
POINT
  5
235
330
222
100
AcDbEntity
  8
Defpoints
 62
     0
100
AcDbPoint
 10
81.1564598640829
 20
96.72096844730539
 30
0.0
  0
POINT
  5
236
330
222
100
AcDbEntity
  8
Defpoints
 62
     0
100
AcDbPoint
 10
127.7190165464533
 20
226.7209684473054
 30
0.0
  0
POINT
  5
237
330
222
100
AcDbEntity
  8
Defpoints
 62
     0
100
AcDbPoint
 10
58.90842946882527
 20
226.7209684473054
 30
0.0
  0
ENDBLK
  5
22D
330
222
100
AcDbEntity
  8
0
100
AcDbBlockEnd
  0
BLOCK
  5
243
330
239
100
AcDbEntity
  8
0
100
AcDbBlockBegin
  2
*D2
 70
     1
 10
0.0
 20
0.0
 30
0.0
  3
*D2
  1

  0
LINE
  5
282
330
239
100
AcDbEntity
  8
BEM
 62
     0
370
    -2
100
AcDbLine
 10
101.7190165464533
 20
201.7209684473054
 30
0.0
 11
101.7190165464533
 21
270.5315555249334
 31
0.0
  0
LINE
  5
283
330
239
100
AcDbEntity
  8
BEM
 62
     0
370
    -2
100
AcDbLine
 10
166.7190165464533
 20
251.868571447624
 30
0.0
 11
166.7190165464533
 21
270.5315555249334
 31
0.0
  0
LINE
  5
284
330
239
100
AcDbEntity
  8
BEM
 62
     0
370
    -2
100
AcDbLine
 10
105.2190165464533
 20
269.5315555249334
 30
0.0
 11
163.2190165464533
 21
269.5315555249334
 31
0.0
  0
SOLID
  5
285
330
239
100
AcDbEntity
  8
BEM
 62
     0
100
AcDbTrace
 10
105.2190165464533
 20
270.1148888582667
 30
0.0
 11
105.2190165464533
 21
268.9482221916001
 31
0.0
 12
101.7190165464533
 22
269.5315555249334
 32
0.0
 13
101.7190165464533
 23
269.5315555249334
 33
0.0
  0
SOLID
  5
286
330
239
100
AcDbEntity
  8
BEM
 62
     0
100
AcDbTrace
 10
163.2190165464533
 20
270.1148888582667
 30
0.0
 11
163.2190165464533
 21
268.9482221916001
 31
0.0
 12
166.7190165464533
 22
269.5315555249334
 32
0.0
 13
166.7190165464533
 23
269.5315555249334
 33
0.0
  0
MTEXT
  5
287
330
239
100
AcDbEntity
  8
BEM
 62
     1
100
AcDbMText
 10
134.2190165464533
 20
272.7815555249334
 30
0.0
 40
3.5
 41
0.0
 71
     5
 72
     1
  1
\A1;65
 73
     1
 44
1.0
  0
POINT
  5
288
330
239
100
AcDbEntity
  8
Defpoints
 62
     0
100
AcDbPoint
 10
101.7190165464533
 20
200.7209684473054
 30
0.0
  0
POINT
  5
289
330
239
100
AcDbEntity
  8
Defpoints
 62
     0
100
AcDbPoint
 10
166.7190165464533
 20
250.8685714476239
 30
0.0
  0
POINT
  5
28A
330
239
100
AcDbEntity
  8
Defpoints
 62
     0
100
AcDbPoint
 10
166.7190165464533
 20
269.5315555249334
 30
0.0
  0
ENDBLK
  5
244
330
239
100
AcDbEntity
  8
0
100
AcDbBlockEnd
  0
BLOCK
  5
275
330
269
100
AcDbEntity
  8
0
100
AcDbBlockBegin
  2
*D4
 70
     1
 10
0.0
 20
0.0
 30
0.0
  3
*D4
  1

  0
LINE
  5
277
330
269
100
AcDbEntity
  8
BEM
 62
     0
370
    -2
100
AcDbLine
 10
101.7190165464533
 20
227.7209684473054
 30
0.0
 11
101.7190165464533
 21
270.5315555249335
 31
0.0
  0
LINE
  5
278
330
269
100
AcDbEntity
  8
BEM
 62
     0
370
    -2
100
AcDbLine
 10
100.7190165464533
 20
226.7209684473054
 30
0.0
 11
57.90842946882523
 21
226.7209684473054
 31
0.0
  0
ARC
  5
279
330
269
100
AcDbEntity
  8
BEM
 62
     0
370
    -2
100
AcDbCircle
 10
101.7190165464533
 20
226.7209684473054
 30
0.0
 40
42.81058707762805
100
AcDbArc
 50
94.68554936376847
 51
175.3144506362315
  0
SOLID
  5
27A
330
269
100
AcDbEntity
  8
BEM
 62
     0
100
AcDbTrace
 10
98.19809665307161
 20
269.9713291964585
 30
0.0
 11
98.24578734843541
 21
268.8056376812253
 31
0.0
 12
101.7190165464533
 22
269.5315555249334
 32
0.0
 13
101.7190165464533
 23
269.5315555249334
 33
0.0
  0
SOLID
  5
27B
330
269
100
AcDbEntity
  8
BEM
 62
     0
100
AcDbTrace
 10
59.63434731253342
 20
230.1941976453233
 30
0.0
 11
58.46865579730014
 21
230.2418883406871
 31
0.0
 12
58.90842946882523
 22
226.7209684473054
 32
0.0
 13
58.90842946882523
 23
226.7209684473054
 33
0.0
  0
MTEXT
  5
27C
330
269
100
AcDbEntity
  8
BEM
 62
     1
100
AcDbMText
 10
69.14926307842907
 20
259.2907219153296
 30
0.0
 40
3.5
 41
0.0
 71
     5
 72
     1
  1
\A1;90°
 11
0.7071067811865487
 21
0.7071067811865465
 31
0.0
 73
     1
 44
1.0
  0
POINT
  5
27D
330
269
100
AcDbEntity
  8
Defpoints
 62
     0
100
AcDbPoint
 10
80.31372300763925
 20
263.7960244074571
 30
0.0
  0
POINT
  5
27E
330
269
100
AcDbEntity
  8
Defpoints
 62
     0
100
AcDbPoint
 10
171.7190165464533
 20
226.7209684473054
 30
0.0
  0
POINT
  5
27F
330
269
100
AcDbEntity
  8
Defpoints
 62
     0
100
AcDbPoint
 10
101.7190165464533
 20
200.7209684473054
 30
0.0
  0
POINT
  5
280
330
269
100
AcDbEntity
  8
Defpoints
 62
     0
100
AcDbPoint
 10
101.7190165464533
 20
91.72096844730537
 30
0.0
  0
POINT
  5
281
330
269
100
AcDbEntity
  8
Defpoints
 62
     0
100
AcDbPoint
 10
127.7190165464533
 20
226.7209684473054
 30
0.0
  0
ENDBLK
  5
276
330
269
100
AcDbEntity
  8
0
100
AcDbBlockEnd
  0
BLOCK
  5
296
330
28C
100
AcDbEntity
  8
0
100
AcDbBlockBegin
  2
*D5
 70
     1
 10
0.0
 20
0.0
 30
0.0
  3
*D5
  1

  0
LINE
  5
298
330
28C
100
AcDbEntity
  8
BEM
 62
     0
370
    -2
100
AcDbLine
 10
80.71901654645328
 20
100.7209684473054
 30
0.0
 11
80.71901654645328
 21
83.67813323939243
 31
0.0
  0
LINE
  5
299
330
28C
100
AcDbEntity
  8
BEM
 62
     0
370
    -2
100
AcDbLine
 10
122.7190165464533
 20
100.7209684473053
 30
0.0
 11
122.7190165464533
 21
83.67813323939243
 31
0.0
  0
LINE
  5
29A
330
28C
100
AcDbEntity
  8
BEM
 62
     0
370
    -2
100
AcDbLine
 10
84.2190165464533
 20
84.67813323939243
 30
0.0
 11
119.2190165464533
 21
84.67813323939243
 31
0.0
  0
SOLID
  5
29B
330
28C
100
AcDbEntity
  8
BEM
 62
     0
100
AcDbTrace
 10
84.2190165464533
 20
85.26146657272574
 30
0.0
 11
84.2190165464533
 21
84.09479990605909
 31
0.0
 12
80.71901654645328
 22
84.67813323939243
 32
0.0
 13
80.71901654645328
 23
84.67813323939243
 33
0.0
  0
SOLID
  5
29C
330
28C
100
AcDbEntity
  8
BEM
 62
     0
100
AcDbTrace
 10
119.2190165464533
 20
85.26146657272574
 30
0.0
 11
119.2190165464533
 21
84.09479990605909
 31
0.0
 12
122.7190165464533
 22
84.67813323939243
 32
0.0
 13
122.7190165464533
 23
84.67813323939243
 33
0.0
  0
MTEXT
  5
29D
330
28C
100
AcDbEntity
  8
BEM
 62
     1
100
AcDbMText
 10
101.7190165464533
 20
87.92813323939242
 30
0.0
 40
3.5
 41
0.0
 71
     5
 72
     1
  1
\A1;%%c42
 73
     1
 44
1.0
  0
POINT
  5
29E
330
28C
100
AcDbEntity
  8
Defpoints
 62
     0
100
AcDbPoint
 10
80.71901654645328
 20
101.7209684473054
 30
0.0
  0
POINT
  5
29F
330
28C
100
AcDbEntity
  8
Defpoints
 62
     0
100
AcDbPoint
 10
122.7190165464533
 20
101.7209684473053
 30
0.0
  0
POINT
  5
2A0
330
28C
100
AcDbEntity
  8
Defpoints
 62
     0
100
AcDbPoint
 10
122.7190165464533
 20
84.67813323939243
 30
0.0
  0
ENDBLK
  5
297
330
28C
100
AcDbEntity
  8
0
100
AcDbBlockEnd
  0
BLOCK
  5
311
330
30B
100
AcDbEntity
  8
0
100
AcDbBlockBegin
  2
*D7
 70
     1
 10
0.0
 20
0.0
 30
0.0
  3
*D7
  1

  0
LINE
  5
313
330
30B
100
AcDbEntity
  8
BEM
 62
     0
370
    -2
100
AcDbLine
 10
121.6230578775387
 20
207.06756500821
 30
0.0
 11
112.1327585861605
 21
216.948061926891
 31
0.0
  0
MTEXT
  5
314
330
30B
100
AcDbEntity
  8
BEM
 62
     1
100
AcDbMText
 10
120.4340862424792
 20
212.9970545689583
 30
0.0
 40
3.5
 41
0.0
 71
     5
 72
     1
  1
\A1;R26
 11
0.6927225760130137
 21
-0.7212041546482483
 31
0.0
 73
     1
 44
1.0
  0
SOLID
  5
315
330
30B
100
AcDbEntity
  8
BEM
 62
     0
100
AcDbTrace
 10
112.5534610097053
 20
217.3521500962319
 30
0.0
 11
111.7120561626157
 21
216.5439737575501
 31
0.0
 12
109.7082295701149
 22
219.4722764681598
 32
0.0
 13
109.7082295701149
 23
219.4722764681598
 33
0.0
  0
POINT
  5
316
330
30B
100
AcDbEntity
  8
Defpoints
 62
     0
100
AcDbPoint
 10
109.7082295701149
 20
219.4722764681598
 30
0.0
  0
POINT
  5
317
330
30B
100
AcDbEntity
  8
Defpoints
 62
     0
100
AcDbPoint
 10
127.7190165464533
 20
200.7209684473054
 30
0.0
  0
ENDBLK
  5
312
330
30B
100
AcDbEntity
  8
0
100
AcDbBlockEnd
  0
ENDSEC
  0
SECTION
  2
ENTITIES
  0
LINE
  5
57
330
1E
100
AcDbEntity
  8
STEMPEL
100
AcDbLine
 10
205.0
 20
55.00000000000003
 30
0.0
 11
19.99999999999998
 21
55.0
 31
0.0
  0
LINE
  5
58
330
1E
100
AcDbEntity
  8
STEMPEL
100
AcDbLine
 10
73.00000000000006
 20
54.99999999999997
 30
0.0
 11
73.0
 21
4.999999999999985
 31
0.0
  0
LINE
  5
59
330
1E
100
AcDbEntity
  8
STEMPEL
100
AcDbLine
 10
115.0
 20
55.00000000000003
 30
0.0
 11
115.0
 21
4.999999999999985
 31
0.0
  0
LINE
  5
5A
330
1E
100
AcDbEntity
  8
STEMPEL
100
AcDbLine
 10
166.0
 20
54.99999999999989
 30
0.0
 11
166.0
 21
20.0
 31
0.0
  0
LINE
  5
5B
330
1E
100
AcDbEntity
  8
STEMPEL
100
AcDbLine
 10
72.99999999999994
 20
14.99999999999998
 30
0.0
 11
19.99999999999998
 21
14.99999999999998
 31
0.0
  0
LINE
  5
5C
330
1E
100
AcDbEntity
  8
STEMPEL
100
AcDbLine
 10
205.0
 20
20.0
 30
0.0
 11
73.00000000000006
 21
19.99999999999998
 31
0.0
  0
LINE
  5
5D
330
1E
100
AcDbEntity
  8
STEMPEL
100
AcDbLine
 10
205.0
 20
40.0
 30
0.0
 11
73.00000000000006
 21
39.99999999999997
 31
0.0
  0
LINE
  5
5E
330
1E
100
AcDbEntity
  8
VOLL
100
AcDbLine
 10
27.00000000000005
 20
55.00000000000003
 30
0.0
 11
26.99999999999999
 21
4.999999999999985
 31
0.0
  0
LINE
  5
5F
330
1E
100
AcDbEntity
  8
VOLL
100
AcDbLine
 10
52.00000000000006
 20
54.99999999999997
 30
0.0
 11
52.0
 21
4.999999999999985
 31
0.0
  0
LINE
  5
60
330
1E
100
AcDbEntity
  8
VOLL
100
AcDbLine
 10
62.00000000000006
 20
54.99999999999997
 30
0.0
 11
62.0
 21
4.999999999999985
 31
0.0
  0
LINE
  5
61
330
1E
100
AcDbEntity
  8
VOLL
100
AcDbLine
 10
82.00000000000006
 20
39.99999999999997
 30
0.0
 11
82.00000000000006
 21
19.99999999999998
 31
0.0
  0
LINE
  5
62
330
1E
100
AcDbEntity
  8
VOLL
100
AcDbLine
 10
95.00000000000005
 20
54.99999999999992
 30
0.0
 11
95.0
 21
19.99999999999998
 31
0.0
  0
LINE
  5
63
330
1E
100
AcDbEntity
  8
HILF
100
AcDbLine
 10
20.00000000000004
 20
50.00000000000003
 30
0.0
 11
73.00000000000006
 21
50.00000000000003
 31
0.0
  0
LINE
  5
64
330
1E
100
AcDbEntity
  8
HILF
100
AcDbLine
 10
20.00000000000004
 20
45.00000000000002
 30
0.0
 11
73.00000000000006
 21
45.00000000000002
 31
0.0
  0
LINE
  5
65
330
1E
100
AcDbEntity
  8
HILF
100
AcDbLine
 10
20.00000000000004
 20
39.99999999999997
 30
0.0
 11
73.00000000000006
 21
39.99999999999997
 31
0.0
  0
LINE
  5
66
330
1E
100
AcDbEntity
  8
HILF
100
AcDbLine
 10
20.00000000000004
 20
34.99999999999997
 30
0.0
 11
73.00000000000006
 21
34.99999999999997
 31
0.0
  0
LINE
  5
67
330
1E
100
AcDbEntity
  8
HILF
100
AcDbLine
 10
20.00000000000004
 20
29.99999999999999
 30
0.0
 11
73.00000000000006
 21
29.99999999999999
 31
0.0
  0
LINE
  5
68
330
1E
100
AcDbEntity
  8
HILF
100
AcDbLine
 10
20.00000000000004
 20
24.99999999999999
 30
0.0
 11
73.00000000000006
 21
24.99999999999999
 31
0.0
  0
LINE
  5
69
330
1E
100
AcDbEntity
  8
HILF
100
AcDbLine
 10
20.00000000000004
 20
19.99999999999998
 30
0.0
 11
73.00000000000006
 21
19.99999999999998
 31
0.0
  0
LINE
  5
6A
330
1E
100
AcDbEntity
  8
HILF
100
AcDbLine
 10
73.00000000000006
 20
34.99999999999997
 30
0.0
 11
115.0
 21
34.99999999999997
 31
0.0
  0
LINE
  5
6B
330
1E
100
AcDbEntity
  8
HILF
100
AcDbLine
 10
73.00000000000006
 20
29.99999999999999
 30
0.0
 11
115.0
 21
29.99999999999999
 31
0.0
  0
LINE
  5
6C
330
1E
100
AcDbEntity
  8
HILF
100
AcDbLine
 10
73.00000000000006
 20
24.99999999999999
 30
0.0
 11
115.0
 21
24.99999999999999
 31
0.0
  0
LINE
  5
6D
330
1E
100
AcDbEntity
  8
HILF
100
AcDbLine
 10
117.3868400548473
 20
42.01879123782069
 30
0.0
 11
162.4176958278155
 21
42.01879123782069
 31
0.0
  0
LINE
  5
6E
330
1E
100
AcDbEntity
  8
HILF
100
AcDbLine
 10
117.3868400548473
 20
34.99999999999997
 30
0.0
 11
162.4176958278155
 21
34.99999999999997
 31
0.0
  0
LINE
  5
6F
330
1E
100
AcDbEntity
  8
HILF
100
AcDbLine
 10
117.3868400548473
 20
29.99999999999999
 30
0.0
 11
162.4176958278155
 21
29.99999999999999
 31
0.0
  0
LINE
  5
70
330
1E
100
AcDbEntity
  8
HILF
100
AcDbLine
 10
117.3868400548473
 20
24.99999999999999
 30
0.0
 11
162.4176958278155
 21
24.99999999999999
 31
0.0
  0
LINE
  5
71
330
1E
100
AcDbEntity
  8
VOLL
100
AcDbLine
 10
166.0
 20
30.0
 30
0.0
 11
205.0
 21
30.0
 31
0.0
  0
LINE
  5
72
330
1E
100
AcDbEntity
  8
HILF
100
AcDbLine
 10
168.3619308148496
 20
41.88991818477913
 30
0.0
 11
202.4294419663364
 21
41.88991818477913
 31
0.0
  0
LINE
  5
73
330
1E
100
AcDbEntity
  8
HILF
100
AcDbLine
 10
116.7454849644942
 20
7.446991290141568
 30
0.0
 11
202.4294419663364
 21
7.446991290141568
 31
0.0
  0
TEXT
  5
74
330
1E
100
AcDbEntity
  8
TEXT
100
AcDbText
 10
34.4308298981591
 20
9.336909474920659
 30
0.0
 40
2.0
  1
Änderung
 41
0.8
  7
GREEKS
 72
     1
 11
39.80225846958767
 21
9.336909474920659
 31
0.0
100
AcDbText
  0
TEXT
  5
75
330
1E
100
AcDbEntity
  8
TEXT
100
AcDbText
 10
76.75817860751886
 20
51.23104475435443
 30
0.0
 40
2.5
  1
Maßstab
 41
0.8
  7
GREEKS
100
AcDbText
  0
TEXT
  5
76
330
1E
100
AcDbEntity
  8
TEXT
100
AcDbText
 10
97.14294773670257
 20
51.20920842174095
 30
0.0
 40
2.5
  1
Zul. Abw.
 41
0.8
  7
GREEKS
100
AcDbText
  0
TEXT
  5
77
330
1E
100
AcDbEntity
  8
TEXT
100
AcDbText
 10
117.4389701904505
 20
51.27446640058898
 30
0.0
 40
2.5
  1
Benennung
 41
0.8
  7
GREEKS
100
AcDbText
  0
TEXT
  5
78
330
1E
100
AcDbEntity
  8
TEXT
100
AcDbText
 10
168.089377478817
 20
51.15660172685682
 30
0.0
 40
2.5
  1
Zeichnungs Nr.
 41
0.8
  7
GREEKS
100
AcDbText
  0
TEXT
  5
79
330
1E
100
AcDbEntity
  8
TEXT
100
AcDbText
 10
117.371119195568
 20
15.42280285096528
 30
0.0
 40
2.5
  1
Bauvorhaben
 41
0.8
  7
GREEKS
100
AcDbText
  0
TEXT
  5
7A
330
1E
100
AcDbEntity
  8
TEXT
100
AcDbText
 10
168.3619308148496
 20
36.59059118549985
 30
0.0
 40
2.5
  1
Ersatz für:
 41
0.8
  7
GREEKS
100
AcDbText
  0
TEXT
  5
7B
330
1E
100
AcDbEntity
  8
TEXT
100
AcDbText
 10
24.13320553522878
 20
6.827329230135958
 30
0.0
 40
2.0
  1
Index
 50
90.0
 41
0.8
  7
GREEKS
100
AcDbText
  0
TEXT
  5
7C
330
1E
100
AcDbEntity
  8
TEXT
100
AcDbText
 10
55.04673380377405
 20
9.33578134669905
 30
0.0
 40
2.0
  1
Tag
 41
0.8
  7
GREEKS
 72
     1
 11
56.91340047044072
 21
9.33578134669905
 31
0.0
100
AcDbText
  0
TEXT
  5
7D
330
1E
100
AcDbEntity
  8
TEXT
100
AcDbText
 10
64.50613721932963
 20
9.29662108483204
 30
0.0
 40
2.0
  1
Name
 41
0.8
  7
GREEKS
 72
     1
 11
67.66804198123439
 21
9.29662108483204
 31
0.0
100
AcDbText
  0
TEXT
  5
7E
330
1E
100
AcDbEntity
  8
TEXT
100
AcDbText
 10
86.16558365768254
 20
36.65940250614963
 30
0.0
 40
2.0
  1
Tag
 41
0.8
  7
GREEKS
100
AcDbText
  0
TEXT
  5
7F
330
1E
100
AcDbEntity
  8
TEXT
100
AcDbText
 10
101.2313292113147
 20
36.65480545957612
 30
0.0
 40
2.0
  1
Name
 41
0.8
  7
GREEKS
100
AcDbText
  0
TEXT
  5
80
330
1E
100
AcDbEntity
  8
TEXT
100
AcDbText
 10
73.79180635838077
 20
31.81495184808982
 30
0.0
 40
2.0
  1
Gez.
 41
0.8
  7
GREEKS
100
AcDbText
  0
TEXT
  5
81
330
1E
100
AcDbEntity
  8
TEXT
100
AcDbText
 10
73.77575432858361
 20
26.84463145714189
 30
0.0
 40
2.0
  1
Gepr.
 41
0.8
  7
GREEKS
100
AcDbText
  0
TEXT
  5
82
330
1E
100
AcDbEntity
  8
TEXT
100
AcDbText
 10
73.80033886936519
 20
21.76473194824904
 30
0.0
 40
2.0
  1
Norm.
 41
0.8
  7
GREEKS
100
AcDbText
  0
LINE
  5
83
330
1E
100
AcDbEntity
  8
STEMPEL
100
AcDbLine
 10
24.99999999999995
 20
5.0
 30
0.0
 11
205.0
 21
5.0
 31
0.0
  0
TEXT
  5
84
330
1E
100
AcDbEntity
  8
TEXT
100
AcDbText
 10
168.6200430748503
 20
26.03708088939301
 30
0.0
 40
2.5
  1
ersetzt durch:
 41
0.8
  7
GREEKS
100
AcDbText
  0
LINE
  5
85
330
1E
100
AcDbEntity
  8
STEMPEL
100
AcDbLine
 10
205.0
 20
5.0
 30
0.0
 11
19.99999999999994
 21
5.0
 31
0.0
  0
LINE
  5
86
330
1E
100
AcDbEntity
  8
STEMPEL
100
AcDbLine
 10
205.0
 20
5.0
 30
0.0
 11
205.0
 21
292.0
 31
0.0
  0
LINE
  5
87
330
1E
100
AcDbEntity
  8
STEMPEL
100
AcDbLine
 10
20.0
 20
5.0
 30
0.0
 11
19.99999999999994
 21
292.0
 31
0.0
  0
LINE
  5
88
330
1E
100
AcDbEntity
  8
STEMPEL
100
AcDbLine
 10
205.0
 20
292.0
 30
0.0
 11
19.99999999999994
 21
292.0
 31
0.0
  0
LINE
  5
89
330
1E
100
AcDbEntity
  8
HILF
100
AcDbLine
 10
0.0
 20
0.0
 30
0.0
 11
-0.0000000000000568
 21
297.0
 31
0.0
  0
LINE
  5
8A
330
1E
100
AcDbEntity
  8
HILF
100
AcDbLine
 10
210.0
 20
297.0000000000001
 30
0.0
 11
0.0
 21
297.0
 31
0.0
  0
LINE
  5
8B
330
1E
100
AcDbEntity
  8
HILF
100
AcDbLine
 10
210.0
 20
0.0
 30
0.0
 11
0.0
 21
0.0
 31
0.0
  0
LINE
  5
8C
330
1E
100
AcDbEntity
  8
HILF
100
AcDbLine
 10
15.54383567856928
 20
148.5
 30
0.0
 11
0.0000000000000568
 21
148.5
 31
0.0
  0
TEXT
  5
8D
330
1E
100
AcDbEntity
  8
TEXT
100
AcDbText
 10
74.31105491105199
 20
36.57012735575833
 30
0.0
 40
2.0
  1
2011
 41
0.8
  7
GREEKS
100
AcDbText
  0
LINE
  5
8E
330
1E
100
AcDbEntity
  8
HILF
100
AcDbLine
 10
210.0
 20
-0.0000000000000568
 30
0.0
 11
210.0
 21
297.0
 31
0.0
  0
TEXT
  5
8F
330
1E
100
AcDbEntity
  8
VOLL
100
AcDbText
 10
78.07675471698113
 20
31.02594776470585
 30
0.0
 40
1.8
  1

  7
GREEKS
100
AcDbText
  0
TEXT
  5
90
330
1E
100
AcDbEntity
  8
TEXT
100
AcDbText
 10
20.92754975488837
 20
55.83599999999997
 30
0.0
 40
2.5
  1
Erstellt mit AUTOCAD 2004
 41
0.8
  7
GREEKS
100
AcDbText
  0
TEXT
  5
91
330
1E
100
AcDbEntity
  8
TEXT
100
AcDbText
 10
102.2108024290628
 20
31.54481959861755
 30
0.0
 40
2.0
  1
Koeh
 41
0.8
  7
GREEKS
 72
     1
 11
104.8393738576343
 21
31.54481959861755
 31
0.0
100
AcDbText
  0
TEXT
  5
92
330
1E
100
AcDbEntity
  8
TEXT
 62
     1
100
AcDbText
 10
172.8089251880514
 20
44.07450714456979
 30
0.0
 40
3.5
  1
00505.040O
 41
0.8
  7
GREEKS
 72
     1
 11
185.2089251880514
 21
44.07450714456979
 31
0.0
100
AcDbText
  0
TEXT
  5
93
330
1E
100
AcDbEntity
  8
TEXT
 62
     1
100
AcDbText
 10
80.25031532409434
 20
44.07450714456979
 30
0.0
 40
3.5
  1
1:1
 41
0.8
  7
GREEKS
100
AcDbText
  0
TEXT
  5
94
330
1E
100
AcDbEntity
  8
TEXT
100
AcDbText
 10
85.35187950649897
 20
31.55382520412866
 30
0.0
 40
2.0
  1
31.03.
 41
0.8
  7
GREEKS
 72
     1
 11
88.70426045887993
 21
31.55382520412866
 31
0.0
100
AcDbText
  0
TEXT
  5
95
330
1E
100
AcDbEntity
  8
TEXT
 62
     1
100
AcDbText
 10
118.4467865528701
 20
43.70874394626889
 30
0.0
 40
3.5
  1
Winkelbogen 90°
 41
0.8
  7
GREEKS
100
AcDbText
  0
TEXT
  5
96
330
1E
100
AcDbEntity
  8
TEXT
100
AcDbText
 10
117.5648195562657
 20
35.75167208792644
 30
0.0
 40
2.5
  1
DN40 zur Wanddurchführung
 41
0.8
  7
GREEKS
100
AcDbText
  0
TEXT
  5
97
330
1E
100
AcDbEntity
  8
TEXT
100
AcDbText
 10
117.5648195562657
 20
31.05790353387428
 30
0.0
 40
2.5
  1

 41
0.8
  7
GREEKS
100
AcDbText
  0
TEXT
  5
98
330
1E
100
AcDbEntity
  8
TEXT
100
AcDbText
 10
117.5648195562657
 20
25.82005971521079
 30
0.0
 40
2.5
  1
EDV-Art.Nr. 00505.040O
 41
0.8
  7
GREEKS
100
AcDbText
  0
TEXT
  5
99
330
1E
100
AcDbEntity
  8
TEXT
100
AcDbText
 10
117.4918750788913
 20
21.31487076511316
 30
0.0
 40
2.0
  1
00505.040O.DWG
 41
0.8
  7
GREEKS
100
AcDbText
  0
TEXT
  5
9A
330
1E
100
AcDbEntity
  8
TEXT
100
AcDbText
 10
96.31306610404202
 20
45.38181920511511
 30
0.0
 40
2.0
  1
DIN EN1123-2
 41
0.8
  7
GREEKS
 72
     1
 11
104.8083041992801
 21
45.38181920511511
 31
0.0
100
AcDbText
  0
INSERT
  5
9B
330
1E
100
AcDbEntity
  8
STEMPEL
100
AcDbBlockReference
  2
LOGO
 10
75.4977742728897
 20
22.51052638224161
 30
0.0
  0
TEXT
  5
118
330
1E
100
AcDbEntity
  8
BEM
100
AcDbText
 10
208.6511461928583
 20
5.083950539994247
 30
0.0
 40
2.0
  1
Diese Zeichnung ist urheberrechtlich geschützt und bleibt unser Eigentum. Sie darf weder ganz noch teilweise verfielfältigt und nicht an Dritte weitergegeben werden.
 50
90.0
 41
0.8
  7
GREEKS
100
AcDbText
  0
LINE
  5
15F
330
1E
100
AcDbEntity
  8
MITTEL
100
AcDbLine
 10
101.7190165464533
 20
200.7209684473054
 30
0.0
 11
101.7190165464533
 21
91.72096844730535
 31
0.0
  0
LINE
  5
194
330
1E
100
AcDbEntity
  8
STEMPEL
  6
Continuous
100
AcDbLine
 10
132.2134628738609
 20
205.7209684473054
 30
0.0
 11
127.7190165464533
 21
205.7209684473054
 31
0.0
  0
LINE
  5
195
330
1E
100
AcDbEntity
  8
MITTEL
100
AcDbLine
 10
171.7190165464533
 20
226.7209684473054
 30
0.0
 11
127.7190165464533
 21
226.7209684473054
 31
0.0
  0
LINE
  5
196
330
1E
100
AcDbEntity
  8
STEMPEL
  6
Continuous
100
AcDbLine
 10
132.2134628738609
 20
247.7209684473054
 30
0.0
 11
127.7190165464533
 21
247.7209684473054
 31
0.0
  0
LINE
  5
19A
330
1E
100
AcDbEntity
  8
HILF
  6
Continuous
100
AcDbLine
 10
134.5098595077201
 20
246.581181160558
 30
0.0
 11
134.5098595077201
 21
206.8607557340527
 31
0.0
  0
LINE
  5
19B
330
1E
100
AcDbEntity
  8
HILF
  6
Continuous
100
AcDbLine
 10
138.9382590752425
 20
248.8127273722858
 30
0.0
 11
138.9382590752425
 21
204.629209522325
 31
0.0
  0
LINE
  5
19C
330
1E
100
AcDbEntity
  8
HILF
  6
Continuous
100
AcDbLine
 10
147.5372368438993
 20
249.3656139856447
 30
0.0
 11
147.5372368438993
 21
204.0763229089659
 31
0.0
  0
LINE
  5
19D
330
1E
100
AcDbEntity
  8
STEMPEL
  6
Continuous
100
AcDbLine
 10
166.7190165464532
 20
202.5733654469868
 30
0.0
 11
166.7190165464533
 21
250.8685714476239
 31
0.0
  0
ARC
  5
19E
330
1E
100
AcDbEntity
  8
STEMPEL
  6
Continuous
100
AcDbCircle
 10
155.0860165464533
 20
232.2209684473054
 30
0.0
 40
19.99984481626531
100
AcDbArc
 50
90.0
 51
108.1939705983848
  0
ARC
  5
1A0
330
1E
100
AcDbEntity
  8
STEMPEL
  6
Continuous
100
AcDbCircle
 10
141.5408419269497
 20
240.7209684473054
 30
0.0
 40
10.0
100
AcDbArc
 50
90.0
 51
125.6590876961382
  0
ARC
  5
1A3
330
1E
100
AcDbEntity
  8
STEMPEL
  6
Continuous
100
AcDbCircle
 10
132.2134628738609
 20
253.7209684473054
 30
0.0
 40
6.0
100
AcDbArc
 50
270.0
 51
305.6590876961382
  0
LINE
  5
1A5
330
1E
100
AcDbEntity
  8
STEMPEL
  6
Continuous
100
AcDbLine
 10
145.7190165464532
 20
250.7209684473054
 30
0.0
 11
141.5408419269497
 21
250.7209684473054
 31
0.0
  0
ARC
  5
1A6
330
1E
100
AcDbEntity
  8
STEMPEL
  6
Continuous
100
AcDbCircle
 10
145.7190165464532
 20
260.7209684473054
 30
0.0
 40
10.0
100
AcDbArc
 50
270.0
 51
288.1939705983849
  0
ARC
  5
1A8
330
1E
100
AcDbEntity
  8
STEMPEL
  6
Continuous
100
AcDbCircle
 10
160.1768362260448
 20
235.7209684473054
 30
0.0
 40
16.5
100
AcDbArc
 50
66.64070545535942
 51
90.00000000000081
  0
LINE
  5
1AA
330
1E
100
AcDbEntity
  8
STEMPEL
  6
Continuous
100
AcDbLine
 10
160.1768362260446
 20
252.2209684473054
 30
0.0
 11
155.0860165464532
 21
252.2209684473053
 31
0.0
  0
LINE
  5
1AC
330
1E
100
AcDbEntity
  8
STEMPEL
  6
Continuous
100
AcDbLine
 10
155.0860165464532
 20
252.2208132635707
 30
0.0
 11
155.0860165464532
 21
252.2209684473054
 31
0.0
  0
ARC
  5
1B0
330
1E
100
AcDbEntity
  8
STEMPEL
  6
Continuous
100
AcDbCircle
 10
155.0860165464533
 20
221.2209684473053
 30
0.0
 40
19.99984481626531
100
AcDbArc
 50
251.8060294016151
 51
270.0
  0
ARC
  5
1B2
330
1E
100
AcDbEntity
  8
STEMPEL
  6
Continuous
100
AcDbCircle
 10
141.5408419269497
 20
212.7209684473054
 30
0.0
 40
10.0
100
AcDbArc
 50
234.3409123038618
 51
270.0
  0
ARC
  5
1B3
330
1E
100
AcDbEntity
  8
STEMPEL
  6
Continuous
100
AcDbCircle
 10
132.2134628738609
 20
199.7209684473053
 30
0.0
 40
6.0
100
AcDbArc
 50
54.3409123038611
 51
90.0
  0
LINE
  5
1B5
330
1E
100
AcDbEntity
  8
STEMPEL
  6
Continuous
100
AcDbLine
 10
145.7190165464532
 20
202.7209684473053
 30
0.0
 11
141.5408419269496
 21
202.7209684473053
 31
0.0
  0
ARC
  5
1B8
330
1E
100
AcDbEntity
  8
STEMPEL
  6
Continuous
100
AcDbCircle
 10
145.7190165464532
 20
192.7209684473053
 30
0.0
 40
10.0
100
AcDbArc
 50
71.80602940161513
 51
90.0
  0
ARC
  5
1BA
330
1E
100
AcDbEntity
  8
STEMPEL
  6
Continuous
100
AcDbCircle
 10
160.1768362260448
 20
217.7209684473054
 30
0.0
 40
16.5
100
AcDbArc
 50
269.9999999999992
 51
293.3592945446392
  0
LINE
  5
1BC
330
1E
100
AcDbEntity
  8
STEMPEL
  6
Continuous
100
AcDbLine
 10
160.1768362260446
 20
201.2209684473054
 30
0.0
 11
155.0860165464532
 21
201.2209684473054
 31
0.0
  0
LINE
  5
1BE
330
1E
100
AcDbEntity
  8
STEMPEL
  6
Continuous
100
AcDbLine
 10
155.0860165464532
 20
201.2211236310401
 30
0.0
 11
155.0860165464532
 21
201.2209684473054
 31
0.0
  0
LINE
  5
1C0
330
1E
100
AcDbEntity
  8
STEMPEL
100
AcDbLine
 10
122.2815732288236
 20
96.72096844730541
 30
0.0
 11
81.1564598640829
 21
96.72096844730539
 31
0.0
  0
LINE
  5
1C1
102
{ACAD_REACTORS
330
2BC
102
}
330
1E
100
AcDbEntity
  8
STEMPEL
100
AcDbLine
 10
80.7190165464533
 20
200.7209684473054
 30
0.0
 11
80.71901654645328
 21
177.8374836138594
 31
0.0
  0
LINE
  5
1C2
102
{ACAD_REACTORS
330
2C1
102
}
330
1E
100
AcDbEntity
  8
STEMPEL
100
AcDbLine
 10
122.7190165464533
 20
200.7209684473054
 30
0.0
 11
122.7190165464533
 21
177.8374836138594
 31
0.0
  0
LINE
  5
1C3
330
1E
100
AcDbEntity
  8
HILF
100
AcDbLine
 10
121.2132867901382
 20
101.7209684473053
 30
0.0
 11
82.22474630276829
 21
101.7209684473053
 31
0.0
  0
LINE
  5
1C5
330
1E
100
AcDbEntity
  8
STEMPEL
100
AcDbLine
 10
80.71901654645328
 20
101.7209684473054
 30
0.0
 11
81.1564598640829
 21
96.72096844730539
 31
0.0
  0
LINE
  5
1C8
330
1E
100
AcDbEntity
  8
STEMPEL
100
AcDbLine
 10
122.7190165464533
 20
101.7209684473054
 30
0.0
 11
122.2815732288236
 21
96.72096844730539
 31
0.0
  0
ARC
  5
1CA
330
1E
100
AcDbEntity
  8
MITTEL
100
AcDbCircle
 10
127.7190165464533
 20
200.7209684473054
 30
0.0
 40
26.0
100
AcDbArc
 50
89.99999999999998
 51
180.0
  0
ARC
  5
1CB
102
{ACAD_REACTORS
330
2BC
102
}
330
1E
100
AcDbEntity
  8
STEMPEL
100
AcDbCircle
 10
127.7190165464533
 20
200.7209684473054
 30
0.0
 40
47.0
100
AcDbArc
 50
89.99999999999998
 51
180.0
  0
ARC
  5
1CC
102
{ACAD_REACTORS
330
2C1
102
}
330
1E
100
AcDbEntity
  8
STEMPEL
100
AcDbCircle
 10
127.7190165464533
 20
200.7209684473054
 30
0.0
 40
5.0
100
AcDbArc
 50
89.99999999999998
 51
180.0
  0
LINE
  5
1CD
330
1E
100
AcDbEntity
  8
STEMPEL
100
AcDbLine
 10
122.7190165464533
 20
200.7209684473054
 30
0.0
 11
80.7190165464533
 21
200.7209684473054
 31
0.0
  0
TEXT
  5
1CE
330
1E
100
AcDbEntity
  8
TEXT
 62
     1
100
AcDbText
 10
151.9211169861977
 20
230.5421376979784
 30
0.0
 40
3.5
  1
DN40
 41
0.8
  7
GREEKS
100
AcDbText
  0
POLYLINE
  5
1D3
330
1E
100
AcDbEntity
  8
HILF
100
AcDb2dPolyline
 66
     1
 10
0.0
 20
0.0
 30
0.0
 70
     4
 75
     6
  0
VERTEX
  5
1D4
330
1D3
100
AcDbEntity
  8
HILF
100
AcDbVertex
100
AcDb2dVertex
 10
80.7190165464533
 20
177.8374836138594
 30
0.0
 70
    16
  0
VERTEX
  5
1DA
330
1D3
100
AcDbEntity
  8
HILF
100
AcDbVertex
100
AcDb2dVertex
 10
80.7190165464533
 20
177.8374836138594
 30
0.0
 70
     8
  0
VERTEX
  5
1DC
330
1D3
100
AcDbEntity
  8
HILF
100
AcDbVertex
100
AcDb2dVertex
 10
84.42067670270331
 20
179.3755695513594
 30
0.0
 70
     8
  0
VERTEX
  5
1DD
330
1D3
100
AcDbEntity
  8
HILF
100
AcDbVertex
100
AcDb2dVertex
 10
87.6916727964533
 20
180.2984211138594
 30
0.0
 70
     8
  0
VERTEX
  5
1DE
330
1D3
100
AcDbEntity
  8
HILF
100
AcDbVertex
100
AcDb2dVertex
 10
90.5935282652033
 20
180.6939289263594
 30
0.0
 70
     8
  0
VERTEX
  5
1DF
330
1D3
100
AcDbEntity
  8
HILF
100
AcDbVertex
100
AcDb2dVertex
 10
93.18776654645331
 20
180.6499836138593
 30
0.0
 70
     8
  0
VERTEX
  5
1E0
330
1D3
100
AcDbEntity
  8
HILF
100
AcDbVertex
100
AcDb2dVertex
 10
95.5359110777033
 20
180.2544758013594
 30
0.0
 70
     8
  0
VERTEX
  5
1E1
330
1D3
100
AcDbEntity
  8
HILF
100
AcDbVertex
100
AcDb2dVertex
 10
97.69948529645331
 20
179.5952961138594
 30
0.0
 70
     8
  0
VERTEX
  5
1E2
330
1D3
100
AcDbEntity
  8
HILF
100
AcDbVertex
100
AcDb2dVertex
 10
99.7400126402033
 20
178.7603351763594
 30
0.0
 70
     8
  0
VERTEX
  5
1E3
330
1D3
100
AcDbEntity
  8
HILF
100
AcDbVertex
100
AcDb2dVertex
 10
101.7190165464533
 20
177.8374836138594
 30
0.0
 70
     8
  0
VERTEX
  5
1E4
330
1D3
100
AcDbEntity
  8
HILF
100
AcDbVertex
100
AcDb2dVertex
 10
103.6980204527033
 20
176.9146320513593
 30
0.0
 70
     8
  0
VERTEX
  5
1E5
330
1D3
100
AcDbEntity
  8
HILF
100
AcDbVertex
100
AcDb2dVertex
 10
105.7385477964533
 20
176.0796711138594
 30
0.0
 70
     8
  0
VERTEX
  5
1E6
330
1D3
100
AcDbEntity
  8
HILF
100
AcDbVertex
100
AcDb2dVertex
 10
107.9021220152033
 20
175.4204914263594
 30
0.0
 70
     8
  0
VERTEX
  5
1E7
330
1D3
100
AcDbEntity
  8
HILF
100
AcDbVertex
100
AcDb2dVertex
 10
110.2502665464533
 20
175.0249836138594
 30
0.0
 70
     8
  0
VERTEX
  5
1E8
330
1D3
100
AcDbEntity
  8
HILF
100
AcDbVertex
100
AcDb2dVertex
 10
112.8445048277033
 20
174.9810383013594
 30
0.0
 70
     8
  0
VERTEX
  5
1E9
330
1D3
100
AcDbEntity
  8
HILF
100
AcDbVertex
100
AcDb2dVertex
 10
115.7463602964533
 20
175.3765461138593
 30
0.0
 70
     8
  0
VERTEX
  5
1EA
330
1D3
100
AcDbEntity
  8
HILF
100
AcDbVertex
100
AcDb2dVertex
 10
119.0173563902033
 20
176.2993976763594
 30
0.0
 70
     8
  0
VERTEX
  5
1EB
330
1D3
100
AcDbEntity
  8
HILF
100
AcDbVertex
100
AcDb2dVertex
 10
122.7190165464533
 20
177.8374836138594
 30
0.0
 70
     8
  0
VERTEX
  5
1D5
330
1D3
100
AcDbEntity
  8
HILF
100
AcDbVertex
100
AcDb2dVertex
 10
91.21901654645331
 20
182.8374836138594
 30
0.0
 70
    16
  0
VERTEX
  5
1D6
330
1D3
100
AcDbEntity
  8
HILF
100
AcDbVertex
100
AcDb2dVertex
 10
101.7190165464533
 20
177.8374836138594
 30
0.0
 70
    16
  0
VERTEX
  5
1D7
330
1D3
100
AcDbEntity
  8
HILF
100
AcDbVertex
100
AcDb2dVertex
 10
112.2190165464533
 20
172.8374836138593
 30
0.0
 70
    16
  0
VERTEX
  5
1D8
330
1D3
100
AcDbEntity
  8
HILF
100
AcDbVertex
100
AcDb2dVertex
 10
122.7190165464533
 20
177.8374836138594
 30
0.0
 70
    16
  0
SEQEND
  5
1D9
330
1D3
100
AcDbEntity
  8
HILF
  0
POLYLINE
  5
206
330
1E
100
AcDbEntity
  8
HILF
100
AcDb2dPolyline
 66
     1
 10
0.0
 20
0.0
 30
0.0
 70
     4
 75
     6
  0
VERTEX
  5
207
330
206
100
AcDbEntity
  8
HILF
100
AcDbVertex
100
AcDb2dVertex
 10
80.7190165464533
 20
172.8374836138593
 30
0.0
 70
    16
  0
VERTEX
  5
208
330
206
100
AcDbEntity
  8
HILF
100
AcDbVertex
100
AcDb2dVertex
 10
80.7190165464533
 20
172.8374836138593
 30
0.0
 70
     8
  0
VERTEX
  5
209
330
206
100
AcDbEntity
  8
HILF
100
AcDbVertex
100
AcDb2dVertex
 10
84.42067670270331
 20
174.3755695513593
 30
0.0
 70
     8
  0
VERTEX
  5
20A
330
206
100
AcDbEntity
  8
HILF
100
AcDbVertex
100
AcDb2dVertex
 10
87.6916727964533
 20
175.2984211138594
 30
0.0
 70
     8
  0
VERTEX
  5
20B
330
206
100
AcDbEntity
  8
HILF
100
AcDbVertex
100
AcDb2dVertex
 10
90.5935282652033
 20
175.6939289263593
 30
0.0
 70
     8
  0
VERTEX
  5
20C
330
206
100
AcDbEntity
  8
HILF
100
AcDbVertex
100
AcDb2dVertex
 10
93.18776654645331
 20
175.6499836138593
 30
0.0
 70
     8
  0
VERTEX
  5
20D
330
206
100
AcDbEntity
  8
HILF
100
AcDbVertex
100
AcDb2dVertex
 10
95.5359110777033
 20
175.2544758013593
 30
0.0
 70
     8
  0
VERTEX
  5
20E
330
206
100
AcDbEntity
  8
HILF
100
AcDbVertex
100
AcDb2dVertex
 10
97.69948529645331
 20
174.5952961138593
 30
0.0
 70
     8
  0
VERTEX
  5
20F
330
206
100
AcDbEntity
  8
HILF
100
AcDbVertex
100
AcDb2dVertex
 10
99.7400126402033
 20
173.7603351763594
 30
0.0
 70
     8
  0
VERTEX
  5
210
330
206
100
AcDbEntity
  8
HILF
100
AcDbVertex
100
AcDb2dVertex
 10
101.7190165464533
 20
172.8374836138593
 30
0.0
 70
     8
  0
VERTEX
  5
211
330
206
100
AcDbEntity
  8
HILF
100
AcDbVertex
100
AcDb2dVertex
 10
103.6980204527033
 20
171.9146320513593
 30
0.0
 70
     8
  0
VERTEX
  5
212
330
206
100
AcDbEntity
  8
HILF
100
AcDbVertex
100
AcDb2dVertex
 10
105.7385477964533
 20
171.0796711138593
 30
0.0
 70
     8
  0
VERTEX
  5
213
330
206
100
AcDbEntity
  8
HILF
100
AcDbVertex
100
AcDb2dVertex
 10
107.9021220152033
 20
170.4204914263593
 30
0.0
 70
     8
  0
VERTEX
  5
214
330
206
100
AcDbEntity
  8
HILF
100
AcDbVertex
100
AcDb2dVertex
 10
110.2502665464533
 20
170.0249836138594
 30
0.0
 70
     8
  0
VERTEX
  5
215
330
206
100
AcDbEntity
  8
HILF
100
AcDbVertex
100
AcDb2dVertex
 10
112.8445048277033
 20
169.9810383013593
 30
0.0
 70
     8
  0
VERTEX
  5
216
330
206
100
AcDbEntity
  8
HILF
100
AcDbVertex
100
AcDb2dVertex
 10
115.7463602964533
 20
170.3765461138593
 30
0.0
 70
     8
  0
VERTEX
  5
217
330
206
100
AcDbEntity
  8
HILF
100
AcDbVertex
100
AcDb2dVertex
 10
119.0173563902033
 20
171.2993976763593
 30
0.0
 70
     8
  0
VERTEX
  5
218
330
206
100
AcDbEntity
  8
HILF
100
AcDbVertex
100
AcDb2dVertex
 10
122.7190165464533
 20
172.8374836138593
 30
0.0
 70
     8
  0
VERTEX
  5
219
330
206
100
AcDbEntity
  8
HILF
100
AcDbVertex
100
AcDb2dVertex
 10
91.21901654645331
 20
177.8374836138594
 30
0.0
 70
    16
  0
VERTEX
  5
21A
330
206
100
AcDbEntity
  8
HILF
100
AcDbVertex
100
AcDb2dVertex
 10
101.7190165464533
 20
172.8374836138593
 30
0.0
 70
    16
  0
VERTEX
  5
21B
330
206
100
AcDbEntity
  8
HILF
100
AcDbVertex
100
AcDb2dVertex
 10
112.2190165464533
 20
167.8374836138593
 30
0.0
 70
    16
  0
VERTEX
  5
21C
330
206
100
AcDbEntity
  8
HILF
100
AcDbVertex
100
AcDb2dVertex
 10
122.7190165464533
 20
172.8374836138593
 30
0.0
 70
    16
  0
SEQEND
  5
21D
330
206
100
AcDbEntity
  8
HILF
  0
LINE
  5
21E
330
1E
100
AcDbEntity
  8
STEMPEL
100
AcDbLine
 10
122.7190165464533
 20
172.8374836138593
 30
0.0
 11
122.7190165464533
 21
101.7209684473053
 31
0.0
  0
LINE
  5
21F
330
1E
100
AcDbEntity
  8
STEMPEL
100
AcDbLine
 10
80.71901654645328
 20
172.8374836138594
 30
0.0
 11
80.71901654645328
 21
101.7209684473054
 31
0.0
  0
DIMENSION
  5
220
330
1E
100
AcDbEntity
  8
BEM
100
AcDbDimension
  2
*D1
 10
58.90842946882527
 20
226.7209684473054
 30
0.0
 11
55.65842946882522
 21
161.7209684473054
 31
0.0
 70
    32
  1
1000
 71
     5
 42
130.0
  3
Standard
100
AcDbAlignedDimension
 13
81.1564598640829
 23
96.72096844730539
 33
0.0
 14
127.7190165464533
 24
226.7209684473054
 34
0.0
 50
90.0
100
AcDbRotatedDimension
1001
ACAD
1000
DSTYLE
1002
{
1070
    41
1040
3.5
1070
    42
1040
1.0
1070
    43
1040
7.0
1070
    44
1040
1.0
1070
    73
1070
     0
1070
    74
1070
     0
1070
    77
1070
     1
1070
    78
1070
     8
1070
    79
1070
     2
1070
   140
1040
3.5
1070
   141
1040
1.5
1070
   146
1040
0.5
1070
   147
1040
1.5
1070
   172
1070
     1
1070
   178
1070
     1
1070
   179
1070
     2
1070
   271
1070
     2
1070
   272
1070
     2
1070
   284
1070
     8
1070
   285
1070
     8
1070
   286
1070
     8
1002
}
  0
DIMENSION
  5
238
330
1E
100
AcDbEntity
  8
BEM
100
AcDbDimension
  2
*D2
 10
166.7190165464533
 20
269.5315555249334
 30
0.0
 11
134.2190165464533
 21
272.7815555249334
 31
0.0
 70
    32
 71
     5
 42
65.0
  3
Standard
100
AcDbAlignedDimension
 13
101.7190165464533
 23
200.7209684473054
 33
0.0
 14
166.7190165464533
 24
250.8685714476239
 34
0.0
100
AcDbRotatedDimension
1001
ACAD
1000
DSTYLE
1002
{
1070
    41
1040
3.5
1070
    42
1040
1.0
1070
    43
1040
7.0
1070
    44
1040
1.0
1070
    73
1070
     0
1070
    74
1070
     0
1070
    77
1070
     1
1070
    78
1070
     8
1070
    79
1070
     2
1070
   140
1040
3.5
1070
   141
1040
1.5
1070
   146
1040
0.5
1070
   147
1040
1.5
1070
   172
1070
     1
1070
   178
1070
     1
1070
   179
1070
     2
1070
   271
1070
     2
1070
   272
1070
     2
1070
   284
1070
     8
1070
   285
1070
     8
1070
   286
1070
     8
1002
}
  0
DIMENSION
  5
268
330
1E
100
AcDbEntity
  8
BEM
100
AcDbDimension
  2
*D4
 10
127.7190165464533
 20
226.7209684473054
 30
0.0
 11
69.14926307842906
 21
259.2907219153296
 31
0.0
 70
    34
 71
     5
 42
1.570796326794896
  3
Standard
100
AcDb2LineAngularDimension
 13
101.7190165464533
 23
200.7209684473054
 33
0.0
 14
101.7190165464533
 24
91.72096844730535
 34
0.0
 15
171.7190165464533
 25
226.7209684473054
 35
0.0
 16
80.31372300763925
 26
263.7960244074571
 36
0.0
1001
ACAD
1000
DSTYLE
1002
{
1070
    41
1040
3.5
1070
    42
1040
1.0
1070
    43
1040
7.0
1070
    44
1040
1.0
1070
    73
1070
     0
1070
    74
1070
     0
1070
    77
1070
     1
1070
    78
1070
     8
1070
    79
1070
     2
1070
   140
1040
3.5
1070
   141
1040
1.5
1070
   146
1040
0.5
1070
   147
1040
1.5
1070
   172
1070
     1
1070
   178
1070
     1
1070
   179
1070
     2
1070
   271
1070
     2
1070
   272
1070
     2
1070
   284
1070
     8
1070
   285
1070
     8
1070
   286
1070
     8
1002
}
  0
DIMENSION
  5
28B
330
1E
100
AcDbEntity
  8
BEM
100
AcDbDimension
  2
*D5
 10
122.7190165464533
 20
84.67813323939243
 30
0.0
 11
101.7190165464533
 21
87.92813323939242
 31
0.0
 70
    32
  1
%%c<>
 71
     5
 42
42.00000000000001
  3
Standard
100
AcDbAlignedDimension
 13
80.71901654645328
 23
101.7209684473054
 33
0.0
 14
122.7190165464533
 24
101.7209684473053
 34
0.0
100
AcDbRotatedDimension
1001
ACAD
1000
DSTYLE
1002
{
1070
    41
1040
3.5
1070
    42
1040
1.0
1070
    43
1040
7.0
1070
    44
1040
1.0
1070
    73
1070
     0
1070
    74
1070
     0
1070
    77
1070
     1
1070
    78
1070
     8
1070
    79
1070
     2
1070
   140
1040
3.5
1070
   141
1040
1.5
1070
   146
1040
0.5
1070
   147
1040
1.5
1070
   172
1070
     1
1070
   178
1070
     1
1070
   179
1070
     2
1070
   271
1070
     2
1070
   272
1070
     2
1070
   284
1070
     8
1070
   285
1070
     8
1070
   286
1070
     8
1002
}
  0
TEXT
  5
2A9
330
1E
100
AcDbEntity
  8
TEXT
 62
     1
100
AcDbText
 10
98.32802422862449
 20
69.90022919477588
 30
0.0
 40
3.5
  1
Werkstoff: E195 EN10305 feuerverzinkt
 41
0.8
  7
GREEKS
100
AcDbText
  0
ARC
  5
2AF
330
1E
100
AcDbEntity
  8
SCHRAFF
100
AcDbCircle
 10
123.5907797841664
 20
200.7209684473054
 30
0.0
 40
5.0
100
AcDbArc
 50
156.4218215217981
 51
203.5781784782018
  0
ARC
  5
2B0
330
1E
100
AcDbEntity
  8
SCHRAFF
100
AcDbCircle
 10
118.5907797841664
 20
200.7209684473054
 30
0.0
 40
5.0
100
AcDbArc
 50
156.4218215217981
 51
203.5781784782018
  0
ARC
  5
2B1
330
1E
100
AcDbEntity
  8
SCHRAFF
100
AcDbCircle
 10
108.5907797841664
 20
200.7209684473054
 30
0.0
 40
5.0
100
AcDbArc
 50
156.4218215217981
 51
203.5781784782018
  0
ARC
  5
2B2
330
1E
100
AcDbEntity
  8
SCHRAFF
100
AcDbCircle
 10
113.5907797841664
 20
200.7209684473054
 30
0.0
 40
5.0
100
AcDbArc
 50
156.4218215217981
 51
203.5781784782018
  0
ARC
  5
2B3
330
1E
100
AcDbEntity
  8
SCHRAFF
100
AcDbCircle
 10
93.59077978416642
 20
200.7209684473054
 30
0.0
 40
5.0
100
AcDbArc
 50
156.4218215217981
 51
203.5781784782018
  0
ARC
  5
2B4
330
1E
100
AcDbEntity
  8
SCHRAFF
100
AcDbCircle
 10
88.59077978416642
 20
200.7209684473054
 30
0.0
 40
5.0
100
AcDbArc
 50
156.4218215217981
 51
203.5781784782018
  0
ARC
  5
2B5
330
1E
100
AcDbEntity
  8
SCHRAFF
100
AcDbCircle
 10
98.59077978416642
 20
200.7209684473054
 30
0.0
 40
5.0
100
AcDbArc
 50
156.4218215217981
 51
203.5781784782018
  0
ARC
  5
2B6
330
1E
100
AcDbEntity
  8
SCHRAFF
100
AcDbCircle
 10
103.5907797841664
 20
200.7209684473054
 30
0.0
 40
5.0
100
AcDbArc
 50
156.4218215217981
 51
203.5781784782018
  0
ARC
  5
2B7
102
{ACAD_REACTORS
330
2BC
102
}
330
1E
100
AcDbEntity
  8
SCHRAFF
100
AcDbCircle
 10
81.83453646200128
 20
200.7093223889991
 30
0.0
 40
2.279898260763619
100
AcDbArc
 50
118.0740290522825
 51
240.706405496507
  0
HATCH
  5
2BC
330
1E
100
AcDbEntity
  8
SCHRAFF
100
AcDbHatch
 10
0.0
 20
0.0
 30
0.0
210
0.0
220
0.0
230
1.0
  2
_USER
 70
     0
 71
     1
 91
        1
 92
        7
 72
     1
 73
     1
 93
        3
 10
80.7615890189577
 20
202.7209684473053
 42
0.5927677318005863
 10
80.7190165464533
 20
198.7209684473054
 42
0.0
 10
80.7190165464533
 20
200.7209684473054
 42
-0.0106419127897
 97
        3
330
2B7
330
1C1
330
1CB
 75
     0
 76
     0
 52
0.0
 41
0.1
 77
     0
 78
     1
 53
0.0
 43
0.0
 44
0.0
 45
0.0
 46
0.1
 79
     0
 47
0.0275404562646496
 98
        1
 10
80.17292510001107
 20
201.5493051259666
  0
ARC
  5
2BD
102
{ACAD_REACTORS
330
2C1
102
}
330
1E
100
AcDbEntity
  8
SCHRAFF
100
AcDbCircle
 10
121.11218731767
 20
200.910431222148
 30
0.0
 40
2.715814318559661
100
AcDbArc
 50
306.2746476897116
 51
41.8101548644414
  0
HATCH
  5
2C1
330
1E
100
AcDbEntity
  8
SCHRAFF
100
AcDbHatch
 10
0.0
 20
0.0
 30
0.0
210
0.0
220
0.0
230
1.0
  2
_USER
 70
     0
 71
     1
 91
        1
 92
        7
 72
     1
 73
     1
 93
        3
 10
123.1364408514975
 20
202.7209684473054
 42
0.1032437171755983
 10
122.7190165464533
 20
200.7209684473054
 42
0.0
 10
122.7190165464533
 20
198.7209684473053
 42
0.4428023828268929
 97
        3
330
1CC
330
1C2
330
2BD
 75
     0
 76
     0
 52
0.0
 41
0.1
 77
     0
 78
     1
 53
0.0
 43
0.0
 44
0.0
 45
0.0
 46
0.1
 79
     0
 47
0.0191215464309055
 98
        1
 10
123.0695290276201
 20
201.1675685561771
  0
TEXT
  5
2C2
330
1E
100
AcDbEntity
  8
TEXT
 62
     1
100
AcDbText
 10
134.3773012135033
 20
100.7817814191551
 30
0.0
 40
3.5
  1
Rohrende leicht eingezogen
 41
0.8
  7
GREEKS
100
AcDbText
  0
DIMENSION
  5
30A
330
1E
100
AcDbEntity
  8
BEM
100
AcDbDimension
  2
*D7
 10
127.7190165464533
 20
200.7209684473054
 30
0.0
 11
118.0901727398724
 21
210.7457061969161
 31
0.0
 70
   164
 71
     5
 42
25.99999999999997
  3
Standard
100
AcDbRadialDimension
 15
109.7082295701149
 25
219.4722764681598
 35
0.0
 40
0.0
1001
ACAD
1000
DSTYLE
1002
{
1070
    41
1040
3.5
1070
    42
1040
1.0
1070
    43
1040
7.0
1070
    44
1040
1.0
1070
    73
1070
     0
1070
    74
1070
     0
1070
    77
1070
     1
1070
    78
1070
     8
1070
    79
1070
     2
1070
   140
1040
3.5
1070
   141
1040
1.5
1070
   146
1040
0.5
1070
   147
1040
1.5
1070
   172
1070
     1
1070
   178
1070
     1
1070
   179
1070
     2
1070
   271
1070
     2
1070
   272
1070
     2
1070
   284
1070
     8
1070
   285
1070
     8
1070
   286
1070
     8
1070
   288
1070
     1
1002
}
  0
ENDSEC
  0
SECTION
  2
OBJECTS
  0
DICTIONARY
  5
C
330
0
100
AcDbDictionary
281
     1
  3
ACAD_COLOR
350
DF
  3
ACAD_GROUP
350
D
  3
ACAD_LAYOUT
350
19
  3
ACAD_MATERIAL
350
DE
  3
ACAD_MLINESTYLE
350
16
  3
ACAD_PLOTSETTINGS
350
18
  3
ACAD_PLOTSTYLENAME
350
E
  3
AcDbVariableDictionary
350
EA
  0
DICTIONARY
  5
A0
330
1E
100
AcDbDictionary
280
     1
281
     1
  3
ACAD_LAYOUTSELFREF
360
D4
  0
DICTIONARY
  5
A2
330
1A
100
AcDbDictionary
280
     1
281
     1
  3
ACAD_LAYOUTSELFREF
360
D3
  0
DICTIONARY
  5
DF
102
{ACAD_REACTORS
330
C
102
}
330
C
100
AcDbDictionary
281
     1
  0
DICTIONARY
  5
D
102
{ACAD_REACTORS
330
C
102
}
330
C
100
AcDbDictionary
281
     1
  0
DICTIONARY
  5
19
102
{ACAD_REACTORS
330
C
102
}
330
C
100
AcDbDictionary
281
     1
  3
Layout1
350
1D
  3
Model
350
21
  0
DICTIONARY
  5
DE
102
{ACAD_REACTORS
330
C
102
}
330
C
100
AcDbDictionary
281
     1
  0
DICTIONARY
  5
16
102
{ACAD_REACTORS
330
C
102
}
330
C
100
AcDbDictionary
281
     1
  3
Standard
350
17
  0
DICTIONARY
  5
18
102
{ACAD_REACTORS
330
C
102
}
330
C
100
AcDbDictionary
281
     1
  0
ACDBDICTIONARYWDFLT
  5
E
102
{ACAD_REACTORS
330
C
102
}
330
C
100
AcDbDictionary
281
     1
  3
Normal
350
F
100
AcDbDictionaryWithDefault
340
F
  0
DICTIONARY
  5
EA
102
{ACAD_REACTORS
330
C
102
}
330
C
100
AcDbDictionary
281
     1
  3
DIMASSOC
350
EB
  3
PROJECTNAME
350
EC
  0
XRECORD
  5
D4
102
{ACAD_REACTORS
330
A0
102
}
330
A0
100
AcDbXrecord
280
     1
340
1E
  0
XRECORD
  5
D3
102
{ACAD_REACTORS
330
A2
102
}
330
A2
100
AcDbXrecord
280
     1
340
1A
  0
LAYOUT
  5
1D
102
{ACAD_REACTORS
330
19
102
}
330
19
100
AcDbPlotSettings
  1

  2
\\NT_WORK01\HP LaserJet 5000 PCL 6
  4

  6

 40
0.0
 41
0.0
 42
0.0
 43
0.0
 44
0.0
 45
0.0
 46
0.0
 47
0.0
 48
0.0
 49
0.0
140
0.0
141
0.0
142
1.0
143
1.0
 70
   688
 72
     0
 73
     0
 74
     5
  7

 75
    16
147
1.0
 76
     0
 77
     2
 78
   300
148
0.0
149
0.0
100
AcDbLayout
  1
Layout1
 70
     0
 71
     1
 10
0.0
 20
0.0
 11
12.0
 21
9.0
 12
0.0
 22
0.0
 32
0.0
 14
1.000000000000000E+20
 24
1.000000000000000E+20
 34
1.000000000000000E+20
 15
-1.000000000000000E+20
 25
-1.000000000000000E+20
 35
-1.000000000000000E+20
146
0.0
 13
0.0
 23
0.0
 33
0.0
 16
1.0
 26
0.0
 36
0.0
 17
0.0
 27
1.0
 37
0.0
 76
     0
330
1A
  0
LAYOUT
  5
21
102
{ACAD_REACTORS
330
19
102
}
330
19
100
AcDbPlotSettings
  1

  2
none_device
  4
Letter_(8.50_x_11.00_Inches)
  6

 40
6.349999904632568
 41
6.349999904632568
 42
6.350006103515625
 43
6.350006103515625
 44
215.8999938964844
 45
279.3999938964844
 46
0.0
 47
0.0
 48
0.0
 49
0.0
140
0.0
141
0.0
142
1.0
143
1.0
 70
 11952
 72
     0
 73
     1
 74
     0
  7

 75
     0
147
1.0
 76
     0
 77
     2
 78
   300
148
1104.9
149
0.0
100
AcDbLayout
  1
Model
 70
     1
 71
     0
 10
0.0
 20
0.0
 11
12.0
 21
9.0
 12
0.0
 22
0.0
 32
0.0
 14
0.0
 24
0.0
 34
0.0
 15
0.0
 25
0.0
 35
0.0
146
0.0
 13
0.0
 23
0.0
 33
0.0
 16
1.0
 26
0.0
 36
0.0
 17
0.0
 27
1.0
 37
0.0
 76
     0
330
1E
  0
MLINESTYLE
  5
17
102
{ACAD_REACTORS
330
16
102
}
330
16
100
AcDbMlineStyle
  2
STANDARD
 70
     0
  3

 62
   256
 51
90.0
 52
90.0
 71
     2
 49
0.5
 62
   256
  6
BYLAYER
 49
-0.5
 62
   256
  6
BYLAYER
  0
ACDBPLACEHOLDER
  5
F
102
{ACAD_REACTORS
330
E
102
}
330
E
  0
DICTIONARYVAR
  5
EB
102
{ACAD_REACTORS
330
EA
102
}
330
EA
100
DictionaryVariables
280
     0
  1
1
  0
DICTIONARYVAR
  5
EC
102
{ACAD_REACTORS
330
EA
102
}
330
EA
100
DictionaryVariables
280
     0
  1

  0
ENDSEC
  0
EOF
