  0
SECTION
  2
HEADER
  9
$ACADVER
  1
AC1018
  9
$ACADMAINTVER
 70
     2
  9
$DWGCODEPAGE
  3
ANSI_1252
  9
$INSBASE
 10
0.0
 20
0.0
 30
0.0
  9
$EXTMIN
 10
-0.0000000000001137
 20
-0.0000000000001137
 30
0.0
  9
$EXTMAX
 10
420.0
 20
594.0000000000002
 30
0.0
  9
$LIMMIN
 10
0.0
 20
0.0
  9
$LIMMAX
 10
419.9999999999999
 20
594.0000000000002
  9
$ORTHOMODE
 70
     1
  9
$REGENMODE
 70
     1
  9
$FILLMODE
 70
     1
  9
$QTEXTMODE
 70
     0
  9
$MIRRTEXT
 70
     1
  9
$LTSCALE
 40
20.0
  9
$ATTMODE
 70
     1
  9
$TEXTSIZE
 40
3.5
  9
$TRACEWID
 40
0.5
  9
$TEXTSTYLE
  7
STANDARD
  9
$CLAYER
  8
BEM
  9
$CELTYPE
  6
ByLayer
  9
$CECOLOR
 62
   256
  9
$CELTSCALE
 40
1.0
  9
$DISPSILH
 70
     0
  9
$DIMSCALE
 40
2.0
  9
$DIMASZ
 40
3.5
  9
$DIMEXO
 40
1.0
  9
$DIMDLI
 40
7.0
  9
$DIMRND
 40
0.0
  9
$DIMDLE
 40
0.0
  9
$DIMEXE
 40
1.0
  9
$DIMTP
 40
0.0
  9
$DIMTM
 40
0.0
  9
$DIMTXT
 40
3.5
  9
$DIMCEN
 40
1.5
  9
$DIMTSZ
 40
0.0
  9
$DIMTOL
 70
     0
  9
$DIMLIM
 70
     0
  9
$DIMTIH
 70
     0
  9
$DIMTOH
 70
     0
  9
$DIMSE1
 70
     0
  9
$DIMSE2
 70
     0
  9
$DIMTAD
 70
     1
  9
$DIMZIN
 70
     8
  9
$DIMBLK
  1

  9
$DIMASO
 70
     1
  9
$DIMSHO
 70
     0
  9
$DIMPOST
  1

  9
$DIMAPOST
  1

  9
$DIMALT
 70
     0
  9
$DIMALTD
 70
     2
  9
$DIMALTF
 40
25.4
  9
$DIMLFAC
 40
1.0
  9
$DIMTOFL
 70
     1
  9
$DIMTVP
 40
0.0
  9
$DIMTIX
 70
     0
  9
$DIMSOXD
 70
     0
  9
$DIMSAH
 70
     0
  9
$DIMBLK1
  1

  9
$DIMBLK2
  1

  9
$DIMSTYLE
  2
Standard
  9
$DIMCLRD
 70
     0
  9
$DIMCLRE
 70
     0
  9
$DIMCLRT
 70
     1
  9
$DIMTFAC
 40
0.5142857142857144
  9
$DIMGAP
 40
1.5
  9
$DIMJUST
 70
     0
  9
$DIMSD1
 70
     0
  9
$DIMSD2
 70
     0
  9
$DIMTOLJ
 70
     1
  9
$DIMTZIN
 70
     8
  9
$DIMALTZ
 70
     8
  9
$DIMALTTZ
 70
     8
  9
$DIMUPT
 70
     0
  9
$DIMDEC
 70
     2
  9
$DIMTDEC
 70
     2
  9
$DIMALTU
 70
     2
  9
$DIMALTTD
 70
     2
  9
$DIMTXSTY
  7
STANDARD
  9
$DIMAUNIT
 70
     0
  9
$DIMADEC
 70
     2
  9
$DIMALTRND
 40
0.0
  9
$DIMAZIN
 70
     2
  9
$DIMDSEP
 70
    46
  9
$DIMATFIT
 70
     3
  9
$DIMFRAC
 70
     0
  9
$DIMLDRBLK
  1

  9
$DIMLUNIT
 70
     2
  9
$DIMLWD
 70
    -2
  9
$DIMLWE
 70
    -2
  9
$DIMTMOVE
 70
     0
  9
$LUNITS
 70
     2
  9
$LUPREC
 70
     2
  9
$SKETCHINC
 40
1.0
  9
$FILLETRAD
 40
8.0
  9
$AUNITS
 70
     0
  9
$AUPREC
 70
     0
  9
$MENU
  1
ACAD
  9
$ELEVATION
 40
0.0
  9
$PELEVATION
 40
0.0
  9
$THICKNESS
 40
0.0
  9
$LIMCHECK
 70
     0
  9
$CHAMFERA
 40
0.0
  9
$CHAMFERB
 40
0.0
  9
$CHAMFERC
 40
0.0
  9
$CHAMFERD
 40
0.0
  9
$SKPOLY
 70
     0
  9
$TDCREATE
 40
2455397.864709028
  9
$TDUCREATE
 40
2455397.781375695
  9
$TDUPDATE
 40
2455859.404499364
  9
$TDUUPDATE
 40
2455859.321166030
  9
$TDINDWG
 40
0.1486194213
  9
$TDUSRTIMER
 40
0.1486194213
  9
$USRTIMER
 70
     1
  9
$ANGBASE
 50
0.0
  9
$ANGDIR
 70
     0
  9
$PDMODE
 70
     0
  9
$PDSIZE
 40
0.0
  9
$PLINEWID
 40
0.0
  9
$SPLFRAME
 70
     0
  9
$SPLINETYPE
 70
     6
  9
$SPLINESEGS
 70
     8
  9
$HANDSEED
  5
FBF
  9
$SURFTAB1
 70
     6
  9
$SURFTAB2
 70
     6
  9
$SURFTYPE
 70
     6
  9
$SURFU
 70
     6
  9
$SURFV
 70
     6
  9
$UCSBASE
  2

  9
$UCSNAME
  2

  9
$UCSORG
 10
0.0
 20
0.0
 30
0.0
  9
$UCSXDIR
 10
1.0
 20
0.0
 30
0.0
  9
$UCSYDIR
 10
0.0
 20
1.0
 30
0.0
  9
$UCSORTHOREF
  2

  9
$UCSORTHOVIEW
 70
     0
  9
$UCSORGTOP
 10
0.0
 20
0.0
 30
0.0
  9
$UCSORGBOTTOM
 10
0.0
 20
0.0
 30
0.0
  9
$UCSORGLEFT
 10
0.0
 20
0.0
 30
0.0
  9
$UCSORGRIGHT
 10
0.0
 20
0.0
 30
0.0
  9
$UCSORGFRONT
 10
0.0
 20
0.0
 30
0.0
  9
$UCSORGBACK
 10
0.0
 20
0.0
 30
0.0
  9
$PUCSBASE
  2

  9
$PUCSNAME
  2

  9
$PUCSORG
 10
0.0
 20
0.0
 30
0.0
  9
$PUCSXDIR
 10
1.0
 20
0.0
 30
0.0
  9
$PUCSYDIR
 10
0.0
 20
1.0
 30
0.0
  9
$PUCSORTHOREF
  2

  9
$PUCSORTHOVIEW
 70
     0
  9
$PUCSORGTOP
 10
0.0
 20
0.0
 30
0.0
  9
$PUCSORGBOTTOM
 10
0.0
 20
0.0
 30
0.0
  9
$PUCSORGLEFT
 10
0.0
 20
0.0
 30
0.0
  9
$PUCSORGRIGHT
 10
0.0
 20
0.0
 30
0.0
  9
$PUCSORGFRONT
 10
0.0
 20
0.0
 30
0.0
  9
$PUCSORGBACK
 10
0.0
 20
0.0
 30
0.0
  9
$USERI1
 70
     0
  9
$USERI2
 70
     0
  9
$USERI3
 70
     0
  9
$USERI4
 70
     0
  9
$USERI5
 70
     0
  9
$USERR1
 40
0.0
  9
$USERR2
 40
0.0
  9
$USERR3
 40
0.0
  9
$USERR4
 40
0.0
  9
$USERR5
 40
0.0
  9
$WORLDVIEW
 70
     1
  9
$SHADEDGE
 70
     3
  9
$SHADEDIF
 70
    70
  9
$TILEMODE
 70
     1
  9
$MAXACTVP
 70
    16
  9
$PINSBASE
 10
0.0
 20
0.0
 30
0.0
  9
$PLIMCHECK
 70
     0
  9
$PEXTMIN
 10
1.000000000000000E+20
 20
1.000000000000000E+20
 30
1.000000000000000E+20
  9
$PEXTMAX
 10
-1.000000000000000E+20
 20
-1.000000000000000E+20
 30
-1.000000000000000E+20
  9
$PLIMMIN
 10
0.0
 20
0.0
  9
$PLIMMAX
 10
12.0
 20
9.0
  9
$UNITMODE
 70
     0
  9
$VISRETAIN
 70
     0
  9
$PLINEGEN
 70
     0
  9
$PSLTSCALE
 70
     0
  9
$TREEDEPTH
 70
  3020
  9
$CMLSTYLE
  2
Standard
  9
$CMLJUST
 70
     0
  9
$CMLSCALE
 40
1.0
  9
$PROXYGRAPHICS
 70
     1
  9
$MEASUREMENT
 70
     0
  9
$CELWEIGHT
370
    -1
  9
$ENDCAPS
280
     0
  9
$JOINSTYLE
280
     0
  9
$LWDISPLAY
290
     0
  9
$INSUNITS
 70
     0
  9
$HYPERLINKBASE
  1

  9
$STYLESHEET
  1
monochrome1.ctb
  9
$XEDIT
290
     1
  9
$CEPSNTYPE
380
     0
  9
$PSTYLEMODE
290
     1
  9
$FINGERPRINTGUID
  2
{D68B0D02-A558-11D7-B632-000102183313}
  9
$VERSIONGUID
  2
{108B3256-E4A9-4F13-A4C3-18A18E2B4591}
  9
$EXTNAMES
290
     1
  9
$PSVPSCALE
 40
0.0
  9
$OLESTARTUP
290
     0
  9
$SORTENTS
280
   127
  9
$INDEXCTL
280
     0
  9
$HIDETEXT
280
     0
  9
$XCLIPFRAME
290
     0
  9
$HALOGAP
280
     0
  9
$OBSCOLOR
 70
   257
  9
$OBSLTYPE
280
     0
  9
$INTERSECTIONDISPLAY
280
     0
  9
$INTERSECTIONCOLOR
 70
   257
  9
$DIMASSOC
280
     1
  9
$PROJECTNAME
  1

  0
ENDSEC
  0
SECTION
  2
CLASSES
  0
CLASS
  1
ACDBDICTIONARYWDFLT
  2
AcDbDictionaryWithDefault
  3
ObjectDBX Classes
 90
        0
 91
        1
280
     0
281
     0
  0
CLASS
  1
DICTIONARYVAR
  2
AcDbDictionaryVar
  3
ObjectDBX Classes
 90
        0
 91
        2
280
     0
281
     0
  0
ENDSEC
  0
SECTION
  2
TABLES
  0
TABLE
  2
VPORT
  5
8
330
0
100
AcDbSymbolTable
 70
     2
  0
VPORT
  5
FBE
330
8
100
AcDbSymbolTableRecord
100
AcDbViewportTableRecord
  2
*Active
 70
     0
 10
0.0
 20
0.0
 11
1.0
 21
1.0
 12
210.0
 22
297.0
 13
0.0
 23
0.0
 14
1.0
 24
1.0
 15
10.0
 25
10.0
 16
0.0
 26
0.0
 36
1.0
 17
0.0
 27
0.0
 37
0.0
 40
594.1470839067907
 41
1.36388140161725
 42
50.0
 43
0.0
 44
0.0
 50
0.0
 51
0.0
 71
     0
 72
  1500
 73
     1
 74
     0
 75
     0
 76
     0
 77
     0
 78
     0
281
     0
 65
     1
110
0.0
120
0.0
130
0.0
111
1.0
121
0.0
131
0.0
112
0.0
122
1.0
132
0.0
 79
     0
146
0.0
  0
ENDTAB
  0
TABLE
  2
LTYPE
  5
5
330
0
100
AcDbSymbolTable
 70
     2
  0
LTYPE
  5
13
330
5
100
AcDbSymbolTableRecord
100
AcDbLinetypeTableRecord
  2
ByBlock
 70
     0
  3

 72
    65
 73
     0
 40
0.0
  0
LTYPE
  5
14
330
5
100
AcDbSymbolTableRecord
100
AcDbLinetypeTableRecord
  2
ByLayer
 70
     0
  3

 72
    65
 73
     0
 40
0.0
  0
LTYPE
  5
15
330
5
100
AcDbSymbolTableRecord
100
AcDbLinetypeTableRecord
  2
Continuous
 70
     0
  3
Solid line
 72
    65
 73
     0
 40
0.0
  0
LTYPE
  5
25
330
5
100
AcDbSymbolTableRecord
100
AcDbLinetypeTableRecord
  2
STRICHPUNKT
 70
     0
  3
__ . __ . __ . __ . __ . __ . __ . __ . __ . __
 72
    65
 73
     4
 40
1.0
 49
0.5
 74
     0
 49
-0.25
 74
     0
 49
0.0
 74
     0
 49
-0.25
 74
     0
  0
ENDTAB
  0
TABLE
  2
LAYER
  5
2
330
0
100
AcDbSymbolTable
 70
     9
  0
LAYER
  5
10
330
2
100
AcDbSymbolTableRecord
100
AcDbLayerTableRecord
  2
0
 70
     0
 62
     7
  6
Continuous
370
    -3
390
F
  0
LAYER
  5
2A
330
2
100
AcDbSymbolTableRecord
100
AcDbLayerTableRecord
  2
VOLL
 70
     0
 62
     1
  6
Continuous
370
    -3
390
F
  0
LAYER
  5
2B
330
2
100
AcDbSymbolTableRecord
100
AcDbLayerTableRecord
  2
HILF
 70
     0
 62
     2
  6
Continuous
370
    -3
390
F
  0
LAYER
  5
2C
330
2
100
AcDbSymbolTableRecord
100
AcDbLayerTableRecord
  2
MITTEL
 70
     0
 62
     2
  6
STRICHPUNKT
370
    -3
390
F
  0
LAYER
  5
2F
330
2
100
AcDbSymbolTableRecord
100
AcDbLayerTableRecord
  2
BEM
 70
     0
 62
     7
  6
Continuous
370
    -3
390
F
  0
LAYER
  5
30
330
2
100
AcDbSymbolTableRecord
100
AcDbLayerTableRecord
  2
STEMPEL
 70
     0
 62
     3
  6
Continuous
370
    -3
390
F
  0
LAYER
  5
31
330
2
100
AcDbSymbolTableRecord
100
AcDbLayerTableRecord
  2
TEXT
 70
     0
 62
     7
  6
Continuous
370
    -3
390
F
  0
LAYER
  5
14D
330
2
100
AcDbSymbolTableRecord
100
AcDbLayerTableRecord
  2
Defpoints
 70
     0
 62
     7
  6
Continuous
290
     0
370
    -3
390
F
  0
LAYER
  5
1FE
330
2
100
AcDbSymbolTableRecord
100
AcDbLayerTableRecord
  2
SCHRAFF
 70
     0
 62
     7
  6
Continuous
370
    -3
390
F
  0
ENDTAB
  0
TABLE
  2
STYLE
  5
3
330
0
100
AcDbSymbolTable
 70
     2
  0
STYLE
  5
11
330
3
100
AcDbSymbolTableRecord
100
AcDbTextStyleTableRecord
  2
STANDARD
 70
     0
 40
0.0
 41
0.8
 50
0.0
 71
     0
 42
3.5
  3
simplex.shx
  4

  0
STYLE
  5
24
330
3
100
AcDbSymbolTableRecord
100
AcDbTextStyleTableRecord
  2
GREEKS
 70
     0
 40
0.0
 41
0.8
 50
0.0
 71
     0
 42
2.5
  3
SIMPLEX.shx
  4

  0
ENDTAB
  0
TABLE
  2
VIEW
  5
6
330
0
100
AcDbSymbolTable
 70
     0
  0
ENDTAB
  0
TABLE
  2
UCS
  5
7
330
0
100
AcDbSymbolTable
 70
     0
  0
ENDTAB
  0
TABLE
  2
APPID
  5
9
330
0
100
AcDbSymbolTable
 70
     1
  0
APPID
  5
12
330
9
100
AcDbSymbolTableRecord
100
AcDbRegAppTableRecord
  2
ACAD
 70
     0
  0
ENDTAB
  0
TABLE
  2
DIMSTYLE
  5
A
330
0
100
AcDbSymbolTable
 70
     1
100
AcDbDimStyleTable
 71
     1
340
9D
  0
DIMSTYLE
105
9D
102
{ACAD_REACTORS
330
BE9
330
BE3
330
D42
330
D6D
330
E31
330
E92
330
EAE
102
}
330
A
100
AcDbSymbolTableRecord
100
AcDbDimStyleTableRecord
  2
Standard
 70
     0
340
11
  0
ENDTAB
  0
TABLE
  2
BLOCK_RECORD
  5
1
330
0
100
AcDbSymbolTable
 70
     8
  0
BLOCK_RECORD
  5
1E
102
{ACAD_XDICTIONARY
360
A0
102
}
330
1
100
AcDbSymbolTableRecord
100
AcDbBlockTableRecord
  2
*Model_Space
340
21
  0
BLOCK_RECORD
  5
1A
102
{ACAD_XDICTIONARY
360
A2
102
}
330
1
100
AcDbSymbolTableRecord
100
AcDbBlockTableRecord
  2
*Paper_Space
340
1D
  0
BLOCK_RECORD
  5
22
330
1
100
AcDbSymbolTableRecord
100
AcDbBlockTableRecord
  2
LOGO
340
0
102
{BLKREFS
331
9B
102
}
  0
BLOCK_RECORD
  5
BEC
330
1
100
AcDbSymbolTableRecord
100
AcDbBlockTableRecord
  2
*D1
340
0
  0
BLOCK_RECORD
  5
BF9
330
1
100
AcDbSymbolTableRecord
100
AcDbBlockTableRecord
  2
*D2
340
0
  0
BLOCK_RECORD
  5
D43
330
1
100
AcDbSymbolTableRecord
100
AcDbBlockTableRecord
  2
*D3
340
0
  0
BLOCK_RECORD
  5
D6E
330
1
100
AcDbSymbolTableRecord
100
AcDbBlockTableRecord
  2
*D4
340
0
  0
BLOCK_RECORD
  5
E32
330
1
100
AcDbSymbolTableRecord
100
AcDbBlockTableRecord
  2
*D5
340
0
  0
BLOCK_RECORD
  5
E93
330
1
100
AcDbSymbolTableRecord
100
AcDbBlockTableRecord
  2
*D6
340
0
  0
BLOCK_RECORD
  5
EAF
330
1
100
AcDbSymbolTableRecord
100
AcDbBlockTableRecord
  2
*D7
340
0
  0
ENDTAB
  0
ENDSEC
  0
SECTION
  2
BLOCKS
  0
BLOCK
  5
35
330
1E
100
AcDbEntity
  8
0
100
AcDbBlockBegin
  2
*Model_Space
 70
     0
 10
0.0
 20
0.0
 30
0.0
  3
*Model_Space
  1

  0
ENDBLK
  5
36
330
1E
100
AcDbEntity
  8
0
100
AcDbBlockEnd
  0
BLOCK
  5
33
330
1A
100
AcDbEntity
 67
     1
  8
0
100
AcDbBlockBegin
  2
*Paper_Space
 70
     0
 10
0.0
 20
0.0
 30
0.0
  3
*Paper_Space
  1

  0
ENDBLK
  5
34
330
1A
100
AcDbEntity
 67
     1
  8
0
100
AcDbBlockEnd
  0
BLOCK
  5
37
330
22
100
AcDbEntity
  8
0
100
AcDbBlockBegin
  2
LOGO
 70
     0
 10
0.0
 20
0.0
 30
0.0
  3
LOGO
  1

  0
ARC
  5
38
330
22
100
AcDbEntity
  8
0
100
AcDbCircle
 10
11.59973089678112
 20
-9.271599258481501
 30
0.0
 40
4.5
100
AcDbArc
 50
270.0
 51
231.0575587310159
  0
LINE
  5
39
330
22
100
AcDbEntity
  8
0
100
AcDbLine
 10
3.599730896781125
 20
-4.771599258481529
 30
0.0
 11
3.599730896781153
 21
-11.77159925848133
 31
0.0
  0
LINE
  5
3A
330
22
100
AcDbEntity
  8
0
100
AcDbLine
 10
2.599730896781125
 20
-4.771599258481529
 30
0.0
 11
2.599730896781153
 21
-11.77159925848133
 31
0.0
  0
CIRCLE
  5
3B
330
22
100
AcDbEntity
  8
0
100
AcDbCircle
 10
11.59973089678112
 20
-9.271599258481501
 30
0.0
 40
3.5
  0
ARC
  5
3C
330
22
100
AcDbEntity
  8
0
100
AcDbCircle
 10
31.59973089678115
 20
-9.271599258481472
 30
0.0
 40
4.5
100
AcDbArc
 50
270.0
 51
231.0575587310182
  0
LINE
  5
3D
330
22
100
AcDbEntity
  8
0
100
AcDbLine
 10
17.59973089678112
 20
-4.771599258481472
 30
0.0
 11
17.59973089678115
 21
-13.77159925848147
 31
0.0
  0
ARC
  5
3E
330
22
100
AcDbEntity
  8
0
100
AcDbCircle
 10
22.59973089678116
 20
-7.271599258481472
 30
0.0
 40
2.5
100
AcDbArc
 50
293.1161887722295
 51
90.0
  0
CIRCLE
  5
3F
330
22
100
AcDbEntity
  8
0
100
AcDbCircle
 10
31.59973089678115
 20
-9.271599258481472
 30
0.0
 40
3.5
  0
ARC
  5
40
330
22
100
AcDbEntity
  8
0
100
AcDbCircle
 10
4.599730896781153
 20
-11.77159925848133
 30
0.0
 40
1.0
100
AcDbArc
 50
180.0
 51
270.0
  0
ARC
  5
41
330
22
100
AcDbEntity
  8
0
100
AcDbCircle
 10
4.599730896781153
 20
-11.77159925848133
 30
0.0
 40
2.0
100
AcDbArc
 50
179.9999999999992
 51
270.0
  0
LINE
  5
42
330
22
100
AcDbEntity
  8
0
100
AcDbLine
 10
11.59973089678115
 20
-13.77159925848144
 30
0.0
 11
4.599730896781153
 21
-13.77159925848147
 31
0.0
  0
LINE
  5
43
330
22
100
AcDbEntity
  8
0
100
AcDbLine
 10
8.771303772034769
 20
-12.77159925848136
 30
0.0
 11
4.599730896781153
 21
-12.77159925848133
 31
0.0
  0
LINE
  5
44
330
22
100
AcDbEntity
  8
0
100
AcDbLine
 10
31.59973089678115
 20
-13.77159925848147
 30
0.0
 11
23.6715276665056
 21
-13.77159925848144
 31
0.0
  0
LINE
  5
45
330
22
100
AcDbEntity
  8
0
100
AcDbLine
 10
23.56565672307022
 20
-9.51278021337896
 30
0.0
 11
24.4388546544846
 21
-12.77159925848144
 31
0.0
  0
LINE
  5
46
330
22
100
AcDbEntity
  8
0
100
AcDbLine
 10
22.59973089678116
 20
-9.771599258481472
 30
0.0
 11
18.59973089678112
 21
-9.771599258481472
 31
0.0
  0
LINE
  5
47
330
22
100
AcDbEntity
  8
0
100
AcDbLine
 10
18.59973089678115
 20
-13.77159925848144
 30
0.0
 11
17.59973089678115
 21
-13.77159925848144
 31
0.0
  0
LINE
  5
48
330
22
100
AcDbEntity
  8
0
100
AcDbLine
 10
18.59973089678115
 20
-9.771599258481472
 30
0.0
 11
18.59973089678115
 21
-13.77159925848144
 31
0.0
  0
LINE
  5
49
330
22
100
AcDbEntity
  8
0
100
AcDbLine
 10
22.59973089678116
 20
-9.771599258481472
 30
0.0
 11
23.67152766650562
 21
-13.77159925848147
 31
0.0
  0
ARC
  5
4A
330
22
100
AcDbEntity
  8
0
100
AcDbCircle
 10
22.59973089678116
 20
-7.271599258481472
 30
0.0
 40
2.5
100
AcDbArc
 50
270.0
 51
270.0000000000007
  0
LINE
  5
4B
330
22
100
AcDbEntity
  8
0
100
AcDbLine
 10
28.77130377203494
 20
-12.77159925848147
 30
0.0
 11
24.43885465448463
 21
-12.77159925848144
 31
0.0
  0
LINE
  5
4C
330
22
100
AcDbEntity
  8
0
100
AcDbLine
 10
3.599730896781125
 20
-4.771599258481472
 30
0.0
 11
2.599730896781125
 21
-4.771599258481472
 31
0.0
  0
LINE
  5
4D
330
22
100
AcDbEntity
  8
0
100
AcDbLine
 10
22.59973089678116
 20
-8.771599258481472
 30
0.0
 11
18.59973089678115
 21
-8.771599258481472
 31
0.0
  0
LINE
  5
4E
330
22
100
AcDbEntity
  8
0
100
AcDbLine
 10
22.59973089678116
 20
-5.771599258481472
 30
0.0
 11
18.59973089678115
 21
-5.771599258481472
 31
0.0
  0
LINE
  5
4F
330
22
100
AcDbEntity
  8
0
100
AcDbLine
 10
22.59973089678116
 20
-4.771599258481472
 30
0.0
 11
17.59973089678115
 21
-4.771599258481472
 31
0.0
  0
LINE
  5
50
330
22
100
AcDbEntity
  8
0
100
AcDbLine
 10
18.59973089678115
 20
-5.771599258481472
 30
0.0
 11
18.59973089678115
 21
-8.771599258481472
 31
0.0
  0
ARC
  5
51
330
22
100
AcDbEntity
  8
0
100
AcDbCircle
 10
22.59973089678116
 20
-7.271599258481472
 30
0.0
 40
1.5
100
AcDbArc
 50
270.0
 51
90.0
  0
ENDBLK
  5
52
330
22
100
AcDbEntity
  8
0
100
AcDbBlockEnd
  0
BLOCK
  5
BF7
330
BEC
100
AcDbEntity
  8
0
100
AcDbBlockBegin
  2
*D1
 70
     1
 10
0.0
 20
0.0
 30
0.0
  3
*D1
  1

  0
LINE
  5
F69
330
BEC
100
AcDbEntity
  8
BEM
 62
     0
370
    -2
100
AcDbLine
 10
242.8023512717207
 20
257.5887706478379
 30
0.0
 11
242.8023512717207
 21
257.553841893511
 31
0.0
  0
LINE
  5
F6A
330
BEC
100
AcDbEntity
  8
BEM
 62
     0
370
    -2
100
AcDbLine
 10
235.8023512717207
 20
259.553841893511
 30
0.0
 11
228.8023512717207
 21
259.553841893511
 31
0.0
  0
LINE
  5
F6B
330
BEC
100
AcDbEntity
  8
BEM
 62
     0
370
    -2
100
AcDbLine
 10
251.8023512717209
 20
259.553841893511
 30
0.0
 11
268.5356846050542
 21
259.553841893511
 31
0.0
  0
LINE
  5
F6C
330
BEC
100
AcDbEntity
  8
BEM
 62
     0
370
    -2
100
AcDbLine
 10
242.8023512717207
 20
259.553841893511
 30
0.0
 11
244.8023512717209
 21
259.553841893511
 31
0.0
  0
SOLID
  5
F6D
330
BEC
100
AcDbEntity
  8
BEM
 62
     0
100
AcDbTrace
 10
235.8023512717207
 20
260.7205085601777
 30
0.0
 11
235.8023512717207
 21
258.3871752268444
 31
0.0
 12
242.8023512717207
 22
259.553841893511
 32
0.0
 13
242.8023512717207
 23
259.553841893511
 33
0.0
  0
SOLID
  5
F6E
330
BEC
100
AcDbEntity
  8
BEM
 62
     0
100
AcDbTrace
 10
251.8023512717209
 20
260.7205085601777
 30
0.0
 11
251.8023512717209
 21
258.3871752268444
 31
0.0
 12
244.8023512717209
 22
259.553841893511
 32
0.0
 13
244.8023512717209
 23
259.553841893511
 33
0.0
  0
MTEXT
  5
F6F
330
BEC
100
AcDbEntity
  8
BEM
 62
     1
100
AcDbMText
 10
263.6690179383875
 20
266.053841893511
 30
0.0
 40
7.0
 41
0.0
 71
     5
 72
     1
  1
\A1;2
 73
     1
 44
1.0
  0
POINT
  5
F70
330
BEC
100
AcDbEntity
  8
Defpoints
 62
     0
100
AcDbPoint
 10
242.8023512717207
 20
259.5887706478379
 30
0.0
  0
POINT
  5
F71
330
BEC
100
AcDbEntity
  8
Defpoints
 62
     0
100
AcDbPoint
 10
244.8023512717209
 20
259.553841893511
 30
0.0
  0
POINT
  5
F72
330
BEC
100
AcDbEntity
  8
Defpoints
 62
     0
100
AcDbPoint
 10
244.8023512717209
 20
259.553841893511
 30
0.0
  0
ENDBLK
  5
BF8
330
BEC
100
AcDbEntity
  8
0
100
AcDbBlockEnd
  0
BLOCK
  5
C03
330
BF9
100
AcDbEntity
  8
0
100
AcDbBlockBegin
  2
*D2
 70
     1
 10
0.0
 20
0.0
 30
0.0
  3
*D2
  1

  0
LINE
  5
EFC
330
BF9
100
AcDbEntity
  8
BEM
 62
     0
370
    -2
100
AcDbLine
 10
155.8023512717208
 20
235.0844624335842
 30
0.0
 11
155.8023512717208
 21
208.0391220564127
 31
0.0
  0
LINE
  5
EFD
330
BF9
100
AcDbEntity
  8
BEM
 62
     0
370
    -2
100
AcDbLine
 10
244.8023512717209
 20
235.0844624335846
 30
0.0
 11
244.8023512717209
 21
208.0391220564127
 31
0.0
  0
LINE
  5
EFE
330
BF9
100
AcDbEntity
  8
BEM
 62
     0
370
    -2
100
AcDbLine
 10
162.8023512717208
 20
210.0391220564127
 30
0.0
 11
237.8023512717208
 21
210.0391220564127
 31
0.0
  0
SOLID
  5
EFF
330
BF9
100
AcDbEntity
  8
BEM
 62
     0
100
AcDbTrace
 10
162.8023512717208
 20
211.2057887230794
 30
0.0
 11
162.8023512717208
 21
208.872455389746
 31
0.0
 12
155.8023512717208
 22
210.0391220564127
 32
0.0
 13
155.8023512717208
 23
210.0391220564127
 33
0.0
  0
SOLID
  5
F00
330
BF9
100
AcDbEntity
  8
BEM
 62
     0
100
AcDbTrace
 10
237.8023512717208
 20
211.2057887230794
 30
0.0
 11
237.8023512717208
 21
208.872455389746
 31
0.0
 12
244.8023512717209
 22
210.0391220564127
 32
0.0
 13
244.8023512717209
 23
210.0391220564127
 33
0.0
  0
MTEXT
  5
F01
330
BF9
100
AcDbEntity
  8
BEM
 62
     1
100
AcDbMText
 10
200.3023512717208
 20
216.5391220564127
 30
0.0
 40
7.0
 41
0.0
 71
     5
 72
     1
  1
\A1;%%C89
 73
     1
 44
1.0
  0
POINT
  5
F02
330
BF9
100
AcDbEntity
  8
Defpoints
 62
     0
100
AcDbPoint
 10
155.8023512717208
 20
237.0844624335842
 30
0.0
  0
POINT
  5
F03
330
BF9
100
AcDbEntity
  8
Defpoints
 62
     0
100
AcDbPoint
 10
244.8023512717209
 20
237.0844624335846
 30
0.0
  0
POINT
  5
F04
330
BF9
100
AcDbEntity
  8
Defpoints
 62
     0
100
AcDbPoint
 10
244.8023512717209
 20
210.0391220564127
 30
0.0
  0
ENDBLK
  5
C04
330
BF9
100
AcDbEntity
  8
0
100
AcDbBlockEnd
  0
BLOCK
  5
D4D
330
D43
100
AcDbEntity
  8
0
100
AcDbBlockBegin
  2
*D3
 70
     1
 10
0.0
 20
0.0
 30
0.0
  3
*D3
  1

  0
LINE
  5
EF3
330
D43
100
AcDbEntity
  8
BEM
 62
     0
370
    -2
100
AcDbLine
 10
198.3023512717208
 20
365.1543199422385
 30
0.0
 11
134.827170650622
 21
365.1543199422385
 31
0.0
  0
LINE
  5
EF4
330
D43
100
AcDbEntity
  8
BEM
 62
     0
370
    -2
100
AcDbLine
 10
154.4086601763328
 20
230.1543199422384
 30
0.0
 11
134.827170650622
 21
230.1543199422384
 31
0.0
  0
LINE
  5
EF5
330
D43
100
AcDbEntity
  8
BEM
 62
     0
370
    -2
100
AcDbLine
 10
136.827170650622
 20
358.1543199422384
 30
0.0
 11
136.827170650622
 21
237.1543199422385
 31
0.0
  0
SOLID
  5
EF6
330
D43
100
AcDbEntity
  8
BEM
 62
     0
100
AcDbTrace
 10
135.6605039839553
 20
358.1543199422384
 30
0.0
 11
137.9938373172887
 21
358.1543199422384
 31
0.0
 12
136.827170650622
 22
365.1543199422385
 32
0.0
 13
136.827170650622
 23
365.1543199422385
 33
0.0
  0
SOLID
  5
EF7
330
D43
100
AcDbEntity
  8
BEM
 62
     0
100
AcDbTrace
 10
135.6605039839553
 20
237.1543199422385
 30
0.0
 11
137.9938373172886
 21
237.1543199422385
 31
0.0
 12
136.827170650622
 22
230.1543199422384
 32
0.0
 13
136.827170650622
 23
230.1543199422384
 33
0.0
  0
MTEXT
  5
EF8
330
D43
100
AcDbEntity
  8
BEM
 62
     1
100
AcDbMText
 10
130.327170650622
 20
297.6543199422385
 30
0.0
 40
7.0
 41
0.0
 71
     5
 72
     1
  1
\A1;135
 11
0.0000000000000001
 21
1.0
 31
0.0
 73
     1
 44
1.0
  0
POINT
  5
EF9
330
D43
100
AcDbEntity
  8
Defpoints
 62
     0
100
AcDbPoint
 10
200.3023512717208
 20
365.1543199422385
 30
0.0
  0
POINT
  5
EFA
330
D43
100
AcDbEntity
  8
Defpoints
 62
     0
100
AcDbPoint
 10
156.4086601763328
 20
230.1543199422384
 30
0.0
  0
POINT
  5
EFB
330
D43
100
AcDbEntity
  8
Defpoints
 62
     0
100
AcDbPoint
 10
136.827170650622
 20
230.1543199422384
 30
0.0
  0
ENDBLK
  5
D4E
330
D43
100
AcDbEntity
  8
0
100
AcDbBlockEnd
  0
BLOCK
  5
D7A
330
D6E
100
AcDbEntity
  8
0
100
AcDbBlockBegin
  2
*D4
 70
     1
 10
0.0
 20
0.0
 30
0.0
  3
*D4
  1

  0
LINE
  5
EE8
330
D6E
100
AcDbEntity
  8
BEM
 62
     0
370
    -2
100
AcDbLine
 10
345.1036338111371
 20
372.7430335974655
 30
0.0
 11
359.3476517331563
 21
373.4895309448264
 31
0.0
  0
LINE
  5
EE9
330
D6E
100
AcDbEntity
  8
BEM
 62
     0
370
    -2
100
AcDbLine
 10
200.3023512717208
 20
502.1588488560876
 30
0.0
 11
200.3023512717208
 21
524.4178855852503
 31
0.0
  0
ARC
  5
EEA
330
D6E
100
AcDbEntity
  8
BEM
 62
     0
370
    -2
100
AcDbCircle
 10
200.3023512717208
 20
365.1543199422385
 30
0.0
 40
157.2635656430118
100
AcDbArc
 50
5.550518116375177
 51
87.44948188362483
  0
SOLID
  5
EEB
330
D6E
100
AcDbEntity
  8
BEM
 62
     0
100
AcDbTrace
 10
357.9919761125859
 20
380.4523537645041
 30
0.0
 11
355.6651354724821
 21
380.2784081407997
 31
0.0
 12
357.3503926636472
 22
373.3848590323406
 32
0.0
 13
357.3503926636472
 23
373.3848590323406
 33
0.0
  0
SOLID
  5
EEC
330
D6E
100
AcDbEntity
  8
BEM
 62
     0
100
AcDbTrace
 10
207.2746525573242
 20
521.0957184649942
 30
0.0
 11
207.326582364672
 21
523.4284738614199
 31
0.0
 12
200.3023512717209
 22
522.4178855852504
 32
0.0
 13
200.3023512717209
 23
522.4178855852504
 33
0.0
  0
MTEXT
  5
EED
330
D6E
100
AcDbEntity
  8
BEM
 62
     1
100
AcDbMText
 10
313.0297510140125
 20
483.9442133652677
 30
0.0
 40
7.0
 41
0.0
 71
     5
 72
     1
  1
\A1;87°
 11
0.7253743710122878
 21
-0.6883545756937539
 31
0.0
 73
     1
 44
1.0
  0
POINT
  5
EEE
330
D6E
100
AcDbEntity
  8
Defpoints
 62
     0
100
AcDbPoint
 10
333.6694187100482
 20
448.4913129384737
 30
0.0
  0
POINT
  5
EEF
330
D6E
100
AcDbEntity
  8
Defpoints
 62
     0
100
AcDbPoint
 10
200.3023512717208
 20
500.1588488560877
 30
0.0
  0
POINT
  5
EF0
330
D6E
100
AcDbEntity
  8
Defpoints
 62
     0
100
AcDbPoint
 10
343.1063747416279
 20
372.6383616849796
 30
0.0
  0
POINT
  5
EF1
330
D6E
100
AcDbEntity
  8
Defpoints
 62
     0
100
AcDbPoint
 10
233.4638590174026
 20
366.892240920867
 30
0.0
  0
POINT
  5
EF2
330
D6E
100
AcDbEntity
  8
Defpoints
 62
     0
100
AcDbPoint
 10
200.3023512717208
 20
225.1543199422385
 30
0.0
  0
ENDBLK
  5
D7B
330
D6E
100
AcDbEntity
  8
0
100
AcDbBlockEnd
  0
BLOCK
  5
E3C
330
E32
100
AcDbEntity
  8
0
100
AcDbBlockBegin
  2
*D5
 70
     1
 10
0.0
 20
0.0
 30
0.0
  3
*D5
  1

  0
LINE
  5
EDF
330
E32
100
AcDbEntity
  8
SCHRAFF
 62
     0
370
    -2
100
AcDbLine
 10
242.8050922022117
 20
322.8207248109403
 30
0.0
 11
220.7300158875392
 21
321.6638190837851
 31
0.0
  0
LINE
  5
EE0
330
E32
100
AcDbEntity
  8
SCHRAFF
 62
     0
370
    -2
100
AcDbLine
 10
242.8050922022119
 20
411.9428636047556
 30
0.0
 11
216.0721157819189
 21
410.5418476769426
 31
0.0
  0
LINE
  5
EE1
330
E32
100
AcDbEntity
  8
SCHRAFF
 62
     0
370
    -2
100
AcDbLine
 10
222.3609232633479
 20
328.758897739553
 30
0.0
 11
218.4357265451285
 21
403.6561128461464
 31
0.0
  0
SOLID
  5
EE2
330
E32
100
AcDbEntity
  8
SCHRAFF
 62
     0
100
AcDbTrace
 10
223.5259910538949
 20
328.8199563551697
 30
0.0
 11
221.1958554728009
 21
328.6978391239362
 31
0.0
 12
222.7272749570484
 22
321.768490996271
 32
0.0
 13
222.7272749570484
 23
321.768490996271
 33
0.0
  0
SOLID
  5
EE3
330
E32
100
AcDbEntity
  8
SCHRAFF
 62
     0
100
AcDbTrace
 10
219.6007943356755
 20
403.7171714617632
 30
0.0
 11
217.2706587545815
 21
403.5950542305297
 31
0.0
 12
218.069374851428
 22
410.6465195894285
 32
0.0
 13
218.069374851428
 23
410.6465195894285
 33
0.0
  0
MTEXT
  5
EE4
330
E32
100
AcDbEntity
  8
SCHRAFF
 62
     1
100
AcDbMText
 10
226.8894168801429
 20
366.5476890084287
 30
0.0
 40
7.0
 41
0.0
 71
     5
 72
     1
  1
\A1;%%C89
 11
0.0523359562429247
 21
-0.998629534754575
 31
0.0
 73
     1
 44
1.0
  0
POINT
  5
EE5
330
E32
100
AcDbEntity
  8
Defpoints
 62
     0
100
AcDbPoint
 10
244.8023512717209
 20
322.9253967234262
 30
0.0
  0
POINT
  5
EE6
330
E32
100
AcDbEntity
  8
Defpoints
 62
     0
100
AcDbPoint
 10
244.8023512717211
 20
412.0475355172414
 30
0.0
  0
POINT
  5
EE7
330
E32
100
AcDbEntity
  8
Defpoints
 62
     0
100
AcDbPoint
 10
218.069374851428
 20
410.6465195894285
 30
0.0
  0
ENDBLK
  5
E3D
330
E32
100
AcDbEntity
  8
0
100
AcDbBlockEnd
  0
BLOCK
  5
E9D
330
E93
100
AcDbEntity
  8
0
100
AcDbBlockBegin
  2
*D6
 70
     1
 10
0.0
 20
0.0
 30
0.0
  3
*D6
  1

  0
LINE
  5
F99
330
E93
100
AcDbEntity
  8
BEM
 62
     0
370
    -2
100
AcDbLine
 10
150.0955954337964
 20
495.1588488560856
 30
0.0
 11
117.8291809022803
 21
495.1588488560856
 31
0.0
  0
LINE
  5
F9A
330
E93
100
AcDbEntity
  8
BEM
 62
     0
370
    -2
100
AcDbLine
 10
154.4086601763328
 20
230.1543199422384
 30
0.0
 11
117.8291809022802
 21
230.1543199422384
 31
0.0
  0
LINE
  5
F9B
330
E93
100
AcDbEntity
  8
BEM
 62
     0
370
    -2
100
AcDbLine
 10
119.8291809022803
 20
488.1588488560857
 30
0.0
 11
119.8291809022802
 21
237.1543199422385
 31
0.0
  0
SOLID
  5
F9C
330
E93
100
AcDbEntity
  8
BEM
 62
     0
100
AcDbTrace
 10
118.6625142356136
 20
488.1588488560857
 30
0.0
 11
120.995847568947
 21
488.1588488560857
 31
0.0
 12
119.8291809022803
 22
495.1588488560856
 32
0.0
 13
119.8291809022803
 23
495.1588488560856
 33
0.0
  0
SOLID
  5
F9D
330
E93
100
AcDbEntity
  8
BEM
 62
     0
100
AcDbTrace
 10
118.6625142356136
 20
237.1543199422385
 30
0.0
 11
120.9958475689469
 21
237.1543199422385
 31
0.0
 12
119.8291809022802
 22
230.1543199422384
 32
0.0
 13
119.8291809022802
 23
230.1543199422384
 33
0.0
  0
MTEXT
  5
F9E
330
E93
100
AcDbEntity
  8
BEM
 62
     1
100
AcDbMText
 10
113.3291809022802
 20
362.6565843991621
 30
0.0
 40
7.0
 41
0.0
 71
     5
 72
     1
  1
\A1;265
 11
0.0000000000000001
 21
1.0
 31
0.0
 73
     1
 44
1.0
  0
POINT
  5
F9F
330
E93
100
AcDbEntity
  8
Defpoints
 62
     0
100
AcDbPoint
 10
152.0955954337964
 20
495.1588488560856
 30
0.0
  0
POINT
  5
FA0
330
E93
100
AcDbEntity
  8
Defpoints
 62
     0
100
AcDbPoint
 10
156.4086601763328
 20
230.1543199422384
 30
0.0
  0
POINT
  5
FA1
330
E93
100
AcDbEntity
  8
Defpoints
 62
     0
100
AcDbPoint
 10
119.8291809022802
 20
230.1543199422384
 30
0.0
  0
ENDBLK
  5
E9E
330
E93
100
AcDbEntity
  8
0
100
AcDbBlockEnd
  0
BLOCK
  5
EB9
330
EAF
100
AcDbEntity
  8
0
100
AcDbBlockBegin
  2
*D7
 70
     1
 10
0.0
 20
0.0
 30
0.0
  3
*D7
  1

  0
LINE
  5
EC4
330
EAF
100
AcDbEntity
  8
BEM
 62
     0
370
    -2
100
AcDbLine
 10
200.4070231842067
 20
363.1570608727294
 30
0.0
 11
204.0197923508777
 21
294.2213185822698
 31
0.0
  0
LINE
  5
EC5
330
EAF
100
AcDbEntity
  8
BEM
 62
     0
370
    -2
100
AcDbLine
 10
340.7177471090906
 20
322.6794789909498
 30
0.0
 11
341.8306681470081
 21
301.4436805437961
 31
0.0
  0
LINE
  5
EC6
330
EAF
100
AcDbEntity
  8
BEM
 62
     0
370
    -2
100
AcDbLine
 10
210.9055271816739
 20
296.5849293454795
 30
0.0
 11
334.7355894912403
 21
303.0745879196046
 31
0.0
  0
SOLID
  5
EC7
330
EAF
100
AcDbEntity
  8
BEM
 62
     0
100
AcDbTrace
 10
210.8444685660571
 20
297.7499971360265
 30
0.0
 11
210.9665857972906
 21
295.4198615549325
 31
0.0
 12
203.9151204383919
 22
296.2185776517789
 32
0.0
 13
203.9151204383919
 23
296.2185776517789
 33
0.0
  0
SOLID
  5
EC8
330
EAF
100
AcDbEntity
  8
BEM
 62
     0
100
AcDbTrace
 10
334.6745308756235
 20
304.2396557101516
 30
0.0
 11
334.7966481068571
 21
301.9095201290576
 31
0.0
 12
341.7259962345223
 22
303.4409396133052
 32
0.0
 13
341.7259962345223
 23
303.4409396133052
 33
0.0
  0
MTEXT
  5
EC9
330
EAF
100
AcDbEntity
  8
BEM
 62
     1
100
AcDbMText
 10
272.4803746208778
 20
306.3208506084468
 30
0.0
 40
7.0
 41
0.0
 71
     5
 72
     1
  1
\A1;138
 11
0.9986295347545739
 21
0.0523359562429444
 31
0.0
 73
     1
 44
1.0
  0
POINT
  5
ECA
330
EAF
100
AcDbEntity
  8
Defpoints
 62
     0
100
AcDbPoint
 10
200.3023512717208
 20
365.1543199422385
 30
0.0
  0
POINT
  5
ECB
330
EAF
100
AcDbEntity
  8
Defpoints
 62
     0
100
AcDbPoint
 10
340.6130751966047
 20
324.6767380604589
 30
0.0
  0
POINT
  5
ECC
330
EAF
100
AcDbEntity
  8
Defpoints
 62
     0
100
AcDbPoint
 10
341.7259962345223
 20
303.4409396133052
 30
0.0
  0
ENDBLK
  5
EBA
330
EAF
100
AcDbEntity
  8
0
100
AcDbBlockEnd
  0
ENDSEC
  0
SECTION
  2
ENTITIES
  0
LINE
  5
57
330
1E
100
AcDbEntity
  8
STEMPEL
100
AcDbLine
 10
410.0
 20
110.0
 30
0.0
 11
39.99999999999997
 21
110.0
 31
0.0
  0
LINE
  5
58
330
1E
100
AcDbEntity
  8
STEMPEL
100
AcDbLine
 10
146.0000000000001
 20
109.9999999999999
 30
0.0
 11
146.0
 21
9.999999999999971
 31
0.0
  0
LINE
  5
59
330
1E
100
AcDbEntity
  8
STEMPEL
100
AcDbLine
 10
230.0
 20
110.0
 30
0.0
 11
230.0
 21
9.999999999999971
 31
0.0
  0
LINE
  5
5A
330
1E
100
AcDbEntity
  8
STEMPEL
100
AcDbLine
 10
332.0
 20
109.9999999999997
 30
0.0
 11
332.0
 21
40.0
 31
0.0
  0
LINE
  5
5B
330
1E
100
AcDbEntity
  8
STEMPEL
100
AcDbLine
 10
145.9999999999999
 20
29.99999999999997
 30
0.0
 11
39.99999999999997
 21
29.99999999999997
 31
0.0
  0
LINE
  5
5C
330
1E
100
AcDbEntity
  8
STEMPEL
100
AcDbLine
 10
410.0
 20
40.0
 30
0.0
 11
146.0000000000001
 21
39.99999999999997
 31
0.0
  0
LINE
  5
5D
330
1E
100
AcDbEntity
  8
STEMPEL
100
AcDbLine
 10
410.0
 20
80.0
 30
0.0
 11
146.0000000000001
 21
79.99999999999994
 31
0.0
  0
LINE
  5
5E
330
1E
100
AcDbEntity
  8
VOLL
100
AcDbLine
 10
54.00000000000009
 20
110.0
 30
0.0
 11
53.99999999999997
 21
9.999999999999971
 31
0.0
  0
LINE
  5
5F
330
1E
100
AcDbEntity
  8
VOLL
100
AcDbLine
 10
104.0000000000001
 20
109.9999999999999
 30
0.0
 11
104.0
 21
9.999999999999971
 31
0.0
  0
LINE
  5
60
330
1E
100
AcDbEntity
  8
VOLL
100
AcDbLine
 10
124.0000000000001
 20
109.9999999999999
 30
0.0
 11
124.0
 21
9.999999999999971
 31
0.0
  0
LINE
  5
61
330
1E
100
AcDbEntity
  8
VOLL
100
AcDbLine
 10
164.0000000000001
 20
79.99999999999994
 30
0.0
 11
164.0000000000001
 21
39.99999999999997
 31
0.0
  0
LINE
  5
62
330
1E
100
AcDbEntity
  8
VOLL
100
AcDbLine
 10
190.0000000000001
 20
109.9999999999998
 30
0.0
 11
190.0
 21
39.99999999999997
 31
0.0
  0
LINE
  5
63
330
1E
100
AcDbEntity
  8
HILF
100
AcDbLine
 10
40.00000000000008
 20
100.0
 30
0.0
 11
146.0000000000001
 21
100.0
 31
0.0
  0
LINE
  5
64
330
1E
100
AcDbEntity
  8
HILF
100
AcDbLine
 10
40.00000000000008
 20
90.00000000000005
 30
0.0
 11
146.0000000000001
 21
90.00000000000005
 31
0.0
  0
LINE
  5
65
330
1E
100
AcDbEntity
  8
HILF
100
AcDbLine
 10
40.00000000000008
 20
79.99999999999994
 30
0.0
 11
146.0000000000001
 21
79.99999999999994
 31
0.0
  0
LINE
  5
66
330
1E
100
AcDbEntity
  8
HILF
100
AcDbLine
 10
40.00000000000008
 20
69.99999999999994
 30
0.0
 11
146.0000000000001
 21
69.99999999999994
 31
0.0
  0
LINE
  5
67
330
1E
100
AcDbEntity
  8
HILF
100
AcDbLine
 10
40.00000000000008
 20
59.99999999999997
 30
0.0
 11
146.0000000000001
 21
59.99999999999997
 31
0.0
  0
LINE
  5
68
330
1E
100
AcDbEntity
  8
HILF
100
AcDbLine
 10
40.00000000000008
 20
49.99999999999997
 30
0.0
 11
146.0000000000001
 21
49.99999999999997
 31
0.0
  0
LINE
  5
69
330
1E
100
AcDbEntity
  8
HILF
100
AcDbLine
 10
40.00000000000008
 20
39.99999999999997
 30
0.0
 11
146.0000000000001
 21
39.99999999999997
 31
0.0
  0
LINE
  5
6A
330
1E
100
AcDbEntity
  8
HILF
100
AcDbLine
 10
146.0000000000001
 20
69.99999999999994
 30
0.0
 11
230.0
 21
69.99999999999994
 31
0.0
  0
LINE
  5
6B
330
1E
100
AcDbEntity
  8
HILF
100
AcDbLine
 10
146.0000000000001
 20
59.99999999999997
 30
0.0
 11
230.0
 21
59.99999999999997
 31
0.0
  0
LINE
  5
6C
330
1E
100
AcDbEntity
  8
HILF
100
AcDbLine
 10
146.0000000000001
 20
49.99999999999997
 30
0.0
 11
230.0
 21
49.99999999999997
 31
0.0
  0
LINE
  5
6D
330
1E
100
AcDbEntity
  8
HILF
100
AcDbLine
 10
234.7736801096947
 20
84.03758247564139
 30
0.0
 11
324.8353916556311
 21
84.03758247564139
 31
0.0
  0
LINE
  5
6E
330
1E
100
AcDbEntity
  8
HILF
100
AcDbLine
 10
234.7736801096947
 20
69.99999999999994
 30
0.0
 11
324.835391655631
 21
69.99999999999994
 31
0.0
  0
LINE
  5
6F
330
1E
100
AcDbEntity
  8
HILF
100
AcDbLine
 10
234.7736801096947
 20
59.99999999999997
 30
0.0
 11
324.835391655631
 21
59.99999999999997
 31
0.0
  0
LINE
  5
70
330
1E
100
AcDbEntity
  8
HILF
100
AcDbLine
 10
234.7736801096947
 20
49.99999999999997
 30
0.0
 11
324.835391655631
 21
49.99999999999997
 31
0.0
  0
LINE
  5
71
330
1E
100
AcDbEntity
  8
VOLL
100
AcDbLine
 10
332.0
 20
60.0
 30
0.0
 11
410.0
 21
60.0
 31
0.0
  0
LINE
  5
72
330
1E
100
AcDbEntity
  8
HILF
100
AcDbLine
 10
336.7238616296993
 20
83.77983636955827
 30
0.0
 11
404.8588839326728
 21
83.77983636955827
 31
0.0
  0
LINE
  5
73
330
1E
100
AcDbEntity
  8
HILF
100
AcDbLine
 10
233.4909699289885
 20
14.89398258028314
 30
0.0
 11
404.8588839326728
 21
14.89398258028314
 31
0.0
  0
TEXT
  5
74
330
1E
100
AcDbEntity
  8
TEXT
100
AcDbText
 10
67.79509897490102
 20
18.67381894984132
 30
0.0
 40
4.0
  1
Änderung
 41
0.8
  7
GREEKS
 72
     1
 11
78.53795611775817
 21
18.67381894984132
 31
0.0
100
AcDbText
  0
TEXT
  5
75
330
1E
100
AcDbEntity
  8
TEXT
100
AcDbText
 10
153.5163572150377
 20
102.4620895087088
 30
0.0
 40
5.0
  1
Maßstab
 41
0.8
  7
GREEKS
100
AcDbText
  0
TEXT
  5
76
330
1E
100
AcDbEntity
  8
TEXT
100
AcDbText
 10
194.2858954734051
 20
102.4184168434819
 30
0.0
 40
5.0
  1
Zul. Abw.
 41
0.8
  7
GREEKS
100
AcDbText
  0
TEXT
  5
77
330
1E
100
AcDbEntity
  8
TEXT
100
AcDbText
 10
234.877940380901
 20
102.5489328011779
 30
0.0
 40
5.0
  1
Benennung
 41
0.8
  7
GREEKS
100
AcDbText
  0
TEXT
  5
78
330
1E
100
AcDbEntity
  8
TEXT
100
AcDbText
 10
336.178754957634
 20
102.3132034537136
 30
0.0
 40
5.0
  1
Zeichnungs Nr.
 41
0.8
  7
GREEKS
100
AcDbText
  0
TEXT
  5
79
330
1E
100
AcDbEntity
  8
TEXT
100
AcDbText
 10
234.742238391136
 20
30.84560570193057
 30
0.0
 40
5.0
  1
Bauvorhaben
 41
0.8
  7
GREEKS
100
AcDbText
  0
TEXT
  5
7A
330
1E
100
AcDbEntity
  8
TEXT
100
AcDbText
 10
336.7238616296993
 20
73.1811823709997
 30
0.0
 40
5.0
  1
Ersatz für:
 41
0.8
  7
GREEKS
100
AcDbText
  0
TEXT
  5
7B
330
1E
100
AcDbEntity
  8
TEXT
100
AcDbText
 10
48.26641107045756
 20
13.65465846027192
 30
0.0
 40
4.0
  1
Index
 50
90.0
 41
0.8
  7
GREEKS
100
AcDbText
  0
TEXT
  5
7C
330
1E
100
AcDbEntity
  8
TEXT
100
AcDbText
 10
110.6986119235389
 20
18.6715626933981
 30
0.0
 40
4.0
  1
Tag
 41
0.8
  7
GREEKS
 72
     1
 11
114.4319452568723
 21
18.6715626933981
 31
0.0
100
AcDbText
  0
TEXT
  5
7D
330
1E
100
AcDbEntity
  8
TEXT
100
AcDbText
 10
129.0122744386592
 20
18.59324216966408
 30
0.0
 40
4.0
  1
Name
 41
0.8
  7
GREEKS
 72
     1
 11
135.3360839624688
 21
18.59324216966408
 31
0.0
100
AcDbText
  0
TEXT
  5
7E
330
1E
100
AcDbEntity
  8
TEXT
100
AcDbText
 10
172.331167315365
 20
73.31880501229926
 30
0.0
 40
4.0
  1
Tag
 41
0.8
  7
GREEKS
100
AcDbText
  0
TEXT
  5
7F
330
1E
100
AcDbEntity
  8
TEXT
100
AcDbText
 10
202.4626584226295
 20
73.30961091915225
 30
0.0
 40
4.0
  1
Name
 41
0.8
  7
GREEKS
100
AcDbText
  0
TEXT
  5
80
330
1E
100
AcDbEntity
  8
TEXT
100
AcDbText
 10
147.5836127167615
 20
63.62990369617964
 30
0.0
 40
4.0
  1
Gez.
 41
0.8
  7
GREEKS
100
AcDbText
  0
TEXT
  5
81
330
1E
100
AcDbEntity
  8
TEXT
100
AcDbText
 10
147.5515086571672
 20
53.68926291428377
 30
0.0
 40
4.0
  1
Gepr.
 41
0.8
  7
GREEKS
100
AcDbText
  0
TEXT
  5
82
330
1E
100
AcDbEntity
  8
TEXT
100
AcDbText
 10
147.6006777387303
 20
43.52946389649807
 30
0.0
 40
4.0
  1
Norm.
 41
0.8
  7
GREEKS
100
AcDbText
  0
LINE
  5
83
330
1E
100
AcDbEntity
  8
STEMPEL
100
AcDbLine
 10
49.99999999999989
 20
10.0
 30
0.0
 11
410.0
 21
10.0
 31
0.0
  0
TEXT
  5
84
330
1E
100
AcDbEntity
  8
TEXT
100
AcDbText
 10
337.2400861497006
 20
52.07416177878602
 30
0.0
 40
5.0
  1
ersetzt durch:
 41
0.8
  7
GREEKS
100
AcDbText
  0
LINE
  5
85
330
1E
100
AcDbEntity
  8
STEMPEL
100
AcDbLine
 10
410.0
 20
10.0
 30
0.0
 11
39.99999999999989
 21
10.0
 31
0.0
  0
LINE
  5
86
330
1E
100
AcDbEntity
  8
STEMPEL
100
AcDbLine
 10
410.0
 20
10.0
 30
0.0
 11
410.0
 21
584.0
 31
0.0
  0
LINE
  5
87
330
1E
100
AcDbEntity
  8
STEMPEL
100
AcDbLine
 10
40.0
 20
10.0
 30
0.0
 11
39.99999999999989
 21
584.0
 31
0.0
  0
LINE
  5
88
330
1E
100
AcDbEntity
  8
STEMPEL
100
AcDbLine
 10
410.0
 20
584.0
 30
0.0
 11
39.99999999999989
 21
584.0
 31
0.0
  0
LINE
  5
89
330
1E
100
AcDbEntity
  8
HILF
100
AcDbLine
 10
0.0
 20
0.0
 30
0.0
 11
-0.0000000000001137
 21
594.0
 31
0.0
  0
LINE
  5
8A
330
1E
100
AcDbEntity
  8
HILF
100
AcDbLine
 10
419.9999999999999
 20
594.0000000000002
 30
0.0
 11
0.0
 21
594.0
 31
0.0
  0
LINE
  5
8B
330
1E
100
AcDbEntity
  8
HILF
100
AcDbLine
 10
420.0
 20
0.0
 30
0.0
 11
0.0
 21
0.0
 31
0.0
  0
LINE
  5
8C
330
1E
100
AcDbEntity
  8
HILF
100
AcDbLine
 10
31.08767135713856
 20
297.0
 30
0.0
 11
0.0000000000001137
 21
297.0
 31
0.0
  0
TEXT
  5
8D
330
1E
100
AcDbEntity
  8
TEXT
100
AcDbText
 10
148.622109822104
 20
73.14025471151666
 30
0.0
 40
4.0
  1
2011
 41
0.8
  7
GREEKS
100
AcDbText
  0
LINE
  5
8E
330
1E
100
AcDbEntity
  8
HILF
100
AcDbLine
 10
420.0
 20
-0.0000000000001137
 30
0.0
 11
419.9999999999999
 21
594.0
 31
0.0
  0
TEXT
  5
8F
330
1E
100
AcDbEntity
  8
VOLL
100
AcDbText
 10
78.07675471698113
 20
31.02594776470585
 30
0.0
 40
1.8
  1

  7
GREEKS
100
AcDbText
  0
TEXT
  5
90
330
1E
100
AcDbEntity
  8
TEXT
100
AcDbText
 10
41.85509950977674
 20
111.6719999999999
 30
0.0
 40
5.0
  1
Erstellt mit AUTOCAD 2004
 41
0.8
  7
GREEKS
100
AcDbText
  0
TEXT
  5
91
330
1E
100
AcDbEntity
  8
TEXT
100
AcDbText
 10
204.4216048581257
 20
63.0896391972351
 30
0.0
 40
4.0
  1
Koeh
 41
0.8
  7
GREEKS
 72
     1
 11
209.6787477152686
 21
63.0896391972351
 31
0.0
100
AcDbText
  0
TEXT
  5
92
330
1E
100
AcDbEntity
  8
TEXT
 62
     1
100
AcDbText
 10
346.562772406582
 20
88.14901428913959
 30
0.0
 40
7.0
  1
00200MM0N
 41
0.8
  7
GREEKS
 72
     1
 11
370.8294390732486
 21
88.14901428913959
 31
0.0
100
AcDbText
  0
TEXT
  5
93
330
1E
100
AcDbEntity
  8
TEXT
 62
     1
100
AcDbText
 10
160.5006306481887
 20
88.14901428913959
 30
0.0
 40
7.0
  1
1:2
 41
0.8
  7
GREEKS
100
AcDbText
  0
TEXT
  5
94
330
1E
100
AcDbEntity
  8
TEXT
100
AcDbText
 10
170.7037590129979
 20
63.10765040825732
 30
0.0
 40
4.0
  1
24.10.
 41
0.8
  7
GREEKS
 72
     1
 11
177.4085209177598
 21
63.10765040825732
 31
0.0
100
AcDbText
  0
TEXT
  5
95
330
1E
100
AcDbEntity
  8
TEXT
 62
     1
100
AcDbText
 10
234.8732996649198
 20
87.41748789253779
 30
0.0
 40
7.0
  1
Abzweig DN80 87°
 41
0.8
  7
GREEKS
100
AcDbText
  0
TEXT
  5
98
330
1E
100
AcDbEntity
  8
TEXT
100
AcDbText
 10
235.1296391125315
 20
51.64011943042158
 30
0.0
 40
5.0
  1
EDV-Art.Nr. 00200.MM0N
 41
0.8
  7
GREEKS
100
AcDbText
  0
TEXT
  5
99
330
1E
100
AcDbEntity
  8
TEXT
100
AcDbText
 10
234.9837501577827
 20
42.62974153022632
 30
0.0
 40
4.0
  1
00200.MM0N.DWG
 41
0.8
  7
GREEKS
100
AcDbText
  0
TEXT
  5
9A
330
1E
100
AcDbEntity
  8
TEXT
100
AcDbText
 10
192.626132208084
 20
90.76363841023022
 30
0.0
 40
4.0
  1
DIN EN1123-2
 41
0.8
  7
GREEKS
 72
     1
 11
209.6166083985602
 21
90.76363841023022
 31
0.0
100
AcDbText
  0
INSERT
  5
9B
330
1E
100
AcDbEntity
  8
STEMPEL
100
AcDbBlockReference
  2
LOGO
 10
150.9955485457794
 20
45.02105276448322
 30
0.0
 41
2.0
 42
2.0
 43
2.0
  0
TEXT
  5
1D3
330
1E
100
AcDbEntity
  8
TEXT
 62
     1
100
AcDbText
 10
52.49874099215844
 20
154.1323008592396
 30
0.0
 40
7.0
  1
Rohrende leicht eingezogen
 41
0.8
  7
GREEKS
100
AcDbText
  0
TEXT
  5
7D5
330
1E
100
AcDbEntity
  8
VOLL
100
AcDbText
 10
199.479523386162
 20
238.3463558099684
 30
0.0
 40
1.8
  1

  7
GREEKS
100
AcDbText
  0
TEXT
  5
BB5
330
1E
100
AcDbEntity
  8
VOLL
100
AcDbText
 10
526.0874530650375
 20
237.0997877866677
 30
0.0
 40
1.8
  1

  7
GREEKS
100
AcDbText
  0
LINE
  5
BC2
330
1E
100
AcDbEntity
  8
MITTEL
100
AcDbLine
 10
200.3023512717208
 20
500.1588488560876
 30
0.0
 11
200.3023512717208
 21
225.1543199422385
 31
0.0
  0
LINE
  5
BC3
330
1E
100
AcDbEntity
  8
STEMPEL
100
AcDbLine
 10
244.1960423671087
 20
230.1543199422384
 30
0.0
 11
156.4086601763328
 21
230.1543199422384
 31
0.0
  0
LINE
  5
BC9
330
1E
100
AcDbEntity
  8
STEMPEL
100
AcDbLine
 10
152.0955954337964
 20
495.1588488560856
 30
0.0
 11
248.5091071096462
 21
495.1588488560837
 31
0.0
  0
LINE
  5
BCF
330
1E
100
AcDbEntity
  8
HILF
  6
Continuous
100
AcDbLine
 10
157.0228501736241
 20
432.5247760856743
 30
0.0
 11
243.5818523698174
 21
432.5247760856743
 31
0.0
  0
LINE
  5
BD0
330
1E
100
AcDbEntity
  8
HILF
  6
Continuous
100
AcDbLine
 10
154.7134774613255
 20
437.6523378048299
 30
0.0
 11
245.891225082116
 21
437.6523378048299
 31
0.0
  0
LINE
  5
BD1
330
1E
100
AcDbEntity
  8
HILF
  6
Continuous
100
AcDbLine
 10
153.9724646137179
 20
462.7959782755318
 30
0.0
 11
246.6322379297237
 21
462.7959782755318
 31
0.0
  0
LINE
  5
BE0
330
1E
100
AcDbEntity
  8
HILF
100
AcDbLine
 10
243.2023512717208
 20
237.1543199422384
 30
0.0
 11
157.4023512717207
 21
237.1543199422385
 31
0.0
  0
LINE
  5
BE1
330
1E
100
AcDbEntity
  8
STEMPEL
100
AcDbLine
 10
155.8023512717208
 20
237.0844624335842
 30
0.0
 11
156.4086601763328
 21
230.1543199422384
 31
0.0
  0
LINE
  5
BE2
330
1E
100
AcDbEntity
  8
STEMPEL
100
AcDbLine
 10
244.8023512717209
 20
237.0844624335846
 30
0.0
 11
244.1960423671087
 21
230.1543199422384
 31
0.0
  0
DIMENSION
  5
BE3
330
1E
100
AcDbEntity
  8
BEM
100
AcDbDimension
  2
*D1
 10
244.8023512717209
 20
259.553841893511
 30
0.0
 11
263.6690179383875
 21
266.053841893511
 31
0.0
 70
    32
 71
     5
 42
2.000000000000142
  3
Standard
100
AcDbAlignedDimension
 13
242.8023512717207
 23
259.5887706478379
 33
0.0
 14
244.8023512717209
 24
259.553841893511
 34
0.0
100
AcDbRotatedDimension
1001
ACAD
1000
DSTYLE
1002
{
1070
    40
1040
2.0
1070
    41
1040
3.5
1070
    42
1040
1.0
1070
    43
1040
7.0
1070
    44
1040
1.0
1070
    73
1070
     0
1070
    74
1070
     0
1070
    77
1070
     1
1070
    78
1070
     8
1070
    79
1070
     2
1070
   140
1040
3.5
1070
   141
1040
1.5
1070
   146
1040
0.5142857142857144
1070
   147
1040
1.5
1070
   172
1070
     1
1070
   178
1070
     1
1070
   179
1070
     2
1070
   271
1070
     2
1070
   272
1070
     2
1070
   284
1070
     8
1070
   285
1070
     8
1070
   286
1070
     8
1002
}
  0
SPLINE
  5
BE4
102
{ACAD_REACTORS
330
F7E
102
}
330
1E
100
AcDbEntity
  8
HILF
100
AcDbSpline
210
0.0
220
0.0
230
1.0
 70
     8
 71
     3
 72
    12
 73
     8
 74
     0
 42
0.0000000001
 43
0.0000000001
 40
2.184860773674826
 40
2.184860773674826
 40
2.184860773674826
 40
2.184860773674826
 40
10.1254280538245
 40
15.38793514665758
 40
23.42052476021233
 40
31.33195663345285
 40
41.42215370063103
 40
41.42215370063103
 40
41.42215370063103
 40
41.42215370063103
 10
244.8023512717209
 20
278.8778529494544
 30
0.0
 10
241.0424838730066
 20
277.6688640953795
 30
0.0
 10
234.8549893803592
 20
275.4182371714048
 30
0.0
 10
225.6984801541561
 20
268.8189335627324
 30
0.0
 10
225.6163548659533
 20
256.9098468720815
 30
0.0
 10
231.1915977517683
 20
244.4469686306538
 30
0.0
 10
239.7707341708237
 20
240.9580528086172
 30
0.0
 10
244.8023512717209
 20
239.2444243588567
 30
0.0
  0
LINE
  5
BE7
330
1E
100
AcDbEntity
  8
STEMPEL
100
AcDbLine
 10
244.802351271721
 20
429.1217273837384
 30
0.0
 11
244.8023512717211
 21
412.0475355172414
 31
0.0
  0
LINE
  5
BE8
330
1E
100
AcDbEntity
  8
STEMPEL
100
AcDbLine
 10
155.8023512717208
 20
429.1217273837384
 30
0.0
 11
155.8023512717208
 21
237.0844624335842
 31
0.0
  0
DIMENSION
  5
BE9
330
1E
100
AcDbEntity
  8
BEM
100
AcDbDimension
  2
*D2
 10
244.8023512717209
 20
210.0391220564127
 30
0.0
 11
200.3023512717208
 21
216.5391220564127
 31
0.0
 70
    32
  1
%%C<>
 71
     5
 42
89.0
  3
Standard
100
AcDbAlignedDimension
 13
155.8023512717208
 23
237.0844624335842
 33
0.0
 14
244.8023512717209
 24
237.0844624335846
 34
0.0
100
AcDbRotatedDimension
1001
ACAD
1000
DSTYLE
1002
{
1070
    40
1040
2.0
1070
    41
1040
3.5
1070
    42
1040
1.0
1070
    43
1040
7.0
1070
    44
1040
1.0
1070
    73
1070
     0
1070
    74
1070
     0
1070
    77
1070
     1
1070
    78
1070
     8
1070
    79
1070
     2
1070
   140
1040
3.5
1070
   141
1040
1.5
1070
   146
1040
0.5142857142857144
1070
   147
1040
1.5
1070
   172
1070
     1
1070
   178
1070
     1
1070
   179
1070
     2
1070
   271
1070
     2
1070
   272
1070
     2
1070
   284
1070
     8
1070
   285
1070
     8
1070
   286
1070
     8
1002
}
  0
TEXT
  5
C92
330
1E
100
AcDbEntity
  8
VOLL
100
AcDbText
 10
192.112584249839
 20
467.656738794551
 30
0.0
 40
7.0
  1
DN80
 50
90.0
 41
0.8
  7
GREEKS
100
AcDbText
  0
TEXT
  5
C93
330
1E
100
AcDbEntity
  8
VOLL
100
AcDbText
 10
310.2201884038367
 20
379.115875905806
 30
0.0
 40
7.0
  1
DN80
 50
3.000000000000004
 41
0.8
  7
GREEKS
100
AcDbText
  0
LINE
  5
C94
102
{ACAD_REACTORS
330
E0E
102
}
330
1E
100
AcDbEntity
  8
STEMPEL
100
AcDbLine
 10
274.4955572282028
 20
324.4815517073995
 30
0.0
 11
244.8023512717208
 21
322.9253967234263
 31
0.0
  0
LINE
  5
CA1
330
1E
100
AcDbEntity
  8
MITTEL
100
AcDbLine
 10
343.1063747416279
 20
372.6383616849796
 30
0.0
 11
233.4638590174025
 21
366.892240920867
 31
0.0
  0
LINE
  5
CAA
330
1E
100
AcDbEntity
  8
STEMPEL
100
AcDbLine
 10
269.8376571225807
 20
413.3595803005566
 30
0.0
 11
244.8023512717211
 21
412.0475355172414
 31
0.0
  0
LINE
  5
CCF
102
{ACAD_REACTORS
330
E0E
330
F7E
102
}
330
1E
100
AcDbEntity
  8
STEMPEL
100
AcDbLine
 10
244.8023512717208
 20
322.9253967234263
 30
0.0
 11
244.8023512717209
 21
237.0844624335846
 31
0.0
  0
DIMENSION
  5
D42
330
1E
100
AcDbEntity
  8
BEM
100
AcDbDimension
  2
*D3
 10
136.827170650622
 20
230.1543199422384
 30
0.0
 11
130.327170650622
 21
297.6543199422385
 31
0.0
 70
    32
 71
     5
 42
135.0
  3
Standard
100
AcDbAlignedDimension
 13
200.3023512717208
 23
365.1543199422385
 33
0.0
 14
156.4086601763328
 24
230.1543199422384
 34
0.0
 50
90.0
100
AcDbRotatedDimension
1001
ACAD
1000
DSTYLE
1002
{
1070
    40
1040
2.0
1070
    41
1040
3.5
1070
    42
1040
1.0
1070
    43
1040
7.0
1070
    44
1040
1.0
1070
    73
1070
     0
1070
    74
1070
     0
1070
    77
1070
     1
1070
    78
1070
     8
1070
    79
1070
     2
1070
   140
1040
3.5
1070
   141
1040
1.5
1070
   146
1040
0.5142857142857144
1070
   147
1040
1.5
1070
   172
1070
     1
1070
   178
1070
     1
1070
   179
1070
     2
1070
   271
1070
     2
1070
   272
1070
     2
1070
   284
1070
     8
1070
   285
1070
     8
1070
   286
1070
     8
1002
}
  0
LINE
  5
D64
330
1E
100
AcDbEntity
  8
MITTEL
100
AcDbLine
 10
218.7225109562721
 20
366.1196796053448
 30
0.0
 11
200.3023512717208
 21
365.1543199422385
 31
0.0
  0
DIMENSION
  5
D6D
330
1E
100
AcDbEntity
  8
BEM
100
AcDbDimension
  2
*D4
 10
200.3023512717208
 20
225.1543199422385
 30
0.0
 11
313.0297510140126
 21
483.9442133652677
 31
0.0
 70
    34
 71
     5
 42
1.518436449235066
  3
Standard
100
AcDb2LineAngularDimension
 13
343.1063747416279
 23
372.6383616849796
 33
0.0
 14
233.4638590174025
 24
366.892240920867
 34
0.0
 15
200.3023512717208
 25
500.1588488560876
 35
0.0
 16
333.6694187100482
 26
448.4913129384737
 36
0.0
1001
ACAD
1000
DSTYLE
1002
{
1070
    40
1040
2.0
1070
    41
1040
3.5
1070
    42
1040
1.0
1070
    43
1040
7.0
1070
    44
1040
1.0
1070
    73
1070
     0
1070
    74
1070
     0
1070
    77
1070
     1
1070
    78
1070
     8
1070
    79
1070
     2
1070
   140
1040
3.5
1070
   141
1040
1.5
1070
   146
1040
0.5142857142857144
1070
   147
1040
1.5
1070
   172
1070
     1
1070
   178
1070
     1
1070
   179
1070
     2
1070
   271
1070
     2
1070
   272
1070
     2
1070
   284
1070
     8
1070
   285
1070
     8
1070
   286
1070
     8
1002
}
  0
LINE
  5
DE8
330
1E
100
AcDbEntity
  8
STEMPEL
100
AcDbLine
 10
244.8023512717211
 20
412.0475355172414
 30
0.0
 11
200.3023512717208
 21
365.1543199422385
 31
0.0
  0
LINE
  5
DE9
330
1E
100
AcDbEntity
  8
STEMPEL
100
AcDbLine
 10
200.3023512717208
 20
365.1543199422385
 30
0.0
 11
244.8023512717208
 21
322.9253967234263
 31
0.0
  0
ARC
  5
DED
330
1E
100
AcDbEntity
  8
SCHRAFF
100
AcDbCircle
 10
200.3023512717208
 20
365.1543199422385
 30
0.0
 40
5.0
100
AcDbArc
 50
279.630102354157
 51
353.369897645844
  0
ARC
  5
DEE
330
1E
100
AcDbEntity
  8
SCHRAFF
100
AcDbCircle
 10
203.9292231267823
 20
361.7125470637696
 30
0.0
 40
5.0
100
AcDbArc
 50
279.630102354157
 51
353.369897645844
  0
ARC
  5
DEF
330
1E
100
AcDbEntity
  8
SCHRAFF
100
AcDbCircle
 10
207.5560949818437
 20
358.2707741853009
 30
0.0
 40
5.0
100
AcDbArc
 50
279.630102354157
 51
353.369897645844
  0
ARC
  5
DF0
330
1E
100
AcDbEntity
  8
SCHRAFF
100
AcDbCircle
 10
211.1829668369052
 20
354.8290013068321
 30
0.0
 40
5.0
100
AcDbArc
 50
279.630102354157
 51
353.369897645844
  0
ARC
  5
DF1
330
1E
100
AcDbEntity
  8
SCHRAFF
100
AcDbCircle
 10
214.8098386919666
 20
351.3872284283633
 30
0.0
 40
5.0
100
AcDbArc
 50
279.630102354157
 51
353.369897645844
  0
ARC
  5
DF2
330
1E
100
AcDbEntity
  8
SCHRAFF
100
AcDbCircle
 10
218.436710547028
 20
347.9454555498945
 30
0.0
 40
5.0
100
AcDbArc
 50
279.630102354157
 51
353.369897645844
  0
ARC
  5
DF3
330
1E
100
AcDbEntity
  8
SCHRAFF
100
AcDbCircle
 10
222.0635824020895
 20
344.5036826714257
 30
0.0
 40
5.0
100
AcDbArc
 50
279.630102354157
 51
353.369897645844
  0
ARC
  5
DF4
330
1E
100
AcDbEntity
  8
SCHRAFF
100
AcDbCircle
 10
225.6904542571509
 20
341.0619097929569
 30
0.0
 40
5.0
100
AcDbArc
 50
279.630102354157
 51
353.369897645844
  0
ARC
  5
DF5
330
1E
100
AcDbEntity
  8
SCHRAFF
100
AcDbCircle
 10
229.3173261122124
 20
337.6201369144882
 30
0.0
 40
5.0
100
AcDbArc
 50
279.630102354157
 51
353.369897645844
  0
ARC
  5
DF6
330
1E
100
AcDbEntity
  8
SCHRAFF
100
AcDbCircle
 10
232.9441979672738
 20
334.1783640360194
 30
0.0
 40
5.0
100
AcDbArc
 50
279.630102354157
 51
353.369897645844
  0
ARC
  5
DF7
330
1E
100
AcDbEntity
  8
SCHRAFF
100
AcDbCircle
 10
236.5710698223352
 20
330.7365911575506
 30
0.0
 40
5.0
100
AcDbArc
 50
279.630102354157
 51
353.369897645844
  0
ARC
  5
DF8
330
1E
100
AcDbEntity
  8
SCHRAFF
100
AcDbCircle
 10
240.1979416773967
 20
327.2948182790818
 30
0.0
 40
5.0
100
AcDbArc
 50
279.630102354157
 51
353.369897645844
  0
ARC
  5
DF9
102
{ACAD_REACTORS
330
E0E
102
}
330
1E
100
AcDbEntity
  8
BEM
100
AcDbCircle
 10
243.0383598585792
 20
324.599362070487
 30
0.0
 40
6.071654292974923
100
AcDbArc
 50
286.8896267931482
 51
346.1103732068519
  0
ARC
  5
DFB
330
1E
100
AcDbEntity
  8
SCHRAFF
100
AcDbCircle
 10
216.2820404209129
 20
381.993398775825
 30
0.0
 40
5.0
100
AcDbArc
 50
9.630102354155916
 51
83.36989764584293
  0
ARC
  5
DFC
330
1E
100
AcDbEntity
  8
SCHRAFF
100
AcDbCircle
 10
212.8402675424442
 20
378.3665269207635
 30
0.0
 40
5.0
100
AcDbArc
 50
9.630102354155916
 51
83.36989764584293
  0
ARC
  5
DFD
330
1E
100
AcDbEntity
  8
SCHRAFF
100
AcDbCircle
 10
209.3984946639754
 20
374.7396550657021
 30
0.0
 40
5.0
100
AcDbArc
 50
9.630102354155916
 51
83.36989764584293
  0
ARC
  5
DFE
330
1E
100
AcDbEntity
  8
SCHRAFF
100
AcDbCircle
 10
205.9567217855066
 20
371.1127832106406
 30
0.0
 40
5.0
100
AcDbArc
 50
9.630102354155916
 51
83.36989764584293
  0
ARC
  5
DFF
330
1E
100
AcDbEntity
  8
SCHRAFF
100
AcDbCircle
 10
202.5149489070379
 20
367.4859113555791
 30
0.0
 40
5.0
100
AcDbArc
 50
9.630102354155916
 51
83.36989764584293
  0
ARC
  5
E00
330
1E
100
AcDbEntity
  8
SCHRAFF
100
AcDbCircle
 10
199.073176028569
 20
363.8590395005177
 30
0.0
 40
5.0
100
AcDbArc
 50
9.630102354155916
 51
83.36989764584293
  0
ARC
  5
E02
330
1E
100
AcDbEntity
  8
SCHRAFF
100
AcDbCircle
 10
233.4909048132568
 20
400.1277580511322
 30
0.0
 40
5.0
100
AcDbArc
 50
9.630102354155916
 51
83.36989764584293
  0
ARC
  5
E03
330
1E
100
AcDbEntity
  8
SCHRAFF
100
AcDbCircle
 10
230.049131934788
 20
396.5008861960707
 30
0.0
 40
5.0
100
AcDbArc
 50
9.630102354155916
 51
83.36989764584293
  0
ARC
  5
E04
330
1E
100
AcDbEntity
  8
SCHRAFF
100
AcDbCircle
 10
226.6073590563193
 20
392.8740143410093
 30
0.0
 40
5.0
100
AcDbArc
 50
9.630102354155916
 51
83.36989764584293
  0
ARC
  5
E05
330
1E
100
AcDbEntity
  8
SCHRAFF
100
AcDbCircle
 10
223.1655861778505
 20
389.2471424859479
 30
0.0
 40
5.0
100
AcDbArc
 50
9.630102354155916
 51
83.36989764584293
  0
ARC
  5
E06
330
1E
100
AcDbEntity
  8
SCHRAFF
100
AcDbCircle
 10
219.7238132993817
 20
385.6202706308863
 30
0.0
 40
5.0
100
AcDbArc
 50
9.630102354155916
 51
83.36989764584293
  0
ARC
  5
E07
330
1E
100
AcDbEntity
  8
SCHRAFF
100
AcDbCircle
 10
236.9326776917255
 20
403.7546299061935
 30
0.0
 40
5.0
100
AcDbArc
 50
9.630102354155916
 51
83.36989764584293
  0
HATCH
  5
E0E
330
1E
100
AcDbEntity
  8
SCHRAFF
100
AcDbHatch
 10
0.0
 20
0.0
 30
0.0
210
0.0
220
0.0
230
1.0
  2
_USER
 70
     0
 71
     1
 91
        1
 92
        7
 72
     1
 73
     1
 93
        3
 10
248.9324787258833
 20
323.141847531455
 42
0.0
 10
244.8023512717209
 20
322.9253967234264
 42
0.0
 10
244.8023512717209
 20
318.7896013053812
 42
0.2643082416165217
 97
        3
330
C94
330
CCF
330
DF9
 75
     0
 76
     0
 52
0.0
 41
0.1
 77
     0
 78
     1
 53
0.0
 43
-0.0000000000000568
 44
16.6639944382762
 45
0.0
 46
0.1
 79
     0
 47
0.2562356604904222
 98
        1
 10
247.4926910671765
 20
321.6721876126878
  0
ARC
  5
E0F
330
1E
100
AcDbEntity
  8
SCHRAFF
100
AcDbCircle
 10
240.3744505701943
 20
407.3815017612551
 30
0.0
 40
5.0
100
AcDbArc
 50
9.630102354155916
 51
83.36989764584293
  0
ARC
  5
E12
330
1E
100
AcDbEntity
  8
SCHRAFF
100
AcDbCircle
 10
243.1187708681976
 20
410.2734119486956
 30
0.0
 40
6.359250625815694
100
AcDbArc
 50
18.35180678554163
 51
74.64819321445969
  0
HATCH
  5
E1A
330
1E
100
AcDbEntity
  8
SCHRAFF
100
AcDbHatch
 10
0.0
 20
0.0
 30
0.0
210
0.0
220
0.0
230
1.0
  2
_USER
 70
     0
 71
     0
 91
        2
 92
        7
 72
     1
 73
     1
 93
        3
 10
244.8023512717211
 20
412.5197179872356
 42
0.0
 10
244.8023512717211
 20
412.0475355172413
 42
0.0
 10
245.2738866320507
 20
412.0722476383296
 42
0.0325373064246715
 97
        0
 92
        7
 72
     1
 73
     1
 93
        4
 10
244.8023512717211
 20
416.4057545310052
 42
0.0
 10
244.8023512717211
 20
412.5197179872356
 42
-0.0325373064246694
 10
245.2738866320506
 20
412.0722476383296
 42
0.0
 10
249.1545974977949
 20
412.2756270768428
 42
0.2507020693423809
 97
        0
 75
     0
 76
     0
 52
0.0
 41
0.1
 77
     0
 78
     1
 53
0.0
 43
-0.0000000000000568
 44
16.6639944382762
 45
0.0
 46
0.1
 79
     0
 47
0.0576401532112858
 98
        2
 10
245.0866118895923
 20
412.1384959834324
 10
245.836492149941
 20
412.9454579071222
  0
DIMENSION
  5
E31
330
1E
100
AcDbEntity
  8
SCHRAFF
100
AcDbDimension
  2
*D5
 10
218.069374851428
 20
410.6465195894285
 30
0.0
 11
226.8894168801429
 21
366.5476890084288
 31
0.0
 70
    32
  1
%%C<>
 71
     5
 42
89.00000000000034
 51
87.00000000000111
  3
Standard
100
AcDbAlignedDimension
 13
244.8023512717208
 23
322.9253967234261
 33
0.0
 14
244.8023512717211
 24
412.0475355172414
 34
0.0
 50
272.9999999999989
100
AcDbRotatedDimension
1001
ACAD
1000
DSTYLE
1002
{
1070
    40
1040
2.0
1070
    41
1040
3.5
1070
    42
1040
1.0
1070
    43
1040
7.0
1070
    44
1040
1.0
1070
    73
1070
     0
1070
    74
1070
     0
1070
    77
1070
     1
1070
    78
1070
     8
1070
    79
1070
     2
1070
   140
1040
3.5
1070
   141
1040
1.5
1070
   146
1040
0.5142857142857144
1070
   147
1040
1.5
1070
   172
1070
     1
1070
   178
1070
     1
1070
   179
1070
     2
1070
   271
1070
     2
1070
   272
1070
     2
1070
   284
1070
     8
1070
   285
1070
     8
1070
   286
1070
     8
1002
}
  0
DIMENSION
  5
E92
330
1E
100
AcDbEntity
  8
BEM
100
AcDbDimension
  2
*D6
 10
119.8291809022802
 20
230.1543199422384
 30
0.0
 11
113.3291809022802
 21
362.6565843991621
 31
0.0
 70
    32
 71
     5
 42
265.0045289138472
  3
Standard
100
AcDbAlignedDimension
 13
152.0955954337964
 23
495.1588488560856
 33
0.0
 14
156.4086601763328
 24
230.1543199422384
 34
0.0
 50
90.0
100
AcDbRotatedDimension
1001
ACAD
1000
DSTYLE
1002
{
1070
    40
1040
2.0
1070
    41
1040
3.5
1070
    42
1040
1.0
1070
    43
1040
7.0
1070
    44
1040
1.0
1070
    73
1070
     0
1070
    74
1070
     0
1070
    77
1070
     1
1070
    78
1070
     8
1070
    79
1070
     2
1070
   140
1040
3.5
1070
   141
1040
1.5
1070
   146
1040
0.5142857142857144
1070
   147
1040
1.5
1070
   172
1070
     1
1070
   178
1070
     1
1070
   179
1070
     2
1070
   271
1070
     2
1070
   272
1070
     2
1070
   284
1070
     8
1070
   285
1070
     8
1070
   286
1070
     8
1002
}
  0
LINE
  5
E9F
330
1E
100
AcDbEntity
  8
BEM
100
AcDbLine
 10
244.802351271721
 20
372.4864661203338
 30
0.0
 11
244.8023512717209
 21
362.4864661203338
 31
0.0
  0
DIMENSION
  5
EAE
330
1E
100
AcDbEntity
  8
BEM
100
AcDbDimension
  2
*D7
 10
341.7259962345223
 20
303.4409396133052
 30
0.0
 11
272.4803746208778
 21
306.3208506084468
 31
0.0
 70
    32
 71
     5
 42
137.9999999999992
 51
357.0
  3
Standard
100
AcDbAlignedDimension
 13
200.3023512717208
 23
365.1543199422385
 33
0.0
 14
340.6130751966047
 24
324.6767380604589
 34
0.0
 50
3.000000000000096
100
AcDbRotatedDimension
1001
ACAD
1000
DSTYLE
1002
{
1070
    40
1040
2.0
1070
    41
1040
3.5
1070
    42
1040
1.0
1070
    43
1040
7.0
1070
    44
1040
1.0
1070
    73
1070
     0
1070
    74
1070
     0
1070
    77
1070
     1
1070
    78
1070
     8
1070
    79
1070
     2
1070
   140
1040
3.5
1070
   141
1040
1.5
1070
   146
1040
0.5142857142857144
1070
   147
1040
1.5
1070
   172
1070
     1
1070
   178
1070
     1
1070
   179
1070
     2
1070
   271
1070
     2
1070
   272
1070
     2
1070
   284
1070
     8
1070
   285
1070
     8
1070
   286
1070
     8
1002
}
  0
TEXT
  5
F1A
330
1E
100
AcDbEntity
  8
BEM
100
AcDbText
 10
416.5811541437437
 20
12.14804815338303
 30
0.0
 40
4.0
  1
Diese Zeichnung ist urheberrechtlich geschützt und bleibt unser Eigentum. Sie darf weder ganz noch teilweise vervielfältigt und nicht an Dritte weitergegeben werden.
 50
90.0
 41
0.8
  7
GREEKS
100
AcDbText
  0
LINE
  5
F73
102
{ACAD_REACTORS
330
E0E
330
F7E
102
}
330
1E
100
AcDbEntity
  8
STEMPEL
100
AcDbLine
 10
242.8023512717209
 20
278.2166764778203
 30
0.0
 11
242.8023512717209
 21
239.9468383431762
 31
0.0
  0
HATCH
  5
F7E
330
1E
100
AcDbEntity
  8
SCHRAFF
100
AcDbHatch
 10
0.0
 20
0.0
 30
0.0
210
0.0
220
0.0
230
1.0
  2
_USER
 70
     0
 71
     1
 91
        1
 92
        5
 93
        4
 72
     4
 94
        3
 73
     0
 74
     0
 95
        8
 96
        4
 40
40.07527899290372
 40
40.07527899290372
 40
40.07527899290372
 40
40.07527899290372
 40
41.42215370063103
 40
41.42215370063103
 40
41.42215370063103
 40
41.42215370063103
 10
242.8023512717209
 20
239.9468383431762
 10
243.4630468265195
 20
239.7062178418385
 10
244.1307134665276
 20
239.4731654629262
 10
244.8023512717209
 20
239.2444243588567
 72
     1
 10
244.8023512717209
 20
239.2444243588567
 11
244.8023512717209
 21
278.8778529494544
 72
     4
 94
        3
 73
     0
 74
     0
 95
        8
 96
        4
 40
2.184860773674826
 40
2.184860773674826
 40
2.184860773674826
 40
2.184860773674826
 40
3.595940695727207
 40
3.595940695727207
 40
3.595940695727207
 40
3.595940695727207
 10
244.8023512717209
 20
278.8778529494544
 10
244.1342033663227
 20
278.663009369924
 10
243.4672743051219
 20
278.4436001173753
 10
242.802351271721
 20
278.2166764778201
 72
     1
 10
242.8023512717209
 20
278.21667647782
 11
242.8023512717209
 21
239.9468383431762
 97
        3
330
BE4
330
F73
330
CCF
 75
     0
 76
     0
 52
45.0
 41
2.0
 77
     0
 78
     1
 53
45.0
 43
0.0
 44
0.0
 45
-1.414213562373094
 46
1.414213562373095
 79
     0
 47
0.1137164493353889
 98
        1
 10
243.3314378318591
 20
272.0300774387861
  0
TEXT
  5
F88
330
1E
100
AcDbEntity
  8
TEXT
 62
     1
100
AcDbText
 10
214.0362374661802
 20
133.3087311299382
 30
0.0
 40
7.0
  1
Werkstoff: SF-Cu DIN1754/1786
 41
0.8
  7
GREEKS
100
AcDbText
  0
LINE
  5
F89
330
1E
100
AcDbEntity
  8
STEMPEL
100
AcDbLine
 10
148.8023512717208
 20
482.5540973935135
 30
0.0
 11
148.8023512717208
 21
475.5952739134833
 31
0.0
  0
ARC
  5
F8A
330
1E
100
AcDbEntity
  8
STEMPEL
100
AcDbCircle
 10
174.2023512717208
 20
475.5269938652943
 30
0.0
 40
25.40009324312573
100
AcDbArc
 50
179.8435140456526
 51
205.0329424415662
  0
ARC
  5
F8B
330
1E
100
AcDbEntity
  8
STEMPEL
100
AcDbCircle
 10
140.7023512717208
 20
459.8187157928894
 30
0.0
 40
11.6
100
AcDbArc
 50
0.0
 51
25.30772309802202
  0
LINE
  5
F8C
330
1E
100
AcDbEntity
  8
STEMPEL
100
AcDbLine
 10
152.3023512717208
 20
459.8187157928894
 30
0.0
 11
152.3023512717208
 21
440.5475752735015
 31
0.0
  0
ARC
  5
F8D
330
1E
100
AcDbEntity
  8
STEMPEL
100
AcDbCircle
 10
164.7023512717208
 20
440.5475752735015
 30
0.0
 40
12.4
100
AcDbArc
 50
180.0
 51
214.0620623799337
  0
ARC
  5
F8E
330
1E
100
AcDbEntity
  8
STEMPEL
  6
Continuous
100
AcDbCircle
 10
173.8023512717208
 20
482.5540973935135
 30
0.0
 40
25.0
100
AcDbArc
 50
155.000000000005
 51
180.0
  0
LINE
  5
F8F
330
1E
100
AcDbEntity
  8
STEMPEL
  6
Continuous
100
AcDbLine
 10
152.0955954337964
 20
495.1588488560856
 30
0.0
 11
151.1446565958046
 21
493.1195539370309
 31
0.0
  0
ARC
  5
F90
330
1E
100
AcDbEntity
  8
STEMPEL
100
AcDbCircle
 10
147.8023512717208
 20
429.1217273837384
 30
0.0
 40
8.0
100
AcDbArc
 50
0.0
 51
34.06206237993353
  0
ARC
  5
F91
330
1E
100
AcDbEntity
  8
STEMPEL
100
AcDbCircle
 10
252.8023512717208
 20
429.1217273837384
 30
0.0
 40
8.0
100
AcDbArc
 50
145.9379376200664
 51
180.0
  0
LINE
  5
F92
330
1E
100
AcDbEntity
  8
STEMPEL
  6
Continuous
100
AcDbLine
 10
248.5091071096453
 20
495.1588488560856
 30
0.0
 11
249.4600459476371
 21
493.1195539370309
 31
0.0
  0
ARC
  5
F93
330
1E
100
AcDbEntity
  8
STEMPEL
  6
Continuous
100
AcDbCircle
 10
226.8023512717209
 20
482.5540973935135
 30
0.0
 40
25.0
100
AcDbArc
 50
0.000000000000007
 51
24.99999999999495
  0
ARC
  5
F94
330
1E
100
AcDbEntity
  8
STEMPEL
100
AcDbCircle
 10
235.9023512717209
 20
440.5475752735015
 30
0.0
 40
12.4
100
AcDbArc
 50
325.9379376200663
 51
0.000000000000007
  0
LINE
  5
F95
330
1E
100
AcDbEntity
  8
STEMPEL
100
AcDbLine
 10
248.3023512717209
 20
459.8187157928894
 30
0.0
 11
248.3023512717209
 21
440.5475752735015
 31
0.0
  0
ARC
  5
F96
330
1E
100
AcDbEntity
  8
STEMPEL
100
AcDbCircle
 10
259.9023512717209
 20
459.8187157928894
 30
0.0
 40
11.6
100
AcDbArc
 50
154.692276901978
 51
180.0
  0
ARC
  5
F97
330
1E
100
AcDbEntity
  8
STEMPEL
100
AcDbCircle
 10
226.4023512717209
 20
475.5269938652943
 30
0.0
 40
25.40009324312573
100
AcDbArc
 50
334.9670575584338
 51
0.1564859543473821
  0
LINE
  5
F98
330
1E
100
AcDbEntity
  8
STEMPEL
100
AcDbLine
 10
251.8023512717209
 20
482.5540973935135
 30
0.0
 11
251.8023512717209
 21
475.5952739134833
 31
0.0
  0
LINE
  5
FA2
330
1E
100
AcDbEntity
  8
STEMPEL
100
AcDbLine
 10
328.2210517255993
 20
320.2875791429063
 30
0.0
 11
321.2717650712976
 21
319.9233824617532
 31
0.0
  0
ARC
  5
FA3
330
1E
100
AcDbEntity
  8
STEMPEL
100
AcDbCircle
 10
319.8742453099709
 20
345.284999142905
 30
0.0
 40
25.40009324312573
100
AcDbArc
 50
247.9670575584338
 51
273.1564859543474
  0
ARC
  5
FA4
330
1E
100
AcDbEntity
  8
STEMPEL
100
AcDbCircle
 10
305.9407494208682
 20
311.0088019747774
 30
0.0
 40
11.6
100
AcDbArc
 50
67.69227690197801
 51
93.0
  0
LINE
  5
FA5
330
1E
100
AcDbEntity
  8
STEMPEL
100
AcDbLine
 10
305.33365232845
 20
322.5929045779304
 30
0.0
 11
286.0889222373838
 21
321.5843310109562
 31
0.0
  0
ARC
  5
FA6
330
1E
100
AcDbEntity
  8
STEMPEL
100
AcDbCircle
 10
285.4399563799713
 20
333.9673372419129
 30
0.0
 40
12.4
100
AcDbArc
 50
238.9379376200663
 51
273.0
  0
ARC
  5
FA7
330
1E
100
AcDbEntity
  8
STEMPEL
  6
Continuous
100
AcDbCircle
 10
326.9126528195259
 20
345.2533175117706
 30
0.0
 40
25.0
100
AcDbArc
 50
273.0
 51
297.9999999999949
  0
LINE
  5
FA8
330
1E
100
AcDbEntity
  8
STEMPEL
  6
Continuous
100
AcDbLine
 10
340.6361737320011
 20
324.2359917493116
 30
0.0
 11
338.6494418891731
 21
323.1796276902976
 31
0.0
  0
ARC
  5
FA9
330
1E
100
AcDbEntity
  8
STEMPEL
100
AcDbCircle
 10
274.9142448781463
 20
316.4925154293633
 30
0.0
 40
8.0
100
AcDbArc
 50
58.93793762006645
 51
93.0
  0
ARC
  5
FAA
330
1E
100
AcDbEntity
  8
STEMPEL
100
AcDbCircle
 10
269.4189694726372
 20
421.3486165785935
 30
0.0
 40
8.0
100
AcDbArc
 50
273.0
 51
307.0620623799336
  0
LINE
  5
FAB
330
1E
100
AcDbEntity
  8
STEMPEL
  6
Continuous
100
AcDbLine
 10
335.5902804037051
 20
420.517372058219
 30
0.0
 11
333.5040119740475
 21
421.3602792179329
 31
0.0
  0
ARC
  5
FAC
330
1E
100
AcDbEntity
  8
STEMPEL
  6
Continuous
100
AcDbCircle
 10
324.1388471386498
 20
398.180682853763
 30
0.0
 40
25.0
100
AcDbArc
 50
68.00000000000507
 51
93.0
  0
ARC
  5
FAD
330
1E
100
AcDbEntity
  8
STEMPEL
100
AcDbCircle
 10
281.7136362954737
 20
405.0697601164386
 30
0.0
 40
12.4
100
AcDbArc
 50
93.0
 51
127.0620623799337
  0
LINE
  5
FAE
330
1E
100
AcDbEntity
  8
STEMPEL
100
AcDbLine
 10
300.3094005291274
 20
418.4613399143696
 30
0.0
 11
281.0646704380612
 21
417.4527663473953
 31
0.0
  0
ARC
  5
FAF
330
1E
100
AcDbEntity
  8
STEMPEL
100
AcDbCircle
 10
299.7023034367093
 20
430.0454425175226
 30
0.0
 40
11.6
100
AcDbArc
 50
273.0
 51
298.3077230980221
  0
ARC
  5
FB0
330
1E
100
AcDbEntity
  8
STEMPEL
100
AcDbCircle
 10
317.1423083940892
 20
397.4134608570938
 30
0.0
 40
25.40009324312573
100
AcDbArc
 50
92.84351404565262
 51
118.0329424415662
  0
LINE
  5
FB1
330
1E
100
AcDbEntity
  8
STEMPEL
100
AcDbLine
 10
322.830448232576
 20
423.1464212226275
 30
0.0
 11
315.8811615782744
 21
422.7822245414743
 31
0.0
  0
LINE
  5
FB2
330
1E
100
AcDbEntity
  8
HILF
  6
Continuous
100
AcDbLine
 10
303.3699897557984
 20
416.949333283679
 30
0.0
 11
308.2194275975459
 21
324.4165469666518
 31
0.0
  0
LINE
  5
FB3
330
1E
100
AcDbEntity
  8
HILF
  6
Continuous
100
AcDbLine
 10
278.299589386473
 20
414.8934195009624
 30
0.0
 11
283.0714639962849
 21
323.8406278144424
 31
0.0
  0
LINE
  5
FB4
330
1E
100
AcDbEntity
  8
HILF
  6
Continuous
100
AcDbLine
 10
273.2999180416669
 20
412.318855857938
 30
0.0
 11
277.8300661930397
 21
325.8784797659334
 31
0.0
  0
LINE
  5
FB5
330
1E
100
AcDbEntity
  8
STEMPEL
100
AcDbLine
 10
335.5902804037051
 20
420.517372058219
 30
0.0
 11
340.6361737319991
 21
324.2359917493105
 31
0.0
  0
ENDSEC
  0
SECTION
  2
OBJECTS
  0
DICTIONARY
  5
C
330
0
100
AcDbDictionary
281
     1
  3
ACAD_COLOR
350
DF
  3
ACAD_GROUP
350
D
  3
ACAD_LAYOUT
350
19
  3
ACAD_MATERIAL
350
DE
  3
ACAD_MLINESTYLE
350
16
  3
ACAD_PLOTSETTINGS
350
18
  3
ACAD_PLOTSTYLENAME
350
E
  3
AcDbVariableDictionary
350
24C
  0
DICTIONARY
  5
A0
330
1E
100
AcDbDictionary
280
     1
281
     1
  3
ACAD_LAYOUTSELFREF
360
D4
  0
DICTIONARY
  5
A2
330
1A
100
AcDbDictionary
280
     1
281
     1
  3
ACAD_LAYOUTSELFREF
360
D3
  0
DICTIONARY
  5
DF
102
{ACAD_REACTORS
330
C
102
}
330
C
100
AcDbDictionary
281
     1
  0
DICTIONARY
  5
D
102
{ACAD_REACTORS
330
C
102
}
330
C
100
AcDbDictionary
281
     1
  0
DICTIONARY
  5
19
102
{ACAD_REACTORS
330
C
102
}
330
C
100
AcDbDictionary
281
     1
  3
Layout1
350
1D
  3
Model
350
21
  0
DICTIONARY
  5
DE
102
{ACAD_REACTORS
330
C
102
}
330
C
100
AcDbDictionary
281
     1
  0
DICTIONARY
  5
16
102
{ACAD_REACTORS
330
C
102
}
330
C
100
AcDbDictionary
281
     1
  3
Standard
350
17
  0
DICTIONARY
  5
18
102
{ACAD_REACTORS
330
C
102
}
330
C
100
AcDbDictionary
281
     1
  0
ACDBDICTIONARYWDFLT
  5
E
102
{ACAD_REACTORS
330
C
102
}
330
C
100
AcDbDictionary
281
     1
  3
Normal
350
F
100
AcDbDictionaryWithDefault
340
F
  0
DICTIONARY
  5
24C
102
{ACAD_REACTORS
330
C
102
}
330
C
100
AcDbDictionary
281
     1
  3
DIMASSOC
350
24D
  3
PROJECTNAME
350
24E
  0
XRECORD
  5
D4
102
{ACAD_REACTORS
330
A0
102
}
330
A0
100
AcDbXrecord
280
     1
340
1E
  0
XRECORD
  5
D3
102
{ACAD_REACTORS
330
A2
102
}
330
A2
100
AcDbXrecord
280
     1
340
1A
  0
LAYOUT
  5
1D
102
{ACAD_REACTORS
330
19
102
}
330
19
100
AcDbPlotSettings
  1

  2
\\NT_WORK01\HP LaserJet 5000 PCL 6
  4

  6

 40
0.0
 41
0.0
 42
0.0
 43
0.0
 44
0.0
 45
0.0
 46
0.0
 47
0.0
 48
0.0
 49
0.0
140
0.0
141
0.0
142
1.0
143
1.0
 70
   688
 72
     0
 73
     0
 74
     5
  7
monochrome1.ctb
 75
    16
147
1.0
 76
     0
 77
     2
 78
   300
148
0.0
149
0.0
100
AcDbLayout
  1
Layout1
 70
     0
 71
     1
 10
0.0
 20
0.0
 11
12.0
 21
9.0
 12
0.0
 22
0.0
 32
0.0
 14
1.000000000000000E+20
 24
1.000000000000000E+20
 34
1.000000000000000E+20
 15
-1.000000000000000E+20
 25
-1.000000000000000E+20
 35
-1.000000000000000E+20
146
0.0
 13
0.0
 23
0.0
 33
0.0
 16
1.0
 26
0.0
 36
0.0
 17
0.0
 27
1.0
 37
0.0
 76
     0
330
1A
  0
LAYOUT
  5
21
102
{ACAD_REACTORS
330
19
102
}
330
19
100
AcDbPlotSettings
  1

  2
RICOH Aficio 2027 PCL 6
  4
A4
  6

 40
5.027083396911621
 41
5.027085304260253
 42
5.027084350585937
 43
5.027069091796875
 44
209.9733276367187
 45
296.9259948730469
 46
0.0
 47
2.06
 48
0.0
 49
0.0
140
0.0
141
0.0
142
1.0
143
2.100849164395896
 70
 11956
 72
     1
 73
     0
 74
     2
  7
monochrome1.ctb
 75
     0
147
0.4759979997362411
 76
     0
 77
     2
 78
   300
148
0.0
149
0.0
100
AcDbLayout
  1
Model
 70
     1
 71
     0
 10
0.0
 20
0.0
 11
12.0
 21
9.0
 12
0.0
 22
0.0
 32
0.0
 14
0.0
 24
0.0
 34
0.0
 15
0.0
 25
0.0
 35
0.0
146
0.0
 13
0.0
 23
0.0
 33
0.0
 16
1.0
 26
0.0
 36
0.0
 17
0.0
 27
1.0
 37
0.0
 76
     0
330
1E
  0
MLINESTYLE
  5
17
102
{ACAD_REACTORS
330
16
102
}
330
16
100
AcDbMlineStyle
  2
STANDARD
 70
     0
  3

 62
   256
 51
90.0
 52
90.0
 71
     2
 49
0.5
 62
   256
  6
BYLAYER
 49
-0.5
 62
   256
  6
BYLAYER
  0
ACDBPLACEHOLDER
  5
F
102
{ACAD_REACTORS
330
E
102
}
330
E
  0
DICTIONARYVAR
  5
24D
102
{ACAD_REACTORS
330
24C
102
}
330
24C
100
DictionaryVariables
280
     0
  1
1
  0
DICTIONARYVAR
  5
24E
102
{ACAD_REACTORS
330
24C
102
}
330
24C
100
DictionaryVariables
280
     0
  1

  0
ENDSEC
  0
EOF
