  0
SECTION
  2
HEADER
  9
$ACADVER
  1
AC1018
  9
$ACADMAINTVER
 70
     2
  9
$DWGCODEPAGE
  3
ANSI_1252
  9
$INSBASE
 10
0.0
 20
0.0
 30
0.0
  9
$EXTMIN
 10
-0.0256181399757907
 20
-0.0362313693944998
 30
-0.0000000000000129
  9
$EXTMAX
 10
420.0192319905524
 20
594.0271995294965
 30
0.0000000000000023
  9
$LIMMIN
 10
0.0
 20
0.0
  9
$LIMMAX
 10
419.9999999999999
 20
594.0000000000002
  9
$ORTHOMODE
 70
     1
  9
$REGENMODE
 70
     1
  9
$FILLMODE
 70
     1
  9
$QTEXTMODE
 70
     0
  9
$MIRRTEXT
 70
     1
  9
$LTSCALE
 40
20.0
  9
$ATTMODE
 70
     1
  9
$TEXTSIZE
 40
3.5
  9
$TRACEWID
 40
0.5
  9
$TEXTSTYLE
  7
STANDARD
  9
$CLAYER
  8
VOLL
  9
$CELTYPE
  6
ByLayer
  9
$CECOLOR
 62
   256
  9
$CELTSCALE
 40
1.0
  9
$DISPSILH
 70
     0
  9
$DIMSCALE
 40
2.0
  9
$DIMASZ
 40
3.5
  9
$DIMEXO
 40
1.0
  9
$DIMDLI
 40
7.0
  9
$DIMRND
 40
0.0
  9
$DIMDLE
 40
0.0
  9
$DIMEXE
 40
1.0
  9
$DIMTP
 40
0.0
  9
$DIMTM
 40
0.0
  9
$DIMTXT
 40
3.5
  9
$DIMCEN
 40
1.5
  9
$DIMTSZ
 40
0.0
  9
$DIMTOL
 70
     0
  9
$DIMLIM
 70
     0
  9
$DIMTIH
 70
     0
  9
$DIMTOH
 70
     0
  9
$DIMSE1
 70
     0
  9
$DIMSE2
 70
     0
  9
$DIMTAD
 70
     1
  9
$DIMZIN
 70
     8
  9
$DIMBLK
  1

  9
$DIMASO
 70
     1
  9
$DIMSHO
 70
     0
  9
$DIMPOST
  1

  9
$DIMAPOST
  1

  9
$DIMALT
 70
     0
  9
$DIMALTD
 70
     2
  9
$DIMALTF
 40
25.4
  9
$DIMLFAC
 40
1.0
  9
$DIMTOFL
 70
     1
  9
$DIMTVP
 40
0.0
  9
$DIMTIX
 70
     0
  9
$DIMSOXD
 70
     0
  9
$DIMSAH
 70
     0
  9
$DIMBLK1
  1

  9
$DIMBLK2
  1

  9
$DIMSTYLE
  2
Standard
  9
$DIMCLRD
 70
     0
  9
$DIMCLRE
 70
     0
  9
$DIMCLRT
 70
     1
  9
$DIMTFAC
 40
0.5142857142857144
  9
$DIMGAP
 40
1.5
  9
$DIMJUST
 70
     0
  9
$DIMSD1
 70
     0
  9
$DIMSD2
 70
     0
  9
$DIMTOLJ
 70
     1
  9
$DIMTZIN
 70
     8
  9
$DIMALTZ
 70
     8
  9
$DIMALTTZ
 70
     8
  9
$DIMUPT
 70
     0
  9
$DIMDEC
 70
     2
  9
$DIMTDEC
 70
     2
  9
$DIMALTU
 70
     2
  9
$DIMALTTD
 70
     2
  9
$DIMTXSTY
  7
STANDARD
  9
$DIMAUNIT
 70
     0
  9
$DIMADEC
 70
     2
  9
$DIMALTRND
 40
0.0
  9
$DIMAZIN
 70
     2
  9
$DIMDSEP
 70
    46
  9
$DIMATFIT
 70
     3
  9
$DIMFRAC
 70
     0
  9
$DIMLDRBLK
  1

  9
$DIMLUNIT
 70
     2
  9
$DIMLWD
 70
    -2
  9
$DIMLWE
 70
    -2
  9
$DIMTMOVE
 70
     0
  9
$LUNITS
 70
     2
  9
$LUPREC
 70
     2
  9
$SKETCHINC
 40
1.0
  9
$FILLETRAD
 40
0.0
  9
$AUNITS
 70
     0
  9
$AUPREC
 70
     0
  9
$MENU
  1
ACAD
  9
$ELEVATION
 40
0.0
  9
$PELEVATION
 40
0.0
  9
$THICKNESS
 40
0.0
  9
$LIMCHECK
 70
     0
  9
$CHAMFERA
 40
0.0
  9
$CHAMFERB
 40
0.0
  9
$CHAMFERC
 40
0.0
  9
$CHAMFERD
 40
0.0
  9
$SKPOLY
 70
     0
  9
$TDCREATE
 40
2455397.864709028
  9
$TDUCREATE
 40
2455397.781375695
  9
$TDUPDATE
 40
2455652.479633357
  9
$TDUUPDATE
 40
2455652.396300023
  9
$TDINDWG
 40
0.1367785417
  9
$TDUSRTIMER
 40
0.1367785417
  9
$USRTIMER
 70
     1
  9
$ANGBASE
 50
0.0
  9
$ANGDIR
 70
     0
  9
$PDMODE
 70
     0
  9
$PDSIZE
 40
0.0
  9
$PLINEWID
 40
0.0
  9
$SPLFRAME
 70
     0
  9
$SPLINETYPE
 70
     6
  9
$SPLINESEGS
 70
     8
  9
$HANDSEED
  5
550
  9
$SURFTAB1
 70
     6
  9
$SURFTAB2
 70
     6
  9
$SURFTYPE
 70
     6
  9
$SURFU
 70
     6
  9
$SURFV
 70
     6
  9
$UCSBASE
  2

  9
$UCSNAME
  2

  9
$UCSORG
 10
0.0
 20
0.0
 30
0.0
  9
$UCSXDIR
 10
1.0
 20
0.0
 30
0.0
  9
$UCSYDIR
 10
0.0
 20
1.0
 30
0.0
  9
$UCSORTHOREF
  2

  9
$UCSORTHOVIEW
 70
     0
  9
$UCSORGTOP
 10
0.0
 20
0.0
 30
0.0
  9
$UCSORGBOTTOM
 10
0.0
 20
0.0
 30
0.0
  9
$UCSORGLEFT
 10
0.0
 20
0.0
 30
0.0
  9
$UCSORGRIGHT
 10
0.0
 20
0.0
 30
0.0
  9
$UCSORGFRONT
 10
0.0
 20
0.0
 30
0.0
  9
$UCSORGBACK
 10
0.0
 20
0.0
 30
0.0
  9
$PUCSBASE
  2

  9
$PUCSNAME
  2

  9
$PUCSORG
 10
0.0
 20
0.0
 30
0.0
  9
$PUCSXDIR
 10
1.0
 20
0.0
 30
0.0
  9
$PUCSYDIR
 10
0.0
 20
1.0
 30
0.0
  9
$PUCSORTHOREF
  2

  9
$PUCSORTHOVIEW
 70
     0
  9
$PUCSORGTOP
 10
0.0
 20
0.0
 30
0.0
  9
$PUCSORGBOTTOM
 10
0.0
 20
0.0
 30
0.0
  9
$PUCSORGLEFT
 10
0.0
 20
0.0
 30
0.0
  9
$PUCSORGRIGHT
 10
0.0
 20
0.0
 30
0.0
  9
$PUCSORGFRONT
 10
0.0
 20
0.0
 30
0.0
  9
$PUCSORGBACK
 10
0.0
 20
0.0
 30
0.0
  9
$USERI1
 70
     0
  9
$USERI2
 70
     0
  9
$USERI3
 70
     0
  9
$USERI4
 70
     0
  9
$USERI5
 70
     0
  9
$USERR1
 40
0.0
  9
$USERR2
 40
0.0
  9
$USERR3
 40
0.0
  9
$USERR4
 40
0.0
  9
$USERR5
 40
0.0
  9
$WORLDVIEW
 70
     1
  9
$SHADEDGE
 70
     3
  9
$SHADEDIF
 70
    70
  9
$TILEMODE
 70
     1
  9
$MAXACTVP
 70
    16
  9
$PINSBASE
 10
0.0
 20
0.0
 30
0.0
  9
$PLIMCHECK
 70
     0
  9
$PEXTMIN
 10
1.000000000000000E+20
 20
1.000000000000000E+20
 30
1.000000000000000E+20
  9
$PEXTMAX
 10
-1.000000000000000E+20
 20
-1.000000000000000E+20
 30
-1.000000000000000E+20
  9
$PLIMMIN
 10
0.0
 20
0.0
  9
$PLIMMAX
 10
12.0
 20
9.0
  9
$UNITMODE
 70
     0
  9
$VISRETAIN
 70
     0
  9
$PLINEGEN
 70
     0
  9
$PSLTSCALE
 70
     0
  9
$TREEDEPTH
 70
  3020
  9
$CMLSTYLE
  2
Standard
  9
$CMLJUST
 70
     0
  9
$CMLSCALE
 40
1.0
  9
$PROXYGRAPHICS
 70
     1
  9
$MEASUREMENT
 70
     0
  9
$CELWEIGHT
370
    -1
  9
$ENDCAPS
280
     0
  9
$JOINSTYLE
280
     0
  9
$LWDISPLAY
290
     0
  9
$INSUNITS
 70
     0
  9
$HYPERLINKBASE
  1

  9
$STYLESHEET
  1
monochrome 1.ctb
  9
$XEDIT
290
     1
  9
$CEPSNTYPE
380
     0
  9
$PSTYLEMODE
290
     1
  9
$FINGERPRINTGUID
  2
{D68B0D02-A558-11D7-B632-000102183313}
  9
$VERSIONGUID
  2
{925E4D0C-B954-407C-B7CE-AB9D48AEFB6D}
  9
$EXTNAMES
290
     1
  9
$PSVPSCALE
 40
0.0
  9
$OLESTARTUP
290
     0
  9
$SORTENTS
280
   127
  9
$INDEXCTL
280
     0
  9
$HIDETEXT
280
     0
  9
$XCLIPFRAME
290
     0
  9
$HALOGAP
280
     0
  9
$OBSCOLOR
 70
   257
  9
$OBSLTYPE
280
     0
  9
$INTERSECTIONDISPLAY
280
     0
  9
$INTERSECTIONCOLOR
 70
   257
  9
$DIMASSOC
280
     1
  9
$PROJECTNAME
  1

  0
ENDSEC
  0
SECTION
  2
CLASSES
  0
CLASS
  1
ACDBDICTIONARYWDFLT
  2
AcDbDictionaryWithDefault
  3
ObjectDBX Classes
 90
        0
 91
        1
280
     0
281
     0
  0
CLASS
  1
DICTIONARYVAR
  2
AcDbDictionaryVar
  3
ObjectDBX Classes
 90
        0
 91
        2
280
     0
281
     0
  0
ENDSEC
  0
SECTION
  2
TABLES
  0
TABLE
  2
VPORT
  5
8
330
0
100
AcDbSymbolTable
 70
     3
  0
VPORT
  5
54F
330
8
100
AcDbSymbolTableRecord
100
AcDbViewportTableRecord
  2
*Active
 70
     0
 10
0.0
 20
0.0
 11
1.0
 21
1.0
 12
210.0
 22
297.0
 13
0.0
 23
0.0
 14
1.0
 24
1.0
 15
10.0
 25
10.0
 16
0.0
 26
0.0
 36
1.0
 17
0.0
 27
0.0
 37
0.0
 40
594.0
 41
1.334231805929919
 42
50.0
 43
0.0
 44
0.0
 50
0.0
 51
0.0
 71
     0
 72
  1500
 73
     1
 74
     0
 75
     0
 76
     0
 77
     0
 78
     0
281
     0
 65
     1
110
0.0
120
0.0
130
0.0
111
1.0
121
0.0
131
0.0
112
0.0
122
1.0
132
0.0
 79
     0
146
0.0
  0
ENDTAB
  0
TABLE
  2
LTYPE
  5
5
330
0
100
AcDbSymbolTable
 70
     2
  0
LTYPE
  5
13
330
5
100
AcDbSymbolTableRecord
100
AcDbLinetypeTableRecord
  2
ByBlock
 70
     0
  3

 72
    65
 73
     0
 40
0.0
  0
LTYPE
  5
14
330
5
100
AcDbSymbolTableRecord
100
AcDbLinetypeTableRecord
  2
ByLayer
 70
     0
  3

 72
    65
 73
     0
 40
0.0
  0
LTYPE
  5
15
330
5
100
AcDbSymbolTableRecord
100
AcDbLinetypeTableRecord
  2
Continuous
 70
     0
  3
Solid line
 72
    65
 73
     0
 40
0.0
  0
LTYPE
  5
25
330
5
100
AcDbSymbolTableRecord
100
AcDbLinetypeTableRecord
  2
STRICHPUNKT
 70
     0
  3
__ . __ . __ . __ . __ . __ . __ . __ . __ . __
 72
    65
 73
     4
 40
1.0
 49
0.5
 74
     0
 49
-0.25
 74
     0
 49
0.0
 74
     0
 49
-0.25
 74
     0
  0
ENDTAB
  0
TABLE
  2
LAYER
  5
2
330
0
100
AcDbSymbolTable
 70
     9
  0
LAYER
  5
10
330
2
100
AcDbSymbolTableRecord
100
AcDbLayerTableRecord
  2
0
 70
     0
 62
     7
  6
Continuous
370
    -3
390
F
  0
LAYER
  5
2A
330
2
100
AcDbSymbolTableRecord
100
AcDbLayerTableRecord
  2
VOLL
 70
     0
 62
     1
  6
Continuous
370
    -3
390
F
  0
LAYER
  5
2B
330
2
100
AcDbSymbolTableRecord
100
AcDbLayerTableRecord
  2
HILF
 70
     0
 62
     2
  6
Continuous
370
    -3
390
F
  0
LAYER
  5
2C
330
2
100
AcDbSymbolTableRecord
100
AcDbLayerTableRecord
  2
MITTEL
 70
     0
 62
     2
  6
STRICHPUNKT
370
    -3
390
F
  0
LAYER
  5
2F
330
2
100
AcDbSymbolTableRecord
100
AcDbLayerTableRecord
  2
BEM
 70
     0
 62
     7
  6
Continuous
370
    -3
390
F
  0
LAYER
  5
30
330
2
100
AcDbSymbolTableRecord
100
AcDbLayerTableRecord
  2
STEMPEL
 70
     0
 62
     3
  6
Continuous
370
    -3
390
F
  0
LAYER
  5
31
330
2
100
AcDbSymbolTableRecord
100
AcDbLayerTableRecord
  2
TEXT
 70
     0
 62
     7
  6
Continuous
370
    -3
390
F
  0
LAYER
  5
14D
330
2
100
AcDbSymbolTableRecord
100
AcDbLayerTableRecord
  2
Defpoints
 70
     0
 62
     7
  6
Continuous
290
     0
370
    -3
390
F
  0
ENDTAB
  0
TABLE
  2
STYLE
  5
3
330
0
100
AcDbSymbolTable
 70
     2
  0
STYLE
  5
11
330
3
100
AcDbSymbolTableRecord
100
AcDbTextStyleTableRecord
  2
STANDARD
 70
     0
 40
0.0
 41
0.8
 50
0.0
 71
     0
 42
3.5
  3
simplex.shx
  4

  0
STYLE
  5
24
330
3
100
AcDbSymbolTableRecord
100
AcDbTextStyleTableRecord
  2
GREEKS
 70
     0
 40
0.0
 41
0.8
 50
0.0
 71
     0
 42
2.5
  3
SIMPLEX.shx
  4

  0
ENDTAB
  0
TABLE
  2
VIEW
  5
6
330
0
100
AcDbSymbolTable
 70
     0
  0
ENDTAB
  0
TABLE
  2
UCS
  5
7
330
0
100
AcDbSymbolTable
 70
     0
  0
ENDTAB
  0
TABLE
  2
APPID
  5
9
330
0
100
AcDbSymbolTable
 70
     1
  0
APPID
  5
12
330
9
100
AcDbSymbolTableRecord
100
AcDbRegAppTableRecord
  2
ACAD
 70
     0
  0
ENDTAB
  0
TABLE
  2
DIMSTYLE
  5
A
330
0
100
AcDbSymbolTable
 70
     1
100
AcDbDimStyleTable
 71
     1
340
9D
  0
DIMSTYLE
105
9D
102
{ACAD_REACTORS
330
2E7
330
2F4
102
}
330
A
100
AcDbSymbolTableRecord
100
AcDbDimStyleTableRecord
  2
Standard
 70
     0
340
11
  0
ENDTAB
  0
TABLE
  2
BLOCK_RECORD
  5
1
330
0
100
AcDbSymbolTable
 70
     4
  0
BLOCK_RECORD
  5
1E
102
{ACAD_XDICTIONARY
360
A0
102
}
330
1
100
AcDbSymbolTableRecord
100
AcDbBlockTableRecord
  2
*Model_Space
340
21
  0
BLOCK_RECORD
  5
1A
102
{ACAD_XDICTIONARY
360
A2
102
}
330
1
100
AcDbSymbolTableRecord
100
AcDbBlockTableRecord
  2
*Paper_Space
340
1D
  0
BLOCK_RECORD
  5
22
330
1
100
AcDbSymbolTableRecord
100
AcDbBlockTableRecord
  2
LOGO
340
0
102
{BLKREFS
331
9B
102
}
  0
BLOCK_RECORD
  5
2E8
330
1
100
AcDbSymbolTableRecord
100
AcDbBlockTableRecord
  2
*D1
340
0
  0
BLOCK_RECORD
  5
2F5
330
1
100
AcDbSymbolTableRecord
100
AcDbBlockTableRecord
  2
*D2
340
0
  0
ENDTAB
  0
ENDSEC
  0
SECTION
  2
BLOCKS
  0
BLOCK
  5
35
330
1E
100
AcDbEntity
  8
0
100
AcDbBlockBegin
  2
*Model_Space
 70
     0
 10
0.0
 20
0.0
 30
0.0
  3
*Model_Space
  1

  0
ENDBLK
  5
36
330
1E
100
AcDbEntity
  8
0
100
AcDbBlockEnd
  0
BLOCK
  5
33
330
1A
100
AcDbEntity
 67
     1
  8
0
100
AcDbBlockBegin
  2
*Paper_Space
 70
     0
 10
0.0
 20
0.0
 30
0.0
  3
*Paper_Space
  1

  0
ENDBLK
  5
34
330
1A
100
AcDbEntity
 67
     1
  8
0
100
AcDbBlockEnd
  0
BLOCK
  5
37
330
22
100
AcDbEntity
  8
0
100
AcDbBlockBegin
  2
LOGO
 70
     0
 10
0.0
 20
0.0
 30
0.0
  3
LOGO
  1

  0
ARC
  5
38
330
22
100
AcDbEntity
  8
0
100
AcDbCircle
 10
11.59973089678112
 20
-9.271599258481501
 30
0.0
 40
4.5
100
AcDbArc
 50
270.0
 51
231.0575587310159
  0
LINE
  5
39
330
22
100
AcDbEntity
  8
0
100
AcDbLine
 10
3.599730896781125
 20
-4.771599258481529
 30
0.0
 11
3.599730896781153
 21
-11.77159925848133
 31
0.0
  0
LINE
  5
3A
330
22
100
AcDbEntity
  8
0
100
AcDbLine
 10
2.599730896781125
 20
-4.771599258481529
 30
0.0
 11
2.599730896781153
 21
-11.77159925848133
 31
0.0
  0
CIRCLE
  5
3B
330
22
100
AcDbEntity
  8
0
100
AcDbCircle
 10
11.59973089678112
 20
-9.271599258481501
 30
0.0
 40
3.5
  0
ARC
  5
3C
330
22
100
AcDbEntity
  8
0
100
AcDbCircle
 10
31.59973089678115
 20
-9.271599258481472
 30
0.0
 40
4.5
100
AcDbArc
 50
270.0
 51
231.0575587310182
  0
LINE
  5
3D
330
22
100
AcDbEntity
  8
0
100
AcDbLine
 10
17.59973089678112
 20
-4.771599258481472
 30
0.0
 11
17.59973089678115
 21
-13.77159925848147
 31
0.0
  0
ARC
  5
3E
330
22
100
AcDbEntity
  8
0
100
AcDbCircle
 10
22.59973089678116
 20
-7.271599258481472
 30
0.0
 40
2.5
100
AcDbArc
 50
293.1161887722295
 51
90.0
  0
CIRCLE
  5
3F
330
22
100
AcDbEntity
  8
0
100
AcDbCircle
 10
31.59973089678115
 20
-9.271599258481472
 30
0.0
 40
3.5
  0
ARC
  5
40
330
22
100
AcDbEntity
  8
0
100
AcDbCircle
 10
4.599730896781153
 20
-11.77159925848133
 30
0.0
 40
1.0
100
AcDbArc
 50
180.0
 51
270.0
  0
ARC
  5
41
330
22
100
AcDbEntity
  8
0
100
AcDbCircle
 10
4.599730896781153
 20
-11.77159925848133
 30
0.0
 40
2.0
100
AcDbArc
 50
179.9999999999992
 51
270.0
  0
LINE
  5
42
330
22
100
AcDbEntity
  8
0
100
AcDbLine
 10
11.59973089678115
 20
-13.77159925848144
 30
0.0
 11
4.599730896781153
 21
-13.77159925848147
 31
0.0
  0
LINE
  5
43
330
22
100
AcDbEntity
  8
0
100
AcDbLine
 10
8.771303772034769
 20
-12.77159925848136
 30
0.0
 11
4.599730896781153
 21
-12.77159925848133
 31
0.0
  0
LINE
  5
44
330
22
100
AcDbEntity
  8
0
100
AcDbLine
 10
31.59973089678115
 20
-13.77159925848147
 30
0.0
 11
23.6715276665056
 21
-13.77159925848144
 31
0.0
  0
LINE
  5
45
330
22
100
AcDbEntity
  8
0
100
AcDbLine
 10
23.56565672307022
 20
-9.51278021337896
 30
0.0
 11
24.4388546544846
 21
-12.77159925848144
 31
0.0
  0
LINE
  5
46
330
22
100
AcDbEntity
  8
0
100
AcDbLine
 10
22.59973089678116
 20
-9.771599258481472
 30
0.0
 11
18.59973089678112
 21
-9.771599258481472
 31
0.0
  0
LINE
  5
47
330
22
100
AcDbEntity
  8
0
100
AcDbLine
 10
18.59973089678115
 20
-13.77159925848144
 30
0.0
 11
17.59973089678115
 21
-13.77159925848144
 31
0.0
  0
LINE
  5
48
330
22
100
AcDbEntity
  8
0
100
AcDbLine
 10
18.59973089678115
 20
-9.771599258481472
 30
0.0
 11
18.59973089678115
 21
-13.77159925848144
 31
0.0
  0
LINE
  5
49
330
22
100
AcDbEntity
  8
0
100
AcDbLine
 10
22.59973089678116
 20
-9.771599258481472
 30
0.0
 11
23.67152766650562
 21
-13.77159925848147
 31
0.0
  0
ARC
  5
4A
330
22
100
AcDbEntity
  8
0
100
AcDbCircle
 10
22.59973089678116
 20
-7.271599258481472
 30
0.0
 40
2.5
100
AcDbArc
 50
270.0
 51
270.0000000000007
  0
LINE
  5
4B
330
22
100
AcDbEntity
  8
0
100
AcDbLine
 10
28.77130377203494
 20
-12.77159925848147
 30
0.0
 11
24.43885465448463
 21
-12.77159925848144
 31
0.0
  0
LINE
  5
4C
330
22
100
AcDbEntity
  8
0
100
AcDbLine
 10
3.599730896781125
 20
-4.771599258481472
 30
0.0
 11
2.599730896781125
 21
-4.771599258481472
 31
0.0
  0
LINE
  5
4D
330
22
100
AcDbEntity
  8
0
100
AcDbLine
 10
22.59973089678116
 20
-8.771599258481472
 30
0.0
 11
18.59973089678115
 21
-8.771599258481472
 31
0.0
  0
LINE
  5
4E
330
22
100
AcDbEntity
  8
0
100
AcDbLine
 10
22.59973089678116
 20
-5.771599258481472
 30
0.0
 11
18.59973089678115
 21
-5.771599258481472
 31
0.0
  0
LINE
  5
4F
330
22
100
AcDbEntity
  8
0
100
AcDbLine
 10
22.59973089678116
 20
-4.771599258481472
 30
0.0
 11
17.59973089678115
 21
-4.771599258481472
 31
0.0
  0
LINE
  5
50
330
22
100
AcDbEntity
  8
0
100
AcDbLine
 10
18.59973089678115
 20
-5.771599258481472
 30
0.0
 11
18.59973089678115
 21
-8.771599258481472
 31
0.0
  0
ARC
  5
51
330
22
100
AcDbEntity
  8
0
100
AcDbCircle
 10
22.59973089678116
 20
-7.271599258481472
 30
0.0
 40
1.5
100
AcDbArc
 50
270.0
 51
90.0
  0
ENDBLK
  5
52
330
22
100
AcDbEntity
  8
0
100
AcDbBlockEnd
  0
BLOCK
  5
2F2
330
2E8
100
AcDbEntity
  8
0
100
AcDbBlockBegin
  2
*D1
 70
     1
 10
0.0
 20
0.0
 30
0.0
  3
*D1
  1

  0
LINE
  5
525
330
2E8
100
AcDbEntity
  8
BEM
 62
     0
370
    -2
100
AcDbLine
 10
193.3936468500632
 20
564.0
 30
0.0
 11
169.8468657866646
 21
564.0
 31
0.0
  0
LINE
  5
526
330
2E8
100
AcDbEntity
  8
BEM
 62
     0
370
    -2
100
AcDbLine
 10
193.3936468500631
 20
164.0000000000002
 30
0.0
 11
169.8468657866645
 21
164.0000000000002
 31
0.0
  0
LINE
  5
527
330
2E8
100
AcDbEntity
  8
BEM
 62
     0
370
    -2
100
AcDbLine
 10
171.8468657866646
 20
557.0
 30
0.0
 11
171.8468657866645
 21
171.0000000000002
 31
0.0
  0
SOLID
  5
528
330
2E8
100
AcDbEntity
  8
BEM
 62
     0
100
AcDbTrace
 10
170.680199119998
 20
557.0
 30
0.0
 11
173.0135324533313
 21
557.0
 31
0.0
 12
171.8468657866646
 22
564.0
 32
0.0
 13
171.8468657866646
 23
564.0
 33
0.0
  0
SOLID
  5
529
330
2E8
100
AcDbEntity
  8
BEM
 62
     0
100
AcDbTrace
 10
170.6801991199979
 20
171.0000000000002
 30
0.0
 11
173.0135324533312
 21
171.0000000000002
 31
0.0
 12
171.8468657866645
 22
164.0000000000002
 32
0.0
 13
171.8468657866645
 23
164.0000000000002
 33
0.0
  0
MTEXT
  5
52A
330
2E8
100
AcDbEntity
  8
BEM
 62
     1
100
AcDbMText
 10
165.3468657866645
 20
364.0000000000001
 30
0.0
 40
7.0
 41
0.0
 71
     5
 72
     1
  1
\A1;3000
 11
0.0000000000000001
 21
1.0
 31
0.0
 73
     1
 44
1.0
  0
POINT
  5
52B
330
2E8
100
AcDbEntity
  8
Defpoints
 62
     0
100
AcDbPoint
 10
195.3936468500632
 20
564.0
 30
0.0
  0
POINT
  5
52C
330
2E8
100
AcDbEntity
  8
Defpoints
 62
     0
100
AcDbPoint
 10
195.3936468500631
 20
164.0000000000002
 30
0.0
  0
POINT
  5
52D
330
2E8
100
AcDbEntity
  8
Defpoints
 62
     0
100
AcDbPoint
 10
171.8468657866645
 20
164.0000000000002
 30
0.0
  0
ENDBLK
  5
2F3
330
2E8
100
AcDbEntity
  8
0
100
AcDbBlockEnd
  0
BLOCK
  5
2FD
330
2F5
100
AcDbEntity
  8
0
100
AcDbBlockBegin
  2
*D2
 70
     1
 10
0.0
 20
0.0
 30
0.0
  3
*D2
  1

  0
LINE
  5
49B
330
2F5
100
AcDbEntity
  8
BEM
 62
     0
370
    -2
100
AcDbLine
 10
205.5
 20
300.6528246543162
 30
0.0
 11
244.5000000000001
 21
300.6528246543162
 31
0.0
  0
SOLID
  5
49C
330
2F5
100
AcDbEntity
  8
BEM
 62
     0
100
AcDbTrace
 10
205.5
 20
301.8194913209829
 30
0.0
 11
205.5
 21
299.4861579876495
 31
0.0
 12
198.5
 22
300.6528246543162
 32
0.0
 13
198.5
 23
300.6528246543162
 33
0.0
  0
SOLID
  5
49D
330
2F5
100
AcDbEntity
  8
BEM
 62
     0
100
AcDbTrace
 10
244.5000000000001
 20
301.8194913209829
 30
0.0
 11
244.5000000000001
 21
299.4861579876495
 31
0.0
 12
251.5000000000001
 22
300.6528246543162
 32
0.0
 13
251.5000000000001
 23
300.6528246543162
 33
0.0
  0
MTEXT
  5
49E
330
2F5
100
AcDbEntity
  8
BEM
 62
     1
100
AcDbMText
 10
225.0
 20
307.1528246543162
 30
0.0
 40
7.0
 41
0.0
 71
     5
 72
     1
  1
\A1;%%C53
 73
     1
 44
1.0
  0
POINT
  5
49F
330
2F5
100
AcDbEntity
  8
Defpoints
 62
     0
100
AcDbPoint
 10
198.5
 20
300.6528246543162
 30
0.0
  0
POINT
  5
4A0
330
2F5
100
AcDbEntity
  8
Defpoints
 62
     0
100
AcDbPoint
 10
251.5000000000001
 20
300.6528246543163
 30
0.0
  0
POINT
  5
4A1
330
2F5
100
AcDbEntity
  8
Defpoints
 62
     0
100
AcDbPoint
 10
251.5000000000001
 20
300.6528246543162
 30
0.0
  0
ENDBLK
  5
2FE
330
2F5
100
AcDbEntity
  8
0
100
AcDbBlockEnd
  0
ENDSEC
  0
SECTION
  2
ENTITIES
  0
LINE
  5
57
330
1E
100
AcDbEntity
  8
STEMPEL
100
AcDbLine
 10
410.0
 20
110.0
 30
0.0
 11
39.99999999999997
 21
110.0
 31
0.0
  0
LINE
  5
58
330
1E
100
AcDbEntity
  8
STEMPEL
100
AcDbLine
 10
146.0000000000001
 20
109.9999999999999
 30
0.0
 11
146.0
 21
9.999999999999971
 31
0.0
  0
LINE
  5
59
330
1E
100
AcDbEntity
  8
STEMPEL
100
AcDbLine
 10
230.0
 20
110.0
 30
0.0
 11
230.0
 21
9.999999999999971
 31
0.0
  0
LINE
  5
5A
330
1E
100
AcDbEntity
  8
STEMPEL
100
AcDbLine
 10
332.0
 20
109.9999999999997
 30
0.0
 11
332.0
 21
40.0
 31
0.0
  0
LINE
  5
5B
330
1E
100
AcDbEntity
  8
STEMPEL
100
AcDbLine
 10
145.9999999999999
 20
29.99999999999997
 30
0.0
 11
39.99999999999997
 21
29.99999999999997
 31
0.0
  0
LINE
  5
5C
330
1E
100
AcDbEntity
  8
STEMPEL
100
AcDbLine
 10
410.0
 20
40.0
 30
0.0
 11
146.0000000000001
 21
39.99999999999997
 31
0.0
  0
LINE
  5
5D
330
1E
100
AcDbEntity
  8
STEMPEL
100
AcDbLine
 10
410.0
 20
80.0
 30
0.0
 11
146.0000000000001
 21
79.99999999999994
 31
0.0
  0
LINE
  5
5E
330
1E
100
AcDbEntity
  8
VOLL
100
AcDbLine
 10
54.00000000000009
 20
110.0
 30
0.0
 11
53.99999999999997
 21
9.999999999999971
 31
0.0
  0
LINE
  5
5F
330
1E
100
AcDbEntity
  8
VOLL
100
AcDbLine
 10
104.0000000000001
 20
109.9999999999999
 30
0.0
 11
104.0
 21
9.999999999999971
 31
0.0
  0
LINE
  5
60
330
1E
100
AcDbEntity
  8
VOLL
100
AcDbLine
 10
124.0000000000001
 20
109.9999999999999
 30
0.0
 11
124.0
 21
9.999999999999971
 31
0.0
  0
LINE
  5
61
330
1E
100
AcDbEntity
  8
VOLL
100
AcDbLine
 10
164.0000000000001
 20
79.99999999999994
 30
0.0
 11
164.0000000000001
 21
39.99999999999997
 31
0.0
  0
LINE
  5
62
330
1E
100
AcDbEntity
  8
VOLL
100
AcDbLine
 10
190.0000000000001
 20
109.9999999999998
 30
0.0
 11
190.0
 21
39.99999999999997
 31
0.0
  0
LINE
  5
63
330
1E
100
AcDbEntity
  8
HILF
100
AcDbLine
 10
40.00000000000008
 20
100.0
 30
0.0
 11
146.0000000000001
 21
100.0
 31
0.0
  0
LINE
  5
64
330
1E
100
AcDbEntity
  8
HILF
100
AcDbLine
 10
40.00000000000008
 20
90.00000000000005
 30
0.0
 11
146.0000000000001
 21
90.00000000000005
 31
0.0
  0
LINE
  5
65
330
1E
100
AcDbEntity
  8
HILF
100
AcDbLine
 10
40.00000000000008
 20
79.99999999999994
 30
0.0
 11
146.0000000000001
 21
79.99999999999994
 31
0.0
  0
LINE
  5
66
330
1E
100
AcDbEntity
  8
HILF
100
AcDbLine
 10
40.00000000000008
 20
69.99999999999994
 30
0.0
 11
146.0000000000001
 21
69.99999999999994
 31
0.0
  0
LINE
  5
67
330
1E
100
AcDbEntity
  8
HILF
100
AcDbLine
 10
40.00000000000008
 20
59.99999999999997
 30
0.0
 11
146.0000000000001
 21
59.99999999999997
 31
0.0
  0
LINE
  5
68
330
1E
100
AcDbEntity
  8
HILF
100
AcDbLine
 10
40.00000000000008
 20
49.99999999999997
 30
0.0
 11
146.0000000000001
 21
49.99999999999997
 31
0.0
  0
LINE
  5
69
330
1E
100
AcDbEntity
  8
HILF
100
AcDbLine
 10
40.00000000000008
 20
39.99999999999997
 30
0.0
 11
146.0000000000001
 21
39.99999999999997
 31
0.0
  0
LINE
  5
6A
330
1E
100
AcDbEntity
  8
HILF
100
AcDbLine
 10
146.0000000000001
 20
69.99999999999994
 30
0.0
 11
230.0
 21
69.99999999999994
 31
0.0
  0
LINE
  5
6B
330
1E
100
AcDbEntity
  8
HILF
100
AcDbLine
 10
146.0000000000001
 20
59.99999999999997
 30
0.0
 11
230.0
 21
59.99999999999997
 31
0.0
  0
LINE
  5
6C
330
1E
100
AcDbEntity
  8
HILF
100
AcDbLine
 10
146.0000000000001
 20
49.99999999999997
 30
0.0
 11
230.0
 21
49.99999999999997
 31
0.0
  0
LINE
  5
6D
330
1E
100
AcDbEntity
  8
HILF
100
AcDbLine
 10
234.7736801096947
 20
84.03758247564139
 30
0.0
 11
324.8353916556311
 21
84.03758247564139
 31
0.0
  0
LINE
  5
6E
330
1E
100
AcDbEntity
  8
HILF
100
AcDbLine
 10
234.7736801096947
 20
69.99999999999994
 30
0.0
 11
324.835391655631
 21
69.99999999999994
 31
0.0
  0
LINE
  5
6F
330
1E
100
AcDbEntity
  8
HILF
100
AcDbLine
 10
234.7736801096947
 20
59.99999999999997
 30
0.0
 11
324.835391655631
 21
59.99999999999997
 31
0.0
  0
LINE
  5
70
330
1E
100
AcDbEntity
  8
HILF
100
AcDbLine
 10
234.7736801096947
 20
49.99999999999997
 30
0.0
 11
324.835391655631
 21
49.99999999999997
 31
0.0
  0
LINE
  5
71
330
1E
100
AcDbEntity
  8
VOLL
100
AcDbLine
 10
332.0
 20
60.0
 30
0.0
 11
410.0
 21
60.0
 31
0.0
  0
LINE
  5
72
330
1E
100
AcDbEntity
  8
HILF
100
AcDbLine
 10
336.7238616296993
 20
83.77983636955827
 30
0.0
 11
404.8588839326728
 21
83.77983636955827
 31
0.0
  0
LINE
  5
73
330
1E
100
AcDbEntity
  8
HILF
100
AcDbLine
 10
233.4909699289885
 20
14.89398258028314
 30
0.0
 11
404.8588839326728
 21
14.89398258028314
 31
0.0
  0
TEXT
  5
74
330
1E
100
AcDbEntity
  8
TEXT
100
AcDbText
 10
67.79509897490102
 20
18.67381894984132
 30
0.0
 40
4.0
  1
Änderung
 41
0.8
  7
GREEKS
 72
     1
 11
78.53795611775817
 21
18.67381894984132
 31
0.0
100
AcDbText
  0
TEXT
  5
75
330
1E
100
AcDbEntity
  8
TEXT
100
AcDbText
 10
153.5163572150377
 20
102.4620895087088
 30
0.0
 40
5.0
  1
Maßstab
 41
0.8
  7
GREEKS
100
AcDbText
  0
TEXT
  5
76
330
1E
100
AcDbEntity
  8
TEXT
100
AcDbText
 10
194.2858954734051
 20
102.4184168434819
 30
0.0
 40
5.0
  1
Zul. Abw.
 41
0.8
  7
GREEKS
100
AcDbText
  0
TEXT
  5
77
330
1E
100
AcDbEntity
  8
TEXT
100
AcDbText
 10
234.877940380901
 20
102.5489328011779
 30
0.0
 40
5.0
  1
Benennung
 41
0.8
  7
GREEKS
100
AcDbText
  0
TEXT
  5
78
330
1E
100
AcDbEntity
  8
TEXT
100
AcDbText
 10
336.178754957634
 20
102.3132034537136
 30
0.0
 40
5.0
  1
Zeichnungs Nr.
 41
0.8
  7
GREEKS
100
AcDbText
  0
TEXT
  5
79
330
1E
100
AcDbEntity
  8
TEXT
100
AcDbText
 10
234.742238391136
 20
30.84560570193057
 30
0.0
 40
5.0
  1
Bauvorhaben
 41
0.8
  7
GREEKS
100
AcDbText
  0
TEXT
  5
7A
330
1E
100
AcDbEntity
  8
TEXT
100
AcDbText
 10
336.7238616296993
 20
73.1811823709997
 30
0.0
 40
5.0
  1
Ersatz für:
 41
0.8
  7
GREEKS
100
AcDbText
  0
TEXT
  5
7B
330
1E
100
AcDbEntity
  8
TEXT
100
AcDbText
 10
48.26641107045756
 20
13.65465846027192
 30
0.0
 40
4.0
  1
Index
 50
90.0
 41
0.8
  7
GREEKS
100
AcDbText
  0
TEXT
  5
7C
330
1E
100
AcDbEntity
  8
TEXT
100
AcDbText
 10
110.6986119235389
 20
18.6715626933981
 30
0.0
 40
4.0
  1
Tag
 41
0.8
  7
GREEKS
 72
     1
 11
114.4319452568723
 21
18.6715626933981
 31
0.0
100
AcDbText
  0
TEXT
  5
7D
330
1E
100
AcDbEntity
  8
TEXT
100
AcDbText
 10
129.0122744386592
 20
18.59324216966408
 30
0.0
 40
4.0
  1
Name
 41
0.8
  7
GREEKS
 72
     1
 11
135.3360839624688
 21
18.59324216966408
 31
0.0
100
AcDbText
  0
TEXT
  5
7E
330
1E
100
AcDbEntity
  8
TEXT
100
AcDbText
 10
172.331167315365
 20
73.31880501229926
 30
0.0
 40
4.0
  1
Tag
 41
0.8
  7
GREEKS
100
AcDbText
  0
TEXT
  5
7F
330
1E
100
AcDbEntity
  8
TEXT
100
AcDbText
 10
202.4626584226295
 20
73.30961091915225
 30
0.0
 40
4.0
  1
Name
 41
0.8
  7
GREEKS
100
AcDbText
  0
TEXT
  5
80
330
1E
100
AcDbEntity
  8
TEXT
100
AcDbText
 10
147.5836127167615
 20
63.62990369617964
 30
0.0
 40
4.0
  1
Gez.
 41
0.8
  7
GREEKS
100
AcDbText
  0
TEXT
  5
81
330
1E
100
AcDbEntity
  8
TEXT
100
AcDbText
 10
147.5515086571672
 20
53.68926291428377
 30
0.0
 40
4.0
  1
Gepr.
 41
0.8
  7
GREEKS
100
AcDbText
  0
TEXT
  5
82
330
1E
100
AcDbEntity
  8
TEXT
100
AcDbText
 10
147.6006777387303
 20
43.52946389649807
 30
0.0
 40
4.0
  1
Norm.
 41
0.8
  7
GREEKS
100
AcDbText
  0
LINE
  5
83
330
1E
100
AcDbEntity
  8
STEMPEL
100
AcDbLine
 10
49.99999999999989
 20
10.0
 30
0.0
 11
410.0
 21
10.0
 31
0.0
  0
TEXT
  5
84
330
1E
100
AcDbEntity
  8
TEXT
100
AcDbText
 10
337.2400861497006
 20
52.07416177878602
 30
0.0
 40
5.0
  1
ersetzt durch:
 41
0.8
  7
GREEKS
100
AcDbText
  0
LINE
  5
85
330
1E
100
AcDbEntity
  8
STEMPEL
100
AcDbLine
 10
410.0
 20
10.0
 30
0.0
 11
39.99999999999989
 21
10.0
 31
0.0
  0
LINE
  5
86
330
1E
100
AcDbEntity
  8
STEMPEL
100
AcDbLine
 10
410.0
 20
10.0
 30
0.0
 11
410.0
 21
584.0
 31
0.0
  0
LINE
  5
87
330
1E
100
AcDbEntity
  8
STEMPEL
100
AcDbLine
 10
40.0
 20
10.0
 30
0.0
 11
39.99999999999989
 21
584.0
 31
0.0
  0
LINE
  5
88
330
1E
100
AcDbEntity
  8
STEMPEL
100
AcDbLine
 10
410.0
 20
584.0
 30
0.0
 11
39.99999999999989
 21
584.0
 31
0.0
  0
LINE
  5
89
330
1E
100
AcDbEntity
  8
HILF
100
AcDbLine
 10
0.0
 20
0.0
 30
0.0
 11
-0.0000000000001137
 21
594.0
 31
0.0
  0
LINE
  5
8A
330
1E
100
AcDbEntity
  8
HILF
100
AcDbLine
 10
419.9999999999999
 20
594.0000000000002
 30
0.0
 11
0.0
 21
594.0
 31
0.0
  0
LINE
  5
8B
330
1E
100
AcDbEntity
  8
HILF
100
AcDbLine
 10
420.0
 20
0.0
 30
0.0
 11
0.0
 21
0.0
 31
0.0
  0
LINE
  5
8C
330
1E
100
AcDbEntity
  8
HILF
100
AcDbLine
 10
31.08767135713856
 20
297.0
 30
0.0
 11
0.0000000000001137
 21
297.0
 31
0.0
  0
TEXT
  5
8D
330
1E
100
AcDbEntity
  8
TEXT
100
AcDbText
 10
148.622109822104
 20
73.14025471151666
 30
0.0
 40
4.0
  1
2011
 41
0.8
  7
GREEKS
100
AcDbText
  0
LINE
  5
8E
330
1E
100
AcDbEntity
  8
HILF
100
AcDbLine
 10
420.0
 20
-0.0000000000001137
 30
0.0
 11
419.9999999999999
 21
594.0
 31
0.0
  0
TEXT
  5
8F
330
1E
100
AcDbEntity
  8
VOLL
100
AcDbText
 10
78.07675471698113
 20
31.02594776470585
 30
0.0
 40
1.8
  1

  7
GREEKS
100
AcDbText
  0
TEXT
  5
90
330
1E
100
AcDbEntity
  8
TEXT
100
AcDbText
 10
41.85509950977674
 20
111.6719999999999
 30
0.0
 40
5.0
  1
Erstellt mit AUTOCAD 2004
 41
0.8
  7
GREEKS
100
AcDbText
  0
TEXT
  5
91
330
1E
100
AcDbEntity
  8
TEXT
100
AcDbText
 10
204.4216048581257
 20
63.0896391972351
 30
0.0
 40
4.0
  1
Koeh
 41
0.8
  7
GREEKS
 72
     1
 11
209.6787477152686
 21
63.0896391972351
 31
0.0
100
AcDbText
  0
TEXT
  5
92
330
1E
100
AcDbEntity
  8
TEXT
 62
     1
100
AcDbText
 10
346.562772406582
 20
88.14901428913959
 30
0.0
 40
7.0
  1
00100.050O
 41
0.8
  7
GREEKS
 72
     1
 11
370.8294390732486
 21
88.14901428913959
 31
0.0
100
AcDbText
  0
TEXT
  5
93
330
1E
100
AcDbEntity
  8
TEXT
 62
     1
100
AcDbText
 10
160.5006306481887
 20
88.14901428913959
 30
0.0
 40
7.0
  1
1:2
 41
0.8
  7
GREEKS
100
AcDbText
  0
TEXT
  5
94
330
1E
100
AcDbEntity
  8
TEXT
100
AcDbText
 10
170.7037590129979
 20
63.10765040825732
 30
0.0
 40
4.0
  1
31.03.
 41
0.8
  7
GREEKS
 72
     1
 11
177.4085209177598
 21
63.10765040825732
 31
0.0
100
AcDbText
  0
TEXT
  5
95
330
1E
100
AcDbEntity
  8
TEXT
 62
     1
100
AcDbText
 10
234.8732996649198
 20
87.41748789253779
 30
0.0
 40
7.0
  1
Rohr DN50
 41
0.8
  7
GREEKS
100
AcDbText
  0
TEXT
  5
96
330
1E
100
AcDbEntity
  8
TEXT
100
AcDbText
 10
235.1296391125315
 20
71.50334417585288
 30
0.0
 40
5.0
  1
mit 2 Muffen 3000mm lang
 41
0.8
  7
GREEKS
100
AcDbText
  0
TEXT
  5
98
330
1E
100
AcDbEntity
  8
TEXT
100
AcDbText
 10
235.1296391125315
 20
51.64011943042158
 30
0.0
 40
5.0
  1
EDV-Art.Nr. 00100.050O
 41
0.8
  7
GREEKS
100
AcDbText
  0
TEXT
  5
99
330
1E
100
AcDbEntity
  8
TEXT
100
AcDbText
 10
234.9837501577827
 20
42.62974153022632
 30
0.0
 40
4.0
  1
00100.050O.DWG
 41
0.8
  7
GREEKS
100
AcDbText
  0
TEXT
  5
9A
330
1E
100
AcDbEntity
  8
TEXT
100
AcDbText
 10
192.626132208084
 20
90.76363841023022
 30
0.0
 40
4.0
  1
DIN EN1123-2
 41
0.8
  7
GREEKS
 72
     1
 11
209.6166083985602
 21
90.76363841023022
 31
0.0
100
AcDbText
  0
INSERT
  5
9B
330
1E
100
AcDbEntity
  8
STEMPEL
100
AcDbBlockReference
  2
LOGO
 10
150.9955485457794
 20
45.02105276448322
 30
0.0
 41
2.0
 42
2.0
 43
2.0
  0
LINE
  5
116
330
1E
100
AcDbEntity
  8
MITTEL
100
AcDbLine
 10
225.0
 20
569.0
 30
0.0
 11
225.0
 21
312.5431868044872
 31
0.0
  0
TEXT
  5
11A
330
1E
100
AcDbEntity
  8
VOLL
100
AcDbText
 10
218.733571420083
 20
462.0367947221356
 30
0.0
 40
7.0
  1
DN50
 50
90.0
 41
0.8
  7
GREEKS
100
AcDbText
  0
DIMENSION
  5
2E7
330
1E
100
AcDbEntity
  8
BEM
100
AcDbDimension
  2
*D1
 10
171.8468657866645
 20
164.0000000000002
 30
0.0
 11
165.3468657866645
 21
364.0000000000001
 31
0.0
 70
    32
  1
3000
 71
     5
 42
399.9999999999997
  3
Standard
100
AcDbAlignedDimension
 13
195.3936468500632
 23
564.0
 33
0.0
 14
195.3936468500631
 24
164.0000000000002
 34
0.0
 50
90.0
100
AcDbRotatedDimension
1001
ACAD
1000
DSTYLE
1002
{
1070
    40
1040
2.0
1070
    41
1040
3.5
1070
    42
1040
1.0
1070
    43
1040
7.0
1070
    44
1040
1.0
1070
    73
1070
     0
1070
    74
1070
     0
1070
    77
1070
     1
1070
    78
1070
     8
1070
    79
1070
     2
1070
   140
1040
3.5
1070
   141
1040
1.5
1070
   146
1040
0.5142857142857144
1070
   147
1040
1.5
1070
   172
1070
     1
1070
   178
1070
     1
1070
   179
1070
     2
1070
   271
1070
     2
1070
   272
1070
     2
1070
   284
1070
     8
1070
   285
1070
     8
1070
   286
1070
     8
1002
}
  0
DIMENSION
  5
2F4
330
1E
100
AcDbEntity
  8
BEM
100
AcDbDimension
  2
*D2
 10
251.5000000000001
 20
300.6528246543162
 30
0.0
 11
225.0
 21
307.1528246543162
 31
0.0
 70
    32
  1
%%C<>
 71
     5
 42
53.00000000000008
  3
Standard
100
AcDbAlignedDimension
 13
198.5
 23
300.6528246543162
 33
0.0
 14
251.5000000000001
 24
300.6528246543163
 34
0.0
100
AcDbRotatedDimension
1001
ACAD
1000
DSTYLE
1002
{
1070
    40
1040
2.0
1070
    41
1040
3.5
1070
    42
1040
1.0
1070
    43
1040
7.0
1070
    44
1040
1.0
1070
    73
1070
     0
1070
    74
1070
     0
1070
    77
1070
     1
1070
    78
1070
     8
1070
    79
1070
     2
1070
   140
1040
3.5
1070
   141
1040
1.5
1070
   146
1040
0.5142857142857144
1070
   147
1040
1.5
1070
   172
1070
     1
1070
   178
1070
     1
1070
   179
1070
     2
1070
   271
1070
     2
1070
   272
1070
     2
1070
   284
1070
     8
1070
   285
1070
     8
1070
   286
1070
     8
1002
}
  0
LINE
  5
328
330
1E
100
AcDbEntity
  8
MITTEL
100
AcDbLine
 10
224.9999999999999
 20
296.9471063041873
 30
0.0
 11
224.9999999999999
 21
159.0
 31
0.0
  0
LINE
  5
38A
330
1E
100
AcDbEntity
  8
HILF
  6
Continuous
100
AcDbLine
 10
196.8345212279684
 20
541.4438694742013
 30
0.0
 11
253.1654787720315
 21
541.4438694742013
 31
0.0
  0
LINE
  5
38B
330
1E
100
AcDbEntity
  8
HILF
  6
Continuous
100
AcDbLine
 10
197.4014233676225
 20
528.5327834862938
 30
0.0
 11
252.5985766323774
 21
528.5327834862938
 31
0.0
  0
LINE
  5
38C
330
1E
100
AcDbEntity
  8
HILF
  6
Continuous
100
AcDbLine
 10
199.6368074292938
 20
523.4743553084927
 30
0.0
 11
250.3631925707061
 21
523.4743553084927
 31
0.0
  0
LINE
  5
38E
330
1E
100
AcDbEntity
  8
STEMPEL
  6
Continuous
100
AcDbLine
 10
254.6063531499367
 20
564.0
 30
0.0
 11
195.3936468500632
 21
564.0
 31
0.0
  0
ARC
  5
390
330
1E
100
AcDbEntity
  8
STEMPEL
  6
Continuous
100
AcDbCircle
 10
185.4999999999999
 20
539.5
 30
0.0
 40
10.0
100
AcDbArc
 50
0.0
 51
19.46309944468874
  0
ARC
  5
391
330
1E
100
AcDbEntity
  8
STEMPEL
  6
Continuous
100
AcDbCircle
 10
207.5
 20
531.4083269131958
 30
0.0
 40
12.0
100
AcDbArc
 50
180.0
 51
211.7883306170524
  0
ARC
  5
393
330
1E
100
AcDbEntity
  8
STEMPEL
  6
Continuous
100
AcDbCircle
 10
190.4999999999999
 20
520.8726731603433
 30
0.0
 40
8.0
100
AcDbArc
 50
0.0
 51
31.78833061705249
  0
LINE
  5
395
330
1E
100
AcDbEntity
  8
STEMPEL
100
AcDbLine
 10
198.4999999999999
 20
520.8726731603433
 30
0.0
 11
198.4999999999999
 21
368.9999999999999
 31
0.0
  0
LINE
  5
398
330
1E
100
AcDbEntity
  8
STEMPEL
  6
Continuous
100
AcDbLine
 10
195.5
 20
539.5
 30
0.0
 11
195.5
 21
531.4083269131958
 31
0.0
  0
ARC
  5
39A
330
1E
100
AcDbEntity
  8
STEMPEL
  6
Continuous
100
AcDbCircle
 10
213.0
 20
555.6174986573392
 30
0.0
 40
19.5
100
AcDbArc
 50
154.5405714311911
 51
180.0
  0
ARC
  5
39C
330
1E
100
AcDbEntity
  8
STEMPEL
  6
Continuous
100
AcDbCircle
 10
218.5
 20
551.162
 30
0.0
 40
25.00003205712822
100
AcDbArc
 50
179.9082450082395
 51
199.4630994446887
  0
LINE
  5
39E
330
1E
100
AcDbEntity
  8
STEMPEL
  6
Continuous
100
AcDbLine
 10
193.4999999999999
 20
555.6174986573392
 30
0.0
 11
193.4999999999999
 21
551.2020357020083
 31
0.0
  0
LINE
  5
3A2
330
1E
100
AcDbEntity
  8
STEMPEL
  6
Continuous
100
AcDbLine
 10
195.3929551508087
 20
564.0
 30
0.0
 11
195.3269981527853
 21
563.8585547612827
 31
0.0
  0
ARC
  5
3A3
330
1E
100
AcDbEntity
  8
STEMPEL
  6
Continuous
100
AcDbCircle
 10
264.5
 20
539.5000000000001
 30
0.0
 40
10.0
100
AcDbArc
 50
160.5369005553112
 51
180.0
  0
ARC
  5
3A7
330
1E
100
AcDbEntity
  8
STEMPEL
  6
Continuous
100
AcDbCircle
 10
242.4999999999999
 20
531.408326913196
 30
0.0
 40
12.0
100
AcDbArc
 50
328.2116693829475
 51
0.0
  0
ARC
  5
3A9
330
1E
100
AcDbEntity
  8
STEMPEL
  6
Continuous
100
AcDbCircle
 10
259.5
 20
520.8726731603433
 30
0.0
 40
8.0
100
AcDbArc
 50
148.2116693829475
 51
180.0
  0
LINE
  5
3AA
330
1E
100
AcDbEntity
  8
STEMPEL
100
AcDbLine
 10
251.5
 20
520.8726731603433
 30
0.0
 11
251.5
 21
368.9999999999999
 31
0.0
  0
LINE
  5
3AD
330
1E
100
AcDbEntity
  8
STEMPEL
  6
Continuous
100
AcDbLine
 10
254.4999999999999
 20
539.5
 30
0.0
 11
254.4999999999999
 21
531.408326913196
 31
0.0
  0
ARC
  5
3AF
330
1E
100
AcDbEntity
  8
STEMPEL
  6
Continuous
100
AcDbCircle
 10
236.9999999999999
 20
555.6174986573392
 30
0.0
 40
19.5
100
AcDbArc
 50
0.0
 51
25.45942856880455
  0
ARC
  5
3B1
330
1E
100
AcDbEntity
  8
STEMPEL
  6
Continuous
100
AcDbCircle
 10
231.4999999999999
 20
551.162
 30
0.0
 40
25.00003205712822
100
AcDbArc
 50
340.5369005553112
 51
0.0917549917604766
  0
LINE
  5
3B4
330
1E
100
AcDbEntity
  8
STEMPEL
  6
Continuous
100
AcDbLine
 10
256.4999999999999
 20
555.6174986573392
 30
0.0
 11
256.4999999999999
 21
551.2020357020084
 31
0.0
  0
LINE
  5
3B7
330
1E
100
AcDbEntity
  8
STEMPEL
  6
Continuous
100
AcDbLine
 10
254.6070448491911
 20
564.0
 30
0.0
 11
254.6730018472146
 21
563.8585547612828
 31
0.0
  0
LINE
  5
3B9
330
1E
100
AcDbEntity
  8
STEMPEL
  6
Continuous
100
AcDbLine
 10
254.6070448491909
 20
163.9999999999997
 30
0.0
 11
254.6730018472143
 21
164.141445238717
 31
0.0
  0
LINE
  5
3BA
330
1E
100
AcDbEntity
  8
STEMPEL
  6
Continuous
100
AcDbLine
 10
256.4999999999997
 20
172.3825013426606
 30
0.0
 11
256.4999999999997
 21
176.7979642979914
 31
0.0
  0
ARC
  5
3BB
330
1E
100
AcDbEntity
  8
STEMPEL
  6
Continuous
100
AcDbCircle
 10
231.4999999999997
 20
176.8379999999998
 30
0.0
 40
25.00003205712822
100
AcDbArc
 50
359.9082450082394
 51
19.46309944468865
  0
ARC
  5
3BC
330
1E
100
AcDbEntity
  8
STEMPEL
  6
Continuous
100
AcDbCircle
 10
236.9999999999996
 20
172.3825013426607
 30
0.0
 40
19.5
100
AcDbArc
 50
334.5405714311953
 51
359.9999999999999
  0
LINE
  5
3BD
330
1E
100
AcDbEntity
  8
STEMPEL
  6
Continuous
100
AcDbLine
 10
254.4999999999998
 20
188.4999999999998
 30
0.0
 11
254.4999999999998
 21
196.5916730868038
 31
0.0
  0
ARC
  5
3BF
330
1E
100
AcDbEntity
  8
STEMPEL
  6
Continuous
100
AcDbCircle
 10
259.4999999999998
 20
207.1273268396565
 30
0.0
 40
8.0
100
AcDbArc
 50
179.9999999999999
 51
211.7883306170524
  0
ARC
  5
3C0
330
1E
100
AcDbEntity
  8
STEMPEL
  6
Continuous
100
AcDbCircle
 10
242.4999999999998
 20
196.5916730868039
 30
0.0
 40
12.0
100
AcDbArc
 50
359.9999999999999
 51
31.78833061705243
  0
ARC
  5
3C1
330
1E
100
AcDbEntity
  8
STEMPEL
  6
Continuous
100
AcDbCircle
 10
264.4999999999998
 20
188.4999999999997
 30
0.0
 40
10.0
100
AcDbArc
 50
179.9999999999999
 51
199.4630994446886
  0
LINE
  5
3CB
330
1E
100
AcDbEntity
  8
STEMPEL
  6
Continuous
100
AcDbLine
 10
254.6063531499365
 20
163.9999999999998
 30
0.0
 11
195.393646850063
 21
163.9999999999999
 31
0.0
  0
LINE
  5
3CC
330
1E
100
AcDbEntity
  8
HILF
  6
Continuous
100
AcDbLine
 10
199.6368074292936
 20
204.5256446915072
 30
0.0
 11
250.3631925707059
 21
204.5256446915072
 31
0.0
  0
LINE
  5
3CD
330
1E
100
AcDbEntity
  8
HILF
  6
Continuous
100
AcDbLine
 10
197.4014233676223
 20
199.4672165137061
 30
0.0
 11
252.5985766323772
 21
199.467216513706
 31
0.0
  0
LINE
  5
3CE
330
1E
100
AcDbEntity
  8
HILF
  6
Continuous
100
AcDbLine
 10
196.8345212279682
 20
186.5561305257986
 30
0.0
 11
253.1654787720313
 21
186.5561305257984
 31
0.0
  0
ARC
  5
426
330
1E
100
AcDbEntity
  8
STEMPEL
  6
Continuous
100
AcDbCircle
 10
185.5
 20
188.4999999999997
 30
0.0
 40
10.0
100
AcDbArc
 50
340.5369005553114
 51
0.0000000000001088
  0
ARC
  5
427
330
1E
100
AcDbEntity
  8
STEMPEL
  6
Continuous
100
AcDbCircle
 10
207.5000000000001
 20
196.5916730868039
 30
0.0
 40
12.0
100
AcDbArc
 50
148.2116693829476
 51
180.0000000000001
  0
ARC
  5
428
330
1E
100
AcDbEntity
  8
STEMPEL
  6
Continuous
100
AcDbCircle
 10
190.5
 20
207.1273268396565
 30
0.0
 40
8.0
100
AcDbArc
 50
328.2116693829477
 51
0.0000000000001088
  0
LINE
  5
429
330
1E
100
AcDbEntity
  8
STEMPEL
  6
Continuous
100
AcDbLine
 10
195.5000000000001
 20
188.4999999999998
 30
0.0
 11
195.5
 21
196.5916730868038
 31
0.0
  0
ARC
  5
42A
330
1E
100
AcDbEntity
  8
STEMPEL
  6
Continuous
100
AcDbCircle
 10
213.0000000000002
 20
172.3825013426607
 30
0.0
 40
19.5
100
AcDbArc
 50
180.0000000000001
 51
205.4594285688047
  0
ARC
  5
42B
330
1E
100
AcDbEntity
  8
STEMPEL
  6
Continuous
100
AcDbCircle
 10
218.5000000000002
 20
176.8379999999998
 30
0.0
 40
25.00003205712822
100
AcDbArc
 50
160.5369005553113
 51
180.0917549917605
  0
LINE
  5
42C
330
1E
100
AcDbEntity
  8
STEMPEL
  6
Continuous
100
AcDbLine
 10
193.5000000000001
 20
172.3825013426606
 30
0.0
 11
193.5000000000001
 21
176.7979642979914
 31
0.0
  0
LINE
  5
42D
330
1E
100
AcDbEntity
  8
STEMPEL
  6
Continuous
100
AcDbLine
 10
195.3929551508089
 20
163.9999999999997
 30
0.0
 11
195.3269981527855
 21
164.141445238717
 31
0.0
  0
TEXT
  5
451
330
1E
100
AcDbEntity
  8
BEM
100
AcDbText
 10
416.5811541437437
 20
12.14804815338303
 30
0.0
 40
4.0
  1
Diese Zeichnung ist urheberrechtlich geschützt und bleibt unser Eigentum. Sie darf weder ganz noch teilweise vervielfältigt und nicht an Dritte weitergegeben werden.
 50
90.0
 41
0.8
  7
GREEKS
100
AcDbText
  0
SPLINE
  5
4A5
330
1E
100
AcDbEntity
  8
HILF
100
AcDbSpline
210
0.0
220
0.0
230
1.0
 70
     8
 71
     3
 72
    11
 73
     7
 74
     0
 42
0.0000000001
 43
0.0000000001
 40
0.0
 40
0.0
 40
0.0
 40
0.0
 40
13.58537816919352
 40
27.17075633838702
 40
40.7561345075806
 40
54.34151267677418
 40
54.34151267677418
 40
54.34151267677418
 40
54.34151267677418
 10
198.4999999999999
 20
363.9999999999999
 30
0.0
 10
202.9149802186239
 20
365.5025394002713
 30
0.0
 10
211.7449406558717
 20
368.5076182008142
 30
0.0
 10
225.0202373765131
 20
363.9695271967422
 30
0.0
 10
238.1741098380757
 20
359.6142730122163
 30
0.0
 10
247.2469187934814
 20
362.2536781736667
 30
0.0
 10
251.5000000000001
 20
363.9999999999999
 30
0.0
  0
SPLINE
  5
4A6
330
1E
100
AcDbEntity
  8
HILF
100
AcDbSpline
210
0.0
220
0.0
230
1.0
 70
     8
 71
     3
 72
    11
 73
     7
 74
     0
 42
0.0000000001
 43
0.0000000001
 40
0.0
 40
0.0
 40
0.0
 40
0.0
 40
13.58537816919352
 40
27.17075633838702
 40
40.7561345075806
 40
54.34151267677418
 40
54.34151267677418
 40
54.34151267677418
 40
54.34151267677418
 10
198.4999999999999
 20
368.9999999999999
 30
0.0
 10
202.9149802186239
 20
370.5025394002713
 30
0.0
 10
211.7449406558717
 20
373.5076182008142
 30
0.0
 10
225.0202373765131
 20
368.9695271967421
 30
0.0
 10
238.1741098380757
 20
364.6142730122163
 30
0.0
 10
247.2469187934814
 20
367.2536781736667
 30
0.0
 10
251.5000000000001
 20
368.9999999999999
 30
0.0
  0
LINE
  5
4A7
330
1E
100
AcDbEntity
  8
STEMPEL
100
AcDbLine
 10
198.4999999999999
 20
363.9999999999999
 30
0.0
 11
198.5
 21
207.1273268396565
 31
0.0
  0
LINE
  5
4A8
330
1E
100
AcDbEntity
  8
STEMPEL
100
AcDbLine
 10
251.5000000000001
 20
363.9999999999999
 30
0.0
 11
251.5000000000001
 21
207.1273268396565
 31
0.0
  0
TEXT
  5
549
330
1E
100
AcDbEntity
  8
TEXT
 62
     1
100
AcDbText
 10
196.6560484572489
 20
139.8004583895517
 30
0.0
 40
7.0
  1
Werkstoff: E195 EN10305 feuerverzinkt
 41
0.8
  7
GREEKS
100
AcDbText
  0
ENDSEC
  0
SECTION
  2
OBJECTS
  0
DICTIONARY
  5
C
330
0
100
AcDbDictionary
281
     1
  3
ACAD_COLOR
350
DF
  3
ACAD_GROUP
350
D
  3
ACAD_LAYOUT
350
19
  3
ACAD_MATERIAL
350
DE
  3
ACAD_MLINESTYLE
350
16
  3
ACAD_PLOTSETTINGS
350
18
  3
ACAD_PLOTSTYLENAME
350
E
  3
AcDbVariableDictionary
350
24C
  0
DICTIONARY
  5
A0
330
1E
100
AcDbDictionary
280
     1
281
     1
  3
ACAD_LAYOUTSELFREF
360
D4
  0
DICTIONARY
  5
A2
330
1A
100
AcDbDictionary
280
     1
281
     1
  3
ACAD_LAYOUTSELFREF
360
D3
  0
DICTIONARY
  5
DF
102
{ACAD_REACTORS
330
C
102
}
330
C
100
AcDbDictionary
281
     1
  0
DICTIONARY
  5
D
102
{ACAD_REACTORS
330
C
102
}
330
C
100
AcDbDictionary
281
     1
  0
DICTIONARY
  5
19
102
{ACAD_REACTORS
330
C
102
}
330
C
100
AcDbDictionary
281
     1
  3
Layout1
350
1D
  3
Model
350
21
  0
DICTIONARY
  5
DE
102
{ACAD_REACTORS
330
C
102
}
330
C
100
AcDbDictionary
281
     1
  0
DICTIONARY
  5
16
102
{ACAD_REACTORS
330
C
102
}
330
C
100
AcDbDictionary
281
     1
  3
Standard
350
17
  0
DICTIONARY
  5
18
102
{ACAD_REACTORS
330
C
102
}
330
C
100
AcDbDictionary
281
     1
  0
ACDBDICTIONARYWDFLT
  5
E
102
{ACAD_REACTORS
330
C
102
}
330
C
100
AcDbDictionary
281
     1
  3
Normal
350
F
100
AcDbDictionaryWithDefault
340
F
  0
DICTIONARY
  5
24C
102
{ACAD_REACTORS
330
C
102
}
330
C
100
AcDbDictionary
281
     1
  3
DIMASSOC
350
24D
  3
PROJECTNAME
350
24E
  0
XRECORD
  5
D4
102
{ACAD_REACTORS
330
A0
102
}
330
A0
100
AcDbXrecord
280
     1
340
1E
  0
XRECORD
  5
D3
102
{ACAD_REACTORS
330
A2
102
}
330
A2
100
AcDbXrecord
280
     1
340
1A
  0
LAYOUT
  5
1D
102
{ACAD_REACTORS
330
19
102
}
330
19
100
AcDbPlotSettings
  1

  2
\\NT_WORK01\HP LaserJet 5000 PCL 6
  4

  6

 40
0.0
 41
0.0
 42
0.0
 43
0.0
 44
0.0
 45
0.0
 46
0.0
 47
0.0
 48
0.0
 49
0.0
140
0.0
141
0.0
142
1.0
143
1.0
 70
   688
 72
     0
 73
     0
 74
     5
  7
monochrome1.ctb
 75
    16
147
1.0
 76
     0
 77
     2
 78
   300
148
0.0
149
0.0
100
AcDbLayout
  1
Layout1
 70
     0
 71
     1
 10
0.0
 20
0.0
 11
12.0
 21
9.0
 12
0.0
 22
0.0
 32
0.0
 14
1.000000000000000E+20
 24
1.000000000000000E+20
 34
1.000000000000000E+20
 15
-1.000000000000000E+20
 25
-1.000000000000000E+20
 35
-1.000000000000000E+20
146
0.0
 13
0.0
 23
0.0
 33
0.0
 16
1.0
 26
0.0
 36
0.0
 17
0.0
 27
1.0
 37
0.0
 76
     0
330
1A
  0
LAYOUT
  5
21
102
{ACAD_REACTORS
330
19
102
}
330
19
100
AcDbPlotSettings
  1

  2
RICOH Aficio 2027 PCL 6
  4
A4
  6

 40
5.027083396911621
 41
5.027085304260253
 42
5.027084350585937
 43
5.027069091796875
 44
209.9733276367187
 45
296.9259948730469
 46
0.0
 47
2.06
 48
0.0
 49
0.0
140
0.0
141
0.0
142
1.0
143
1.050424582197948
 70
 11956
 72
     1
 73
     0
 74
     2
  7
monochrome1.ctb
 75
     0
147
0.9519959994724818
 76
     0
 77
     2
 78
   300
148
0.0
149
0.0
100
AcDbLayout
  1
Model
 70
     1
 71
     0
 10
0.0
 20
0.0
 11
12.0
 21
9.0
 12
0.0
 22
0.0
 32
0.0
 14
0.0
 24
0.0
 34
0.0
 15
0.0
 25
0.0
 35
0.0
146
0.0
 13
0.0
 23
0.0
 33
0.0
 16
1.0
 26
0.0
 36
0.0
 17
0.0
 27
1.0
 37
0.0
 76
     0
330
1E
  0
MLINESTYLE
  5
17
102
{ACAD_REACTORS
330
16
102
}
330
16
100
AcDbMlineStyle
  2
STANDARD
 70
     0
  3

 62
   256
 51
90.0
 52
90.0
 71
     2
 49
0.5
 62
   256
  6
BYLAYER
 49
-0.5
 62
   256
  6
BYLAYER
  0
ACDBPLACEHOLDER
  5
F
102
{ACAD_REACTORS
330
E
102
}
330
E
  0
DICTIONARYVAR
  5
24D
102
{ACAD_REACTORS
330
24C
102
}
330
24C
100
DictionaryVariables
280
     0
  1
1
  0
DICTIONARYVAR
  5
24E
102
{ACAD_REACTORS
330
24C
102
}
330
24C
100
DictionaryVariables
280
     0
  1

  0
ENDSEC
  0
EOF
